osu file format v14

[General]
AudioFilename: audio.mp3
AudioLeadIn: 0
PreviewTime: 5886
Countdown: 1
SampleSet: Soft
StackLeniency: 0.3
Mode: 0
LetterboxInBreaks: 0
WidescreenStoryboard: 1

[Editor]
DistanceSpacing: 0.4
BeatDivisor: 8
GridSize: 32
TimelineZoom: 3.400001

[Metadata]
Title:Candy Mountain
TitleUnicode:キャンディ山
Artist:Jun Ishikawa
ArtistUnicode:石川 淳
Creator:Etna
Version:Sky High
Source:星のカービィ ウルトラスーパーデラックス
Tags:david- kirby super star ultra snes ds hal laboratory nintendo dan miyakawa video game instrumental poyo hirokazu ando
BeatmapID:3470543
BeatmapSetID:1007024

[Difficulty]
HPDrainRate:6
CircleSize:4
OverallDifficulty:9
ApproachRate:9.5
SliderMultiplier:1.7
SliderTickRate:1

[Events]
//Background and Video events
0,0,"new bg.png",0,0
//Break Periods
//Storyboard Layer 0 (Background)
//Storyboard Layer 1 (Fail)
//Storyboard Layer 2 (Pass)
//Storyboard Layer 3 (Foreground)
//Storyboard Layer 4 (Overlay)
//Storyboard Sound Samples

[TimingPoints]
446,340.028108990343,4,2,1,85,1,0
446,-74.0740740740741,4,2,1,85,0,1
5206,-80,4,2,1,85,0,0
5546,-80,4,2,2,85,0,0
5886,-80,4,2,1,85,0,0
7161,-80,4,2,1,5,0,0
7246,-80,4,2,1,85,0,0
9881,-80,4,2,1,5,0,0
9966,-80,4,2,1,85,0,0
11326,-74.0740740740741,4,2,1,85,0,0
15407,-57.1428571428571,4,2,1,85,0,0
16597,-133.333333333333,4,2,1,30,0,0
16767,-90.9090909090909,4,2,1,85,0,0
21187,-68.9655172413793,4,2,1,85,0,0
22207,-74.0740740740741,4,2,1,85,0,0
26288,-57.1428571428571,4,2,1,85,0,0
27648,-66.6666666666667,4,2,1,85,0,1
30028,-74.0740740740741,4,2,1,85,0,0
30368,-58.8235294117647,4,2,1,85,0,1
32748,-74.0740740740741,4,2,1,85,0,0
33088,-66.6666666666667,4,2,1,85,0,1
34448,-50,4,2,1,85,0,1
35128,-57.1428571428571,4,2,1,85,0,0
35468,-100,4,2,2,85,0,0
35808,-80,4,2,1,85,0,0
41249,-74.0740740740741,4,2,1,85,0,0
45329,-57.1428571428571,4,2,1,85,0,0
46519,-133.333333333333,4,2,1,30,0,0
46689,-68.9655172413793,4,2,1,85,0,0
52130,-74.0740740740741,4,2,1,85,0,0
56210,-57.1428571428571,4,2,1,85,0,0
57570,-66.6666666666667,4,2,1,85,0,1
59950,-74.0740740740741,4,2,1,85,0,0
60290,-58.8235294117647,4,2,1,85,0,1
62671,-74.0740740740741,4,2,1,85,0,0
63011,-66.6666666666667,4,2,1,85,0,1
64371,-50,4,2,1,85,0,1
65051,-57.1428571428571,4,2,1,85,0,0
65391,-100,4,2,2,85,0,0
67091,-80,4,2,1,35,0,0
68451,-80,4,2,1,25,0,0
69811,-80,4,2,1,15,0,0
71171,-80,4,2,1,5,0,0

[Colours]
Combo1 : 255,166,201
Combo2 : 176,255,255

[HitObjects]
9,84,446,6,0,L|64:66,1,57.3750002188683,2|0,3:2|0:0,0:0:0:0:
111,9,616,1,0,0:0:0:0:
185,8,701,1,0,0:0:0:0:
249,44,786,1,8,0:0:0:0:
273,114,871,1,0,0:0:0:0:
324,171,956,1,0,0:0:0:0:
394,195,1041,1,0,0:0:0:0:
465,175,1126,1,2,3:2:0:0:
491,130,1211,1,0,0:0:0:0:
481,93,1296,1,0,0:0:0:0:
460,76,1381,1,0,0:0:0:0:
444,73,1466,2,0,L|426:126,1,57.3750002188683,8|0,0:0|0:0,0:0:0:0:
354,205,1636,2,0,L|371:258,1,57.3750002188683
506,302,1806,5,2,3:2:0:0:
446,279,1891,1,0,0:0:0:0:
383,288,1976,1,0,0:0:0:0:
338,333,2061,1,0,0:0:0:0:
285,369,2146,1,8,0:0:0:0:
222,382,2231,1,0,0:0:0:0:
169,346,2316,1,0,0:0:0:0:
160,282,2401,1,0,0:0:0:0:
204,237,2486,1,2,3:2:0:0:
246,238,2571,1,0,0:0:0:0:
264,256,2656,1,0,0:0:0:0:
268,277,2741,1,0,0:0:0:0:
263,287,2826,2,0,L|208:270,1,57.3750002188683,8|0,0:0|0:0,0:0:0:0:
181,357,2996,2,0,L|236:373,1,57.3750002188683
347,363,3166,5,2,3:2:0:0:
425,346,3251,1,0,0:0:0:0:
456,272,3336,1,0,0:0:0:0:
410,206,3421,1,0,0:0:0:0:
339,168,3506,1,8,3:2:0:0:
317,91,3591,1,0,0:0:0:0:
350,36,3676,1,0,0:0:0:0:
370,30,3761,1,0,0:0:0:0:
379,33,3846,1,2,3:2:0:0:
362,94,3931,1,0,0:0:0:0:
304,120,4016,1,0,0:0:0:0:
240,115,4101,1,0,0:0:0:0:
188,76,4186,1,8,3:2:0:0:
131,46,4271,1,0,0:0:0:0:
88,46,4356,1,0,0:0:0:0:
76,56,4441,1,0,0:0:0:0:
77,66,4526,6,0,L|131:48,1,57.3750002188683,10|0,3:2|0:0,0:0:0:0:
232,105,4696,2,0,L|249:159,1,57.3750002188683
193,260,4866,2,0,L|138:277,1,57.3750002188683,10|0,3:2|0:0,0:0:0:0:
38,221,5036,2,0,L|20:166,1,57.3750002188683,0|0,0:0|0:0,0:0:0:0:
77,66,5206,5,10,3:2:0:0:
232,105,5376,1,8,0:0:0:0:
119,171,5546,1,0,0:0:0:0:
119,150,5631,1,0,0:0:0:0:
140,143,5716,1,0,0:0:0:0:
152,160,5801,1,0,0:0:0:0:
140,178,5886,1,2,0:0:0:0:
288,239,6056,5,0,0:0:0:0:
303,234,6141,1,0,0:0:0:0:
318,229,6226,1,8,0:0:0:0:
459,348,6396,1,0,0:0:0:0:
454,363,6481,1,0,0:0:0:0:
449,378,6566,1,2,0:0:0:0:
275,337,6736,1,0,0:0:0:0:
332,346,6821,1,0,0:0:0:0:
374,306,6906,2,0,B|247:331|356:343|232:367,1,159.375,8|0,0:0|0:0,0:0:0:0:
143,382,7246,6,0,P|132:331|108:283,1,106.25,2|0,0:0|0:0,0:0:0:0:
165,210,7501,1,0,0:0:0:0:
165,210,7586,1,8,0:0:0:0:
49,361,7756,1,0,0:0:0:0:
49,361,7841,1,0,0:0:0:0:
49,361,7926,1,2,0:0:0:0:
211,287,8096,1,2,0:0:0:0:
78,200,8266,2,0,P|30:219|22:269,1,106.25,8|0,0:0|0:0,0:0:0:0:
211,287,8606,5,2,0:0:0:0:
362,336,8776,1,0,0:0:0:0:
370,322,8861,1,0,0:0:0:0:
374,306,8946,1,8,0:0:0:0:
247,177,9116,1,0,0:0:0:0:
255,190,9201,1,0,0:0:0:0:
266,202,9286,1,2,0:0:0:0:
441,151,9456,1,0,0:0:0:0:
384,166,9541,1,0,0:0:0:0:
356,217,9626,2,0,P|405:148|454:91,1,159.375,8|0,0:0|0:0,0:0:0:0:
412,12,9966,5,10,3:2:0:0:
391,0,10051,1,0,0:0:0:0:
367,0,10136,1,0,0:0:0:0:
344,6,10221,1,0,0:0:0:0:
267,52,10306,5,10,3:2:0:0:
244,86,10391,1,0,0:0:0:0:
206,106,10476,1,0,0:0:0:0:
160,106,10561,1,0,0:0:0:0:
185,20,10646,5,10,0:0:0:0:
346,91,10816,1,10,0:0:0:0:
106,42,10986,1,10,0:0:0:0:
94,39,11071,1,2,0:0:0:0:
82,37,11156,1,2,0:0:0:0:
82,37,11326,6,0,B|105:88|105:88|160:106,1,114.750000437737,2|0,0:2|0:0,0:0:0:0:
236,144,11581,1,2,0:2:0:0:
236,144,11666,2,0,P|260:136|244:117,1,57.3750002188683,8|0,0:2|0:0,0:0:0:0:
219,34,11836,1,2,0:2:0:0:
219,34,11921,1,2,0:2:0:0:
219,34,12006,2,0,L|165:16,1,57.3750002188683,2|8,0:2|0:0,0:0:0:0:
106,124,12176,2,0,L|160:106,1,57.3750002188683,2|0,0:2|0:0,0:0:0:0:
320,0,12346,5,10,0:2:0:0:
366,0,12431,1,0,0:0:0:0:
410,10,12516,1,0,0:0:0:0:
447,37,12602,1,0,0:0:0:0:
479,70,12687,2,0,B|488:48|488:48|467:22,1,57.3750002188683,2|0,0:0|0:3,0:3:0:0:
352,92,12857,1,2,0:0:0:0:
352,92,12942,1,2,0:0:0:0:
352,92,13027,2,0,B|360:123|360:123|384:127,1,57.3750002188683,8|0,0:0|0:3,0:3:0:0:
506,178,13197,5,2,0:0:0:0:
509,173,13282,1,8,0:0:0:0:
512,168,13367,1,2,0:0:0:0:
440,148,13452,1,8,0:0:0:0:
368,169,13537,1,2,0:0:0:0:
326,230,13622,1,2,0:0:0:0:
308,302,13707,1,10,0:0:0:0:
255,336,13792,1,0,0:0:0:0:
209,338,13877,1,0,0:0:0:0:
187,319,13962,1,0,0:0:0:0:
212,305,14047,2,0,L|266:323,1,57.3750002188683,2|0,0:0|0:0,0:0:0:0:
476,276,14217,1,2,0:0:0:0:
501,262,14302,1,2,0:0:0:0:
479,243,14387,2,0,L|425:225,1,57.3750002188683,8|0,0:0|0:0,0:0:0:0:
179,186,14557,5,2,0:0:0:0:
174,188,14642,1,8,0:0:0:0:
169,190,14727,1,2,0:0:0:0:
245,215,14812,1,8,0:0:0:0:
291,149,14897,1,2,0:0:0:0:
215,124,14982,1,2,0:0:0:0:
169,190,15067,2,0,L|115:208,1,57.3750002188683,10|0,0:0|0:0,0:0:0:0:
45,248,15237,2,0,B|16:241|16:241|34:220,1,57.3750002188683,2|0,0:0|0:0,0:0:0:0:
136,117,15407,2,0,L|65:140,1,74.3750007092953,10|0,0:0|0:0,0:0:0:0:
0,320,15577,5,8,0:0:0:0:
0,320,15662,1,8,0:0:0:0:
0,320,15747,2,0,L|70:343,1,74.3750007092953,10|0,0:0|0:0,0:0:0:0:
115,208,15917,2,0,L|185:184,1,74.3750007092953,10|0,0:0|0:0,0:0:0:0:
291,149,16087,1,2,0:0:0:0:
495,226,16597,5,0,0:0:0:0:
499,227,16767,2,0,P|455:240|415:264,1,93.5000028533936,2|0,0:0|0:0,0:0:0:0:
370,335,17022,1,0,0:0:0:0:
370,335,17107,2,0,P|413:352|448:382,1,93.5000028533936,8|0,0:0|0:0,0:0:0:0:
493,311,17362,1,0,0:0:0:0:
493,311,17447,1,2,0:0:0:0:
331,260,17617,1,0,0:0:0:0:
331,260,17702,1,0,0:0:0:0:
331,260,17787,2,0,P|348:217|378:182,1,93.5000028533936,8|0,0:0|0:0,0:0:0:0:
283,331,18127,6,0,B|201:330|115:361,1,140.25000428009,2|0,0:0|0:0,0:0:0:0:
66,382,18467,2,0,P|41:343|5:315,1,93.5000028533936,8|0,0:0|0:0,0:0:0:0:
27,233,18722,1,0,0:0:0:0:
27,233,18807,1,2,0:0:0:0:
145,351,18977,1,2,0:0:0:0:
160,211,19147,2,0,P|123:239|98:278,1,93.5000028533936,8|0,0:0|0:0,0:0:0:0:
4,143,19487,6,0,P|51:143|96:156,1,93.5000028533936,2|0,0:0|0:0,0:0:0:0:
176,128,19742,1,0,0:0:0:0:
176,128,19827,2,0,P|147:91|109:65,1,93.5000028533936,8|0,0:0|0:0,0:0:0:0:
24,58,20082,1,0,0:0:0:0:
24,58,20167,1,2,0:0:0:0:
176,128,20337,1,0,0:0:0:0:
176,128,20422,1,0,0:0:0:0:
176,128,20507,2,0,P|200:88|212:42,1,93.5000028533936,8|0,0:0|0:0,0:0:0:0:
392,0,20847,5,10,0:0:0:0:
424,47,20932,1,0,0:0:0:0:
389,93,21017,1,0,0:0:0:0:
334,75,21102,1,0,0:0:0:0:
334,18,21187,2,0,B|397:37|366:55|433:89,1,123.250003761292,10|0,0:0|0:0,0:0:0:0:
504,125,21442,5,0,0:0:0:0:
504,125,21527,2,0,B|534:119|534:119|513:97,1,61.6250018806458,10|0,0:0|0:0,0:0:0:0:
459,12,21697,2,0,B|484:-6|484:-6|485:25,1,61.6250018806458,10|0,0:0|0:0,0:0:0:0:
442,159,21867,1,10,0:0:0:0:
440,164,21952,1,2,0:0:0:0:
438,169,22037,1,2,0:0:0:0:
438,169,22207,6,0,B|411:179|411:179|406:203|406:203|347:222,1,114.750000437737,2|0,0:0|0:0,0:0:0:0:
272,261,22462,1,2,0:0:0:0:
272,261,22547,2,0,P|248:253|264:234,1,57.3750002188683,8|0,0:0|0:0,0:0:0:0:
289,151,22717,1,2,0:0:0:0:
289,151,22802,1,2,0:0:0:0:
289,151,22887,2,0,L|343:133,1,57.3750002188683,2|8,0:0|0:0,0:0:0:0:
402,240,23057,2,0,L|348:222,1,57.3750002188683,2|0,0:0|0:0,0:0:0:0:
183,313,23227,5,10,0:0:0:0:
137,320,23312,1,0,0:0:0:0:
91,327,23397,1,0,0:0:0:0:
45,334,23482,1,0,0:0:0:0:
0,341,23567,2,0,B|14:358|14:358|48:352,1,57.3750002188683,2|0,0:0|0:0,0:0:0:0:
149,247,23737,1,2,0:0:0:0:
149,247,23822,1,2,0:0:0:0:
149,247,23907,2,0,B|160:268|160:268|141:297,1,57.3750002188683,8|0,0:0|0:0,0:0:0:0:
11,267,24077,5,2,0:0:0:0:
6,266,24162,1,8,0:0:0:0:
1,265,24247,1,2,0:0:0:0:
76,259,24332,1,8,0:0:0:0:
141,296,24417,1,2,0:0:0:0:
188,354,24502,1,2,0:0:0:0:
257,384,24587,1,10,0:0:0:0:
320,384,24673,1,0,0:0:0:0:
364,372,24758,1,0,0:0:0:0:
385,352,24843,1,0,0:0:0:0:
397,326,24928,2,0,L|343:308,1,57.3750002188683,2|0,0:0|0:0,0:0:0:0:
310,87,25098,1,2,0:0:0:0:
331,107,25183,1,2,0:0:0:0:
343,133,25268,2,0,L|289:151,1,57.3750002188683,8|0,0:0|0:0,0:0:0:0:
33,112,25438,5,2,0:0:0:0:
28,111,25523,1,8,0:0:0:0:
23,110,25608,1,2,0:0:0:0:
99,83,25693,1,8,0:0:0:0:
145,148,25778,1,2,0:0:0:0:
69,174,25863,1,2,0:0:0:0:
28,110,25948,2,0,P|56:110|82:122,1,57.3750002188683,10|0,0:0|0:0,0:0:0:0:
154,157,26118,2,0,P|182:156|208:144,1,57.3750002188683,2|0,0:0|0:0,0:0:0:0:
230,6,26288,2,0,L|254:77,1,74.3750007092953,10|0,0:0|0:0,0:0:0:0:
428,171,26458,5,10,0:0:0:0:
428,171,26543,1,10,0:0:0:0:
428,171,26628,2,0,B|411:204|411:204|400:239,1,74.3750007092953,10|0,0:0|0:0,0:0:0:0:
177,360,26798,2,0,B|161:326|161:326|139:296,1,74.3750007092953,10|0,0:0|0:0,0:0:0:0:
342,136,26968,2,0,B|323:168|323:168|313:204,1,74.3750007092953,2|0,0:0|0:0,0:0:0:0:
257,319,27138,2,0,B|242:284|242:284|220:254,1,74.3750007092953,8|0,0:0|0:0,0:0:0:0:
69,344,27308,6,0,P|57:372|86:364,3,74.3750007092953,10|10|2|2,0:0|0:0|0:0|0:0,0:0:0:0:
257,319,27648,5,2,0:0:0:0:
317,300,27733,1,0,0:0:0:0:
377,321,27818,1,0,0:0:0:0:
410,376,27903,1,0,0:0:0:0:
473,383,27988,1,8,0:0:0:0:
510,331,28073,1,0,0:0:0:0:
490,270,28158,1,0,0:0:0:0:
484,271,28243,1,0,0:0:0:0:
478,272,28328,2,0,P|450:255|421:242,1,63.7500024318696,2|0,0:0|0:0,0:0:0:0:
335,279,28498,2,0,P|303:286|274:298,1,63.7500024318696,2|0,0:0|0:0,0:0:0:0:
302,379,28668,2,0,P|332:365|363:358,1,63.7500024318696,8|0,0:0|0:0,0:0:0:0:
512,197,28838,2,0,P|484:180|455:167,1,63.7500024318696
443,86,29008,6,0,P|412:92|392:116,1,63.7500024318696,2|0,0:0|0:0,0:0:0:0:
380,197,29178,2,0,P|395:226|422:242,1,63.7500024318696,2|0,0:0|0:0,0:0:0:0:
512,197,29348,2,0,P|484:180|455:167,1,63.7500024318696,8|0,0:0|0:0,0:0:0:0:
396,3,29518,2,0,P|368:16|342:34,1,63.7500024318696,2|8,0:0|0:0,0:0:0:0:
220,98,29688,5,2,0:0:0:0:
171,110,29773,1,8,0:0:0:0:
121,101,29858,1,2,0:0:0:0:
80,72,29943,1,0,0:0:0:0:
58,26,30028,2,0,P|87:32|112:45,1,57.3750002188683,8|0,0:0|0:0,0:0:0:0:
175,94,30198,2,0,P|193:117|204:143,1,57.3750002188683,2|0,0:0|0:0,0:0:0:0:
186,263,30368,5,2,0:0:0:0:
170,341,30453,1,0,0:0:0:0:
102,382,30538,1,0,0:0:0:0:
27,355,30623,1,0,0:0:0:0:
0,280,30708,1,8,0:0:0:0:
39,211,30793,1,0,0:0:0:0:
117,202,30878,1,0,0:0:0:0:
114,216,30963,1,0,0:0:0:0:
110,230,31048,2,0,L|92:300,1,72.2500013780594,2|0,0:0|0:0,0:0:0:0:
416,384,31218,2,0,L|434:314,1,72.2500013780594,2|0,0:0|0:0,0:0:0:0:
218,258,31388,2,0,L|200:328,1,72.2500013780594,8|0,0:0|0:0,0:0:0:0:
308,356,31558,2,0,L|326:286,1,72.2500013780594
218,258,31728,6,0,L|200:328,1,72.2500013780594,2|0,0:0|0:0,0:0:0:0:
308,356,31898,2,0,L|326:286,1,72.2500013780594,2|0,0:0|0:0,0:0:0:0:
110,230,32068,2,0,L|92:300,1,72.2500013780594,8|0,0:0|0:0,0:0:0:0:
416,384,32238,2,0,L|434:314,1,72.2500013780594,2|8,0:0|0:0,0:0:0:0:
512,42,32408,5,2,0:0:0:0:
446,11,32493,1,8,0:0:0:0:
377,33,32578,1,2,0:0:0:0:
349,99,32663,1,0,0:0:0:0:
376,165,32748,2,0,P|398:184|424:196,1,57.3750002188683,8|0,0:0|0:0,0:0:0:0:
508,77,32918,2,0,P|481:87|454:98,1,57.3750002188683,2|0,0:0|0:0,0:0:0:0:
286,165,33088,5,2,0:0:0:0:
209,173,33173,1,0,0:0:0:0:
136,196,33258,1,0,0:0:0:0:
68,231,33343,1,0,0:0:0:0:
6,276,33428,1,10,0:0:0:0:
55,334,33513,1,0,0:0:0:0:
131,338,33598,1,0,0:0:0:0:
192,292,33683,1,0,0:0:0:0:
199,217,33768,1,2,0:0:0:0:
157,168,33853,1,0,0:0:0:0:
103,147,33938,1,0,0:0:0:0:
49,126,34023,1,0,0:0:0:0:
19,76,34108,1,10,0:0:0:0:
43,24,34193,1,0,0:0:0:0:
99,14,34278,1,0,0:0:0:0:
136,49,34363,1,0,0:0:0:0:
169,47,34448,6,0,B|151:41|151:41|89:66,1,85,2|0,0:0|0:0,0:0:0:0:
1,197,34618,2,0,B|19:191|19:191|80:216,1,85,8|0,0:0|0:0,0:0:0:0:
170,346,34788,1,2,0:0:0:0:
170,346,34873,1,2,0:0:0:0:
170,346,34958,2,0,B|188:307|188:307|202:267,1,85,10|2,0:0|0:0,0:0:0:0:
363,129,35128,5,10,0:0:0:0:
178,58,35298,1,8,0:0:0:0:
204,156,35468,1,0,0:0:0:0:
220,169,35553,1,0,0:0:0:0:
239,178,35638,1,0,0:0:0:0:
259,184,35723,1,0,0:0:0:0:
279,187,35808,1,2,0:0:0:0:
373,34,35978,6,0,P|399:35|414:56,1,53.125
478,93,36148,2,0,P|426:104|375:120,1,106.25,8|0,0:0|0:0,0:0:0:0:
307,81,36403,1,0,0:0:0:0:
307,81,36488,1,2,0:0:0:0:
466,185,36658,2,0,P|491:183|506:162,1,53.125
478,93,36829,2,0,P|426:104|375:120,1,106.25,8|0,0:0|0:0,0:0:0:0:
339,284,37169,6,0,B|463:319|353:322|475:357,1,159.375,2|0,0:0|0:0,0:0:0:0:
474,276,37509,1,8,0:0:0:0:
339,284,37679,2,0,P|328:313|323:335,1,53.125
251,379,37849,2,0,P|236:328|217:278,1,106.25,2|2,0:0|0:0,0:0:0:0:
91,336,38189,2,0,P|112:380|161:371,1,106.25,8|0,0:0|0:0,0:0:0:0:
204,251,38529,5,2,0:0:0:0:
40,180,38699,2,0,P|14:180|0:201,1,53.125
4,275,38869,2,0,P|53:256|104:241,1,106.25,8|0,0:0|0:0,0:0:0:0:
116,162,39124,1,0,0:0:0:0:
116,162,39209,1,2,0:0:0:0:
91,336,39379,2,0,P|68:348|45:336,1,53.125
4,275,39549,2,0,P|53:256|104:241,1,106.25,8|0,0:0|0:0,0:0:0:0:
165,34,39889,5,10,0:0:0:0:
225,13,39974,1,0,0:0:0:0:
282,40,40059,1,0,0:0:0:0:
304,99,40144,1,0,0:0:0:0:
365,115,40229,1,10,0:0:0:0:
208,123,40399,5,0,0:0:0:0:
208,123,40484,1,0,0:0:0:0:
208,123,40569,1,10,0:0:0:0:
378,17,40739,1,10,0:0:0:0:
512,167,40909,1,10,0:0:0:0:
487,176,40994,1,2,0:0:0:0:
462,185,41079,1,2,0:0:0:0:
462,185,41249,6,0,B|398:208|398:208|417:255,1,114.750000437737,2|0,0:0|0:0,0:0:0:0:
493,289,41504,1,2,0:0:0:0:
493,289,41589,2,0,P|516:279|499:261,1,57.3750002188683,8|0,0:0|0:0,0:0:0:0:
415,251,41759,1,2,0:0:0:0:
410,254,41844,1,2,0:0:0:0:
405,256,41929,2,0,L|351:276,1,57.3750002188683,2|8,0:0|0:0,0:0:0:0:
279,372,42099,2,0,L|225:352,1,57.3750002188683,2|0,0:0|0:0,0:0:0:0:
24,279,42269,5,10,0:0:0:0:
4,320,42354,1,0,0:0:0:0:
21,362,42439,1,0,0:0:0:0:
64,375,42524,1,0,0:0:0:0:
104,353,42609,2,0,B|128:327|128:327|130:305,1,57.3750002188683,2|0,0:0|0:3,0:3:0:0:
259,256,42779,1,2,0:0:0:0:
259,256,42864,1,2,0:0:0:0:
259,256,42949,2,0,B|233:232|233:232|211:229,1,57.3750002188683,8|0,0:0|0:3,0:3:0:0:
78,192,43119,5,2,0:0:0:0:
73,191,43204,1,8,0:0:0:0:
68,189,43289,1,2,0:0:0:0:
5,148,43374,1,8,0:0:0:0:
12,74,43459,1,2,0:0:0:0:
80,45,43544,1,2,0:0:0:0:
150,70,43629,1,10,0:0:0:0:
193,116,43714,1,0,0:0:0:0:
236,131,43799,1,0,0:0:0:0:
264,131,43884,1,0,0:0:0:0:
289,117,43969,2,0,L|269:63,1,57.3750002188683,2|0,0:0|0:0,0:0:0:0:
459,0,44139,1,2,0:0:0:0:
487,0,44224,1,2,0:0:0:0:
512,13,44309,2,0,L|492:67,1,57.3750002188683,8|0,0:0|0:0,0:0:0:0:
426,293,44479,5,2,0:0:0:0:
423,296,44564,1,8,0:0:0:0:
420,299,44649,1,2,0:0:0:0:
384,227,44734,1,8,0:0:0:0:
440,171,44819,1,2,0:0:0:0:
512,207,44904,1,2,0:0:0:0:
500,286,44989,2,0,L|449:259,1,57.3750002188683,10|0,0:0|0:0,0:0:0:0:
411,329,45159,2,0,L|463:355,1,57.3750002188683,2|0,0:0|0:0,0:0:0:0:
502,209,45329,6,0,B|471:228|471:228|449:259,1,74.3750007092953,10|0,0:0|0:0,0:0:0:0:
349,380,45499,1,8,0:0:0:0:
349,380,45584,1,8,0:0:0:0:
349,380,45669,2,0,B|318:359|318:359|299:327,1,74.3750007092953,10|0,0:0|0:0,0:0:0:0:
359,180,45839,2,0,B|349:215|349:215|356:252,1,74.3750007092953,10|0,0:0|0:0,0:0:0:0:
411,329,46009,1,2,0:0:0:0:
99,235,46519,5,0,0:0:0:0:
103,234,46689,2,0,B|20:270|20:270|21:302,1,123.250003761292,2|0,0:0|0:0,0:0:0:0:
105,322,46944,1,0,0:0:0:0:
105,322,47029,1,8,0:0:0:0:
69,157,47199,1,0,0:0:0:0:
35,172,47284,1,0,0:0:0:0:
1,187,47369,1,2,0:0:0:0:
210,83,47539,1,0,0:0:0:0:
160,23,47624,1,0,0:0:0:0:
83,36,47709,2,0,B|108:111|124:61|151:134,1,123.250003761292,8|0,0:0|0:0,0:0:0:0:
318,289,48049,6,0,P|292:369|209:354,1,184.875005641937,2|0,0:0|0:0,0:0:0:0:
203,249,48389,2,0,P|257:279|318:289,1,123.250003761292,8|0,0:0|0:0,0:0:0:0:
372,355,48644,1,0,0:0:0:0:
372,355,48729,2,0,P|344:368|314:375,1,61.6250018806458,2|0,0:0|0:0,0:0:0:0:
257,187,48900,2,0,P|284:202|315:208,1,61.6250018806458,2|0,0:0|0:0,0:0:0:0:
402,276,49070,1,8,0:0:0:0:
208,353,49240,1,0,0:0:0:0:
404,188,49410,6,0,B|487:224|487:224|486:256,1,123.250003761292,2|0,0:0|0:0,0:0:0:0:
402,276,49665,1,0,0:0:0:0:
402,276,49750,1,8,0:0:0:0:
442,115,49920,1,0,0:0:0:0:
476,130,50005,1,0,0:0:0:0:
510,145,50090,1,2,0:0:0:0:
288,68,50260,1,0,0:0:0:0:
328,0,50345,1,0,0:0:0:0:
403,24,50430,2,0,P|347:48|288:68,1,123.250003761292,8|0,0:0|0:0,0:0:0:0:
7,48,50770,5,10,0:0:0:0:
47,0,50855,1,0,0:0:0:0:
107,10,50940,1,0,0:0:0:0:
127,68,51025,1,0,0:0:0:0:
94,119,51110,2,0,L|39:148,1,61.6250018806458,10|0,0:0|0:0,0:0:0:0:
0,275,51280,5,0,0:0:0:0:
23,332,51365,1,0,0:0:0:0:
82,349,51450,2,0,L|136:320,1,61.6250018806458,10|0,0:0|0:0,0:0:0:0:
184,184,51620,2,0,L|212:239,1,61.6250018806458,10|0,0:0|0:0,0:0:0:0:
278,373,51790,1,10,0:0:0:0:
278,373,51875,1,2,0:0:0:0:
278,373,51960,1,2,0:0:0:0:
278,373,52130,6,0,B|250:317|250:317|297:294,1,114.750000437737,2|0,0:0|0:0,0:0:0:0:
357,354,52385,1,2,0:0:0:0:
357,354,52470,2,0,P|377:368|384:344,1,57.3750002188683,8|0,0:0|0:0,0:0:0:0:
373,258,52640,1,2,0:0:0:0:
373,258,52725,1,2,0:0:0:0:
373,258,52810,2,0,L|429:230,1,57.3750002188683,2|8,0:0|0:0,0:0:0:0:
512,334,52980,2,0,L|461:308,1,57.3750002188683,2|0,0:0|0:0,0:0:0:0:
290,293,53150,5,10,0:0:0:0:
246,277,53235,1,0,0:0:0:0:
205,298,53320,1,0,0:0:0:0:
179,335,53405,1,0,0:0:0:0:
136,351,53490,2,0,B|103:362|103:362|82:354,1,57.3750002188683,2|0,0:0|0:3,0:3:0:0:
0,216,53660,1,2,0:0:0:0:
0,216,53745,1,2,0:0:0:0:
0,216,53830,2,0,B|18:245|18:245|39:252,1,57.3750002188683,8|0,0:0|0:3,0:3:0:0:
160,146,54000,5,2,0:0:0:0:
165,145,54085,1,8,0:0:0:0:
170,143,54170,1,2,0:0:0:0:
238,114,54255,1,8,0:0:0:0:
244,39,54340,1,2,0:0:0:0:
183,0,54425,1,2,0:0:0:0:
114,29,54510,1,10,0:0:0:0:
67,71,54595,1,0,0:0:0:0:
22,66,54680,1,0,0:0:0:0:
8,40,54765,1,0,0:0:0:0:
35,30,54850,2,0,L|86:54,1,57.3750002188683,2|0,0:0|0:0,0:0:0:0:
258,216,55020,1,2,0:0:0:0:
284,202,55105,1,2,0:0:0:0:
293,174,55190,2,0,L|241:198,1,57.3750002188683,8|0,0:0|0:0,0:0:0:0:
44,324,55360,5,2,0:0:0:0:
41,327,55445,1,8,0:0:0:0:
38,330,55530,1,2,0:0:0:0:
0,259,55615,1,8,0:0:0:0:
56,202,55700,1,2,0:0:0:0:
128,236,55785,1,2,0:0:0:0:
117,315,55870,2,0,P|141:329|169:337,1,57.3750002188683,10|0,0:0|0:0,0:0:0:0:
236,381,56040,2,0,P|263:381|292:374,1,57.3750002188683,2|0,0:0|0:0,0:0:0:0:
444,366,56210,2,0,L|372:384,1,74.3750007092953,10|0,0:0|0:0,0:0:0:0:
241,198,56380,5,10,0:0:0:0:
241,198,56465,1,10,0:0:0:0:
241,198,56550,2,0,B|258:227|258:227|295:244,1,74.3750007092953,10|0,0:0|0:0,0:0:0:0:
505,331,56720,2,0,B|483:356|483:356|444:366,1,74.3750007092953,10|0,0:0|0:0,0:0:0:0:
294,124,56890,2,0,B|311:153|311:153|348:170,1,74.3750007092953,2|0,0:0|0:0,0:0:0:0:
462,252,57060,2,0,B|439:277|439:277|400:286,1,74.3750007092953,8|0,0:0|0:0,0:0:0:0:
390,111,57230,6,0,B|374:156|365:126|349:169,3,74.3750007092953,10|10|2|2,0:0|0:0|0:0|0:0,0:0:0:0:
253,317,57570,5,2,0:0:0:0:
193,298,57655,1,0,0:0:0:0:
133,319,57740,1,0,0:0:0:0:
100,374,57825,1,0,0:0:0:0:
37,381,57910,1,8,0:0:0:0:
0,329,57995,1,0,0:0:0:0:
20,268,58080,1,0,0:0:0:0:
25,265,58165,1,0,0:0:0:0:
29,261,58250,2,0,P|46:289|59:318,1,63.7500024318696,2|0,0:0|0:0,0:0:0:0:
109,223,58420,2,0,P|126:251|139:280,1,63.7500024318696,2|0,0:0|0:0,0:0:0:0:
184,356,58590,2,0,P|156:371|126:384,1,63.7500024318696,8|0,0:0|0:0,0:0:0:0:
0,186,58760,2,0,P|26:168|55:155,1,63.7500024318696
57,72,58930,6,0,P|89:73|112:94,1,63.7500024318696,2|0,0:0|0:0,0:0:0:0:
140,170,59100,2,0,P|131:200|109:223,1,63.7500024318696,2|0,0:0|0:0,0:0:0:0:
0,186,59270,2,0,P|26:168|55:155,1,63.7500024318696,8|0,0:0|0:0,0:0:0:0:
133,0,59440,2,0,P|159:19|181:42,1,63.7500024318696,2|8,0:0|0:0,0:0:0:0:
303,97,59610,5,2,0:0:0:0:
352,109,59695,1,8,0:0:0:0:
402,100,59780,1,2,0:0:0:0:
443,71,59865,1,0,0:0:0:0:
465,25,59950,2,0,P|436:31|411:44,1,57.3750002188683,8|0,0:0|0:0,0:0:0:0:
348,93,60120,2,0,P|330:116|319:142,1,57.3750002188683,2|0,0:0|0:0,0:0:0:0:
326,267,60290,5,2,0:0:0:0:
340,345,60375,1,0,0:0:0:0:
410,382,60460,1,0,0:0:0:0:
485,355,60545,1,0,0:0:0:0:
512,280,60630,1,8,0:0:0:0:
473,211,60715,1,0,0:0:0:0:
395,202,60800,1,0,0:0:0:0:
398,216,60885,1,0,0:0:0:0:
402,230,60970,2,0,L|420:300,1,72.2500013780594,2|0,0:0|0:0,0:0:0:0:
96,384,61140,2,0,L|78:314,1,72.2500013780594,2|0,0:0|0:0,0:0:0:0:
294,258,61311,2,0,L|312:328,1,72.2500013780594,8|0,0:0|0:0,0:0:0:0:
204,356,61480,2,0,L|186:286,1,72.2500013780594
294,258,61650,6,0,L|312:328,1,72.2500013780594,2|0,0:0|0:0,0:0:0:0:
204,356,61821,2,0,L|186:286,1,72.2500013780594,2|0,0:0|0:0,0:0:0:0:
402,230,61991,2,0,L|420:300,1,72.2500013780594,8|0,0:0|0:0,0:0:0:0:
96,384,62161,2,0,L|78:314,1,72.2500013780594,2|8,0:0|0:0,0:0:0:0:
0,52,62331,5,2,0:0:0:0:
60,10,62416,1,8,0:0:0:0:
129,32,62501,1,2,0:0:0:0:
157,98,62586,1,0,0:0:0:0:
132,165,62671,2,0,P|110:184|84:196,1,57.3750002188683,8|0,0:0|0:0,0:0:0:0:
0,77,62841,2,0,P|25:89|53:97,1,57.3750002188683,2|0,0:0|0:0,0:0:0:0:
218,162,63011,5,2,0:0:0:0:
287,194,63096,1,0,0:0:0:0:
362,208,63181,1,0,0:0:0:0:
438,211,63266,1,0,0:0:0:0:
512,193,63351,1,10,0:0:0:0:
488,120,63436,1,0,0:0:0:0:
413,100,63521,1,0,0:0:0:0:
345,135,63606,1,0,0:0:0:0:
323,208,63691,1,2,0:0:0:0:
313,271,63776,1,0,0:0:0:0:
280,318,63861,1,0,0:0:0:0:
233,351,63946,1,0,0:0:0:0:
176,360,64031,1,10,0:0:0:0:
123,336,64116,1,0,0:0:0:0:
111,279,64201,1,0,0:0:0:0:
147,242,64286,1,0,0:0:0:0:
180,247,64371,6,0,B|171:263|171:263|110:289,1,85,2|0,0:0|0:0,0:0:0:0:
37,152,64541,2,0,B|54:155|54:155|115:127,1,85,8|0,0:0|0:0,0:0:0:0:
204,0,64711,1,2,0:0:0:0:
204,0,64796,1,2,0:0:0:0:
204,0,64881,2,0,B|219:40|219:40|237:78,1,85,10|2,0:0|0:0,0:0:0:0:
401,213,65051,5,10,0:0:0:0:
209,161,65221,1,8,0:0:0:0:
308,137,65391,1,0,0:0:0:0:
329,133,65476,1,0,0:0:0:0:
349,127,65561,1,0,0:0:0:0:
368,118,65646,1,0,0:0:0:0:
386,107,65731,1,0,0:0:0:0:
256,192,65816,12,0,71171,0:0:0:0:
