osu file format v14

[General]
AudioFilename: audio.mp3
AudioLeadIn: 0
PreviewTime: 60817
Countdown: 0
SampleSet: Soft
StackLeniency: 0.7
Mode: 0
LetterboxInBreaks: 0
WidescreenStoryboard: 0

[Editor]
Bookmarks: 3754,5820,45426
DistanceSpacing: 1.7
BeatDivisor: 4
GridSize: 8
TimelineZoom: 1

[Metadata]
Title:Silent Voice
TitleUnicode:Silent Voice
Artist:Jun Hiroe
ArtistUnicode:Jun Hiroe
Creator:LittlePigRMX
Version:Light Insane
Source:機動戦士ガンダムΖΖ
Tags:Mobile Suit Gundam ZZ
BeatmapID:1280877
BeatmapSetID:606294

[Difficulty]
HPDrainRate:5
CircleSize:5
OverallDifficulty:5
ApproachRate:7
SliderMultiplier:1.4
SliderTickRate:1

[Events]
//Background and Video events
Video,0,"videoplayer.mp4"
//Break Periods
//Storyboard Layer 0 (Background)
//Storyboard Layer 1 (Fail)
//Storyboard Layer 2 (Pass)
//Storyboard Layer 3 (Foreground)
//Storyboard Sound Samples

[TimingPoints]
1275,413.194683561738,4,2,0,50,1,0
7929,413.194683561738,4,2,0,50,1,0
37679,-200,4,2,0,50,0,0
48938,-100,4,2,0,50,0,0
60817,-200,4,2,0,50,0,0
66705,-100,4,2,0,50,0,0

[HitObjects]
80,96,1275,6,0,P|108:132|152:148,1,70,4|0,0:0|0:0,0:0:0:0:
248,140,1688,1,0,0:0:0:0:
356,88,1894,1,0,0:0:0:0:
376,204,2101,6,0,P|348:240|304:256,1,70
208,248,2514,1,0,0:0:0:0:
100,196,2721,1,0,0:0:0:0:
192,120,2927,6,0,P|252:136|268:156,1,70,2|0,0:0|0:0,0:0:0:0:
364,188,3340,1,2,0:0:0:0:
408,300,3547,1,0,0:0:0:0:
292,332,3754,6,0,P|232:316|216:296,1,70,2|0,0:0|0:0,0:0:0:0:
120,264,4167,1,2,0:0:0:0:
76,152,4373,1,0,0:0:0:0:
164,72,4580,2,0,L|164:156,1,70,4|0,0:0|0:0,0:0:0:0:
256,68,4993,1,0,0:0:0:0:
252,188,5200,1,0,0:0:0:0:
352,252,5406,2,0,P|328:296|312:304,1,70
192,300,5820,1,0,0:0:0:0:
88,244,6026,1,0,0:0:0:0:
132,132,6233,6,0,L|176:188,1,70
232,84,6646,1,0,0:0:0:0:
296,184,6853,1,0,0:0:0:0:
188,232,7059,2,0,L|140:168,1,70
76,80,7472,1,0,0:0:0:0:
256,192,7886,12,0,10365,0:0:0:0:
92,68,10614,5,0,0:0:0:0:
200,116,10821,1,0,0:0:0:0:
260,216,11027,2,0,P|296:268|328:280,1,70
416,304,11441,1,2,0:0:0:0:
392,188,11647,1,2,0:0:0:0:
280,148,11854,1,2,0:0:0:0:
180,212,12060,2,0,P|160:248|124:268,1,70
48,344,12474,1,0,0:0:0:0:
72,228,12680,1,0,0:0:0:0:
140,128,12887,6,0,L|208:156,1,70
232,272,13300,2,0,L|300:300,1,70
356,192,13713,1,0,0:0:0:0:
404,300,13920,1,0,0:0:0:0:
448,192,14126,1,0,0:0:0:0:
348,256,14333,1,0,0:0:0:0:
228,248,14540,6,0,P|164:268|132:272,1,70
44,292,14953,1,0,0:0:0:0:
116,196,15159,1,0,0:0:0:0:
48,100,15366,2,0,L|128:100,1,70
236,100,15779,1,0,0:0:0:0:
356,100,15986,1,0,0:0:0:0:
476,92,16192,2,0,L|476:188,1,70
356,160,16606,1,0,0:0:0:0:
356,280,16812,1,0,0:0:0:0:
236,276,17019,6,0,P|200:252|188:216,1,70
184,108,17432,1,0,0:0:0:0:
116,208,17639,1,0,0:0:0:0:
104,328,17845,2,0,P|140:304|152:268,1,70,0|2,0:0|0:0,0:0:0:0:
184,164,18258,1,2,0:0:0:0:
268,80,18465,1,2,0:0:0:0:
388,76,18672,2,0,P|424:100|436:136,1,70
432,244,19085,1,0,0:0:0:0:
348,164,19291,1,0,0:0:0:0:
232,148,19498,6,0,P|164:160|156:176,1,70
112,260,19911,2,0,P|180:248|188:232,1,70
280,192,20324,1,0,0:0:0:0:
332,300,20531,1,0,0:0:0:0:
320,180,20738,1,0,0:0:0:0:
364,292,20944,1,0,0:0:0:0:
392,176,21151,6,0,P|436:156|444:136,1,70
336,84,21564,1,0,0:0:0:0:
216,80,21771,2,0,P|176:112|172:144,1,70
156,248,22184,1,0,0:0:0:0:
216,352,22390,1,0,0:0:0:0:
228,232,22597,1,0,0:0:0:0:
284,124,22804,6,0,P|312:104|352:100,1,70
388,212,23217,2,0,P|360:192|320:188,1,70
208,180,23630,1,0,0:0:0:0:
92,160,23836,5,0,0:0:0:0:
156,260,24043,1,0,0:0:0:0:
272,288,24250,2,0,P|352:280|368:268,1,70
408,188,24663,1,0,0:0:0:0:
292,208,24869,1,0,0:0:0:0:
376,124,25076,5,0,0:0:0:0:
324,96,25179,1,0,0:0:0:0:
264,84,25283,1,0,0:0:0:0:
204,96,25386,1,0,0:0:0:0:
152,124,25489,1,0,0:0:0:0:
104,156,25593,1,0,0:0:0:0:
84,212,25696,1,0,0:0:0:0:
132,320,25902,5,0,0:0:0:0:
180,212,26109,1,0,0:0:0:0:
176,332,26316,1,0,0:0:0:0:
180,212,26522,1,0,0:0:0:0:
216,328,26729,1,0,0:0:0:0:
308,252,26935,2,0,P|344:220|344:192,1,70
232,160,27349,2,0,P|196:128|196:100,1,70
300,52,27762,6,0,P|340:72|360:96,1,70
420,192,28175,1,0,0:0:0:0:
308,236,28382,2,0,P|268:256|248:280,1,70
148,332,28795,5,0,0:0:0:0:
124,276,28898,1,0,0:0:0:0:
108,220,29001,1,0,0:0:0:0:
132,164,29105,1,0,0:0:0:0:
164,116,29208,1,0,0:0:0:0:
208,76,29311,1,0,0:0:0:0:
268,64,29415,1,0,0:0:0:0:
356,132,29621,5,0,0:0:0:0:
428,232,29828,1,0,0:0:0:0:
336,308,30034,1,0,0:0:0:0:
220,272,30241,2,0,P|176:244|156:216,1,70
140,108,30654,1,0,0:0:0:0:
248,156,30861,1,0,0:0:0:0:
340,228,31067,1,0,0:0:0:0:
296,340,31274,2,0,P|236:304|232:292,1,70
156,208,31687,1,0,0:0:0:0:
340,56,32100,5,0,3:0:0:0:
400,160,32307,1,0,3:0:0:0:
180,68,32720,5,4,0:0:0:0:
352,340,33960,5,0,0:0:0:0:
124,272,34373,2,0,L|48:224,1,70
184,232,34786,2,0,L|108:184,1,70
244,188,35199,1,0,0:0:0:0:
360,208,35406,6,0,L|376:168,1,35
320,152,35613,2,0,L|304:112,1,35
360,96,35819,2,0,L|372:63,1,35
192,64,36232,1,4,0:0:0:0:
192,64,36646,1,4,0:0:0:0:
68,268,37059,1,8,0:0:0:0:
172,208,37265,1,8,0:0:0:0:
224,316,37472,1,8,0:0:0:0:
368,212,38092,6,0,P|340:192|296:184,1,70
308,252,38918,1,0,0:0:0:0:
240,264,39331,2,0,P|180:240|172:232,1,70
192,168,40158,2,0,P|252:192|260:200,1,70
316,228,40984,6,0,P|380:212|392:204,1,70
396,140,41810,1,0,0:0:0:0:
336,100,42224,1,0,0:0:0:0:
268,112,42637,2,0,P|212:116|192:128,1,70
204,192,43463,2,0,P|148:188|128:176,1,70
84,136,44290,5,0,0:0:0:0:
120,120,44496,1,0,0:0:0:0:
156,108,44703,2,0,P|184:100|204:104,1,35
224,116,45116,1,0,0:0:0:0:
256,136,45323,1,0,0:0:0:0:
292,152,45529,2,0,P|320:160|340:156,1,35
360,132,45942,6,0,P|388:124|408:128,1,35
432,152,46356,2,0,P|460:160|480:156,1,35
408,264,46975,5,0,0:0:0:0:
364,304,47182,1,0,0:0:0:0:
244,304,47595,2,0,P|224:288|216:272,1,35
184,232,48008,1,0,0:0:0:0:
152,184,48215,2,0,P|148:128|184:96,1,105
448,332,49455,5,8,0:0:0:0:
212,304,49868,1,8,0:0:0:0:
180,252,49971,1,8,0:0:0:0:
208,200,50074,1,8,0:0:0:0:
236,84,50281,1,0,0:0:0:0:
348,124,50488,1,0,0:0:0:0:
376,240,50694,1,0,0:0:0:0:
48,96,51314,6,0,P|120:72|188:88,1,140,4|0,0:0|0:0,0:0:0:0:
292,124,51934,1,0,0:0:0:0:
284,244,52140,1,0,0:0:0:0:
184,308,52347,2,0,P|132:284|112:256,1,70
80,164,52760,1,0,0:0:0:0:
200,160,52967,2,0,P|231:175|264:185,1,70
384,172,53380,1,0,0:0:0:0:
296,88,53587,2,0,P|248:96|212:96,1,70
108,116,54000,1,0,0:0:0:0:
132,232,54206,5,0,0:0:0:0:
240,284,54413,1,0,0:0:0:0:
352,240,54619,2,0,B|400:200|408:160|376:96,1,140,4|0,0:0|0:0,0:0:0:0:
268,104,55239,1,0,0:0:0:0:
252,224,55446,2,0,P|232:264|192:284,1,70
96,260,55859,2,0,P|116:220|156:200,1,70
208,112,56272,1,0,0:0:0:0:
320,76,56479,1,0,0:0:0:0:
396,164,56685,6,0,P|416:224|400:252,1,70
360,332,57099,2,0,P|344:340|284:328,1,70
320,220,57512,2,0,P|286:211|253:222,1,70
220,336,57925,2,0,P|176:336|160:292,1,70
116,208,58338,1,0,0:0:0:0:
136,92,58545,1,0,0:0:0:0:
228,168,58751,1,0,0:0:0:0:
296,72,58958,1,0,0:0:0:0:
392,140,59165,2,0,P|420:208|416:216,1,70
376,308,59578,1,0,0:0:0:0:
256,308,59784,2,0,P|200:276|192:260,1,70
128,176,60198,1,0,0:0:0:0:
172,68,60404,1,0,0:0:0:0:
232,172,60611,1,0,0:0:0:0:
240,232,60817,6,0,P|308:236|452:104,1,262.5
424,96,62470,2,0,B|384:136|344:156|328:160|316:164,1,122.5
308,136,63297,2,0,P|348:96|400:52,1,122.5
256,192,64123,12,0,66602,0:0:0:0:
88,312,66809,5,0,0:0:0:0:
136,276,67015,1,0,0:0:0:0:
184,240,67222,1,0,0:0:0:0:
240,224,67429,6,0,P|284:208|296:180,1,70
244,80,67842,6,0,P|176:76|104:108,1,140,4|0,0:0|0:0,0:0:0:0:
88,220,68462,1,0,0:0:0:0:
160,316,68668,1,0,0:0:0:0:
276,288,68875,1,0,0:0:0:0:
388,248,69081,2,0,P|416:184|404:164,1,70
328,112,69495,1,0,0:0:0:0:
220,64,69701,1,0,0:0:0:0:
136,148,69908,2,0,P|156:204|172:224,1,70
268,268,70321,1,0,0:0:0:0:
376,232,70527,1,0,0:0:0:0:
388,112,70734,6,0,L|316:136,1,70
252,36,71147,2,0,B|208:64|180:96|160:144,1,140,4|0,0:0|0:0,0:0:0:0:
216,248,71767,1,0,0:0:0:0:
116,184,71974,1,0,0:0:0:0:
124,304,72180,1,0,0:0:0:0:
240,332,72387,2,0,B|308:344|344:344|384:336|396:320,1,140
460,248,73007,1,0,0:0:0:0:
360,184,73213,1,0,0:0:0:0:
264,252,73420,1,0,0:0:0:0:
168,184,73626,1,0,0:0:0:0:
64,240,73833,1,0,0:0:0:0:
92,124,74040,6,0,P|132:96|160:84,1,70
272,80,74453,1,0,0:0:0:0:
272,200,74659,1,0,0:0:0:0:
360,280,74866,2,0,P|320:308|292:320,1,70
184,288,75279,1,0,0:0:0:0:
100,204,75486,1,0,0:0:0:0:
208,180,75692,2,0,P|264:216|288:220,1,70
384,208,76106,1,0,0:0:0:0:
400,92,76312,1,0,0:0:0:0:
280,108,76519,6,0,P|240:132|208:140,1,70
100,136,76932,1,0,0:0:0:0:
196,204,77139,1,0,0:0:0:0:
256,192,77345,12,0,80238,0:0:0:0:
188,140,80857,5,8,0:0:0:0:
276,220,81064,1,8,0:0:0:0:
76,92,81477,2,0,P|100:152|144:216,1,140
356,316,82304,1,4,0:0:0:0:
360,64,84989,5,8,0:0:0:0:
276,148,85196,1,8,0:0:0:0:
184,224,85403,1,8,0:0:0:0:
108,312,85609,1,4,0:0:0:0:
256,192,85712,12,0,88915,0:0:0:0:
