osu file format v14

[General]
AudioFilename: www.mp3
AudioLeadIn: 0
PreviewTime: 907
Countdown: 0
SampleSet: Normal
StackLeniency: 0.7
Mode: 1
LetterboxInBreaks: 0
WidescreenStoryboard: 1

[Editor]
DistanceSpacing: 0.9
BeatDivisor: 8
GridSize: 32
TimelineZoom: 1.35

[Metadata]
Title:Battle Hurry 2
TitleUnicode:Battle Hurry 2
Artist:Jun Chikuma
ArtistUnicode:竹間淳
Creator:meiqth
Version:Oni
Source:スーパーボンバーマン5
Tags:super bomberman 5 super famicom instrumental VIDEO GAME nintendo snes electronic Mniam
BeatmapID:4406683
BeatmapSetID:2100196

[Difficulty]
HPDrainRate:7
CircleSize:2
OverallDifficulty:5.5
ApproachRate:10
SliderMultiplier:1.4
SliderTickRate:1

[Events]
//Background and Video events
0,0,"wpw.jpg",0,80
//Break Periods
//Storyboard Layer 0 (Background)
//Storyboard Layer 1 (Fail)
//Storyboard Layer 2 (Pass)
//Storyboard Layer 3 (Foreground)
//Storyboard Layer 4 (Overlay)
//Storyboard Sound Samples

[TimingPoints]
778,346.140533056421,4,1,0,50,1,0
907,-99.9999000001,4,1,0,70,0,0

[HitObjects]
256,192,85,5,8,0:0:0:0:
256,192,258,1,8,0:0:0:0:
256,192,431,1,8,0:0:0:0:
256,192,604,1,8,0:0:0:0:
256,192,778,1,0,0:0:0:0:
256,192,951,1,8,0:0:0:0:
256,192,1124,1,0,0:0:0:0:
256,192,1210,1,0,0:0:0:0:
256,192,1297,1,0,0:0:0:0:
256,192,1470,1,8,0:0:0:0:
256,192,1643,1,0,0:0:0:0:
256,192,1729,1,8,0:0:0:0:
256,192,1816,1,0,0:0:0:0:
256,192,1902,1,0,0:0:0:0:
256,192,1989,1,8,0:0:0:0:
256,192,2162,1,0,0:0:0:0:
256,192,2335,1,8,0:0:0:0:
256,192,2508,1,8,0:0:0:0:
256,192,2595,1,8,0:0:0:0:
256,192,2681,1,8,0:0:0:0:
256,192,2854,1,0,0:0:0:0:
256,192,3027,1,8,0:0:0:0:
256,192,3114,1,0,0:0:0:0:
256,192,3200,1,8,0:0:0:0:
256,192,3287,1,8,0:0:0:0:
256,192,3374,1,0,0:0:0:0:
256,192,3547,1,8,0:0:0:0:
256,192,3720,1,0,0:0:0:0:
256,192,3806,1,0,0:0:0:0:
256,192,3893,1,0,0:0:0:0:
256,192,4066,1,0,0:0:0:0:
256,192,4239,1,8,0:0:0:0:
256,192,4412,1,8,0:0:0:0:
256,192,4585,1,8,0:0:0:0:
256,192,4931,1,0,0:0:0:0:
256,192,5104,1,8,0:0:0:0:
256,192,5191,1,8,0:0:0:0:
256,192,5277,1,8,0:0:0:0:
256,192,5450,1,8,0:0:0:0:
256,192,5623,1,0,0:0:0:0:
256,192,5710,1,0,0:0:0:0:
256,192,5797,1,8,0:0:0:0:
256,192,5970,1,8,0:0:0:0:
256,192,6056,1,8,0:0:0:0:
256,192,6143,1,8,0:0:0:0:
256,192,6316,1,0,0:0:0:0:
256,192,6489,1,8,0:0:0:0:
256,192,6662,1,0,0:0:0:0:
256,192,6748,1,0,0:0:0:0:
256,192,6835,1,0,0:0:0:0:
256,192,7008,1,0,0:0:0:0:
256,192,7181,1,8,0:0:0:0:
256,192,7268,1,0,0:0:0:0:
256,192,7354,1,8,0:0:0:0:
256,192,7441,1,8,0:0:0:0:
256,192,7527,1,0,0:0:0:0:
256,192,7700,1,8,0:0:0:0:
256,192,7873,1,0,0:0:0:0:
256,192,8046,1,8,0:0:0:0:
256,192,8133,1,8,0:0:0:0:
256,192,8220,1,8,0:0:0:0:
256,192,8393,1,8,0:0:0:0:
256,192,8566,1,0,0:0:0:0:
256,192,8652,1,8,0:0:0:0:
256,192,8739,1,0,0:0:0:0:
256,192,8825,1,0,0:0:0:0:
256,192,8912,1,8,0:0:0:0:
256,192,9085,1,0,0:0:0:0:
256,192,9258,1,8,0:0:0:0:
256,192,9344,1,8,0:0:0:0:
256,192,9431,1,8,0:0:0:0:
256,192,9604,1,0,0:0:0:0:
256,192,9777,1,8,0:0:0:0:
256,192,9950,1,8,0:0:0:0:
256,192,10123,1,8,0:0:0:0:
256,192,10469,1,8,0:0:0:0:
256,192,10643,1,0,0:0:0:0:
256,192,10729,1,0,0:0:0:0:
256,192,10816,1,0,0:0:0:0:
256,192,10989,1,0,0:0:0:0:
256,192,11162,1,8,0:0:0:0:
256,192,11335,1,8,0:0:0:0:
256,192,11508,1,8,0:0:0:0:
256,192,11681,1,0,0:0:0:0:
256,192,11767,1,8,0:0:0:0:
256,192,11854,1,0,0:0:0:0:
256,192,12027,1,8,0:0:0:0:
256,192,12200,1,0,0:0:0:0:
256,192,12287,1,0,0:0:0:0:
256,192,12373,1,8,0:0:0:0:
256,192,12546,1,0,0:0:0:0:
256,192,12719,1,8,0:0:0:0:
256,192,12806,1,0,0:0:0:0:
256,192,12892,1,8,0:0:0:0:
256,192,12979,1,8,0:0:0:0:
256,192,13065,1,8,0:0:0:0:
256,192,13239,1,0,0:0:0:0:
256,192,13412,1,8,0:0:0:0:
256,192,13585,1,0,0:0:0:0:
256,192,13671,1,8,0:0:0:0:
256,192,13758,1,0,0:0:0:0:
256,192,13931,1,8,0:0:0:0:
256,192,14104,1,0,0:0:0:0:
256,192,14190,1,0,0:0:0:0:
256,192,14277,1,8,0:0:0:0:
256,192,14364,1,8,0:0:0:0:
256,192,14450,1,8,0:0:0:0:
256,192,14623,1,0,0:0:0:0:
256,192,14796,1,8,0:0:0:0:
256,192,14883,1,0,0:0:0:0:
256,192,14969,1,8,0:0:0:0:
256,192,15142,1,0,0:0:0:0:
256,192,15315,1,8,0:0:0:0:
256,192,15488,1,0,0:0:0:0:
256,192,15575,1,8,0:0:0:0:
256,192,15662,1,0,0:0:0:0:
256,192,15748,1,8,0:0:0:0:
256,192,15835,1,0,0:0:0:0:
256,192,16008,1,8,0:0:0:0:
256,192,16181,1,0,0:0:0:0:
256,192,16267,1,0,0:0:0:0:
256,192,16354,1,8,0:0:0:0:
256,192,16527,1,0,0:0:0:0:
256,192,16700,1,8,0:0:0:0:
256,192,16786,1,8,0:0:0:0:
256,192,16873,1,0,0:0:0:0:
256,192,16960,1,8,0:0:0:0:
256,192,17046,1,0,0:0:0:0:
256,192,17392,1,0,0:0:0:0:
256,192,17565,1,8,0:0:0:0:
256,192,17652,1,8,0:0:0:0:
256,192,17738,1,8,0:0:0:0:
256,192,17911,1,0,0:0:0:0:
256,192,18085,1,8,0:0:0:0:
256,192,18258,1,8,0:0:0:0:
256,192,18344,1,8,0:0:0:0:
256,192,18431,1,0,0:0:0:0:
256,192,18604,1,8,0:0:0:0:
256,192,18777,1,0,0:0:0:0:
256,192,18950,1,0,0:0:0:0:
256,192,19036,1,0,0:0:0:0:
256,192,19123,1,8,0:0:0:0:
256,192,19296,1,8,0:0:0:0:
256,192,19469,1,0,0:0:0:0:
256,192,19642,1,0,0:0:0:0:
256,192,19729,1,0,0:0:0:0:
256,192,19815,1,0,0:0:0:0:
256,192,19988,1,8,0:0:0:0:
256,192,20161,1,0,0:0:0:0:
256,192,20248,1,8,0:0:0:0:
256,192,20334,1,0,0:0:0:0:
256,192,20421,1,0,0:0:0:0:
256,192,20508,1,8,0:0:0:0:
256,192,20681,1,0,0:0:0:0:
256,192,20854,1,8,0:0:0:0:
256,192,20940,1,0,0:0:0:0:
256,192,21027,1,8,0:0:0:0:
256,192,21113,1,8,0:0:0:0:
256,192,21200,1,0,0:0:0:0:
256,192,21373,1,8,0:0:0:0:
256,192,21719,1,8,0:0:0:0:
256,192,21806,1,8,0:0:0:0:
256,192,21892,1,8,0:0:0:0:
256,192,22065,1,0,0:0:0:0:
256,192,22238,1,8,0:0:0:0:
256,192,22411,1,0,0:0:0:0:
256,192,22498,1,0,0:0:0:0:
256,192,22584,1,8,0:0:0:0:
256,192,22930,1,0,0:0:0:0:
256,192,23104,1,8,0:0:0:0:
256,192,23277,1,0,0:0:0:0:
256,192,23450,1,0,0:0:0:0:
256,192,23623,1,8,0:0:0:0:
256,192,23796,1,0,0:0:0:0:
256,192,23969,1,8,0:0:0:0:
256,192,24142,1,8,0:0:0:0:
256,192,24315,1,0,0:0:0:0:
256,192,24488,1,8,0:0:0:0:
256,192,24661,1,0,0:0:0:0:
256,192,24748,1,8,0:0:0:0:
256,192,24834,1,0,0:0:0:0:
256,192,25007,1,8,0:0:0:0:
256,192,25094,1,8,0:0:0:0:
256,192,25180,1,0,0:0:0:0:
256,192,25267,1,0,0:0:0:0:
256,192,25353,1,8,0:0:0:0:
256,192,25527,1,8,0:0:0:0:
256,192,25700,1,0,0:0:0:0:
256,192,25873,1,8,0:0:0:0:
256,192,26046,1,8,0:0:0:0:
256,192,26219,1,8,0:0:0:0:
256,192,26392,1,0,0:0:0:0:
256,192,26565,1,8,0:0:0:0:
256,192,26738,1,0,0:0:0:0:
256,192,26911,1,0,0:0:0:0:
256,192,27084,1,8,0:0:0:0:
256,192,27257,1,0,0:0:0:0:
256,192,27430,1,8,0:0:0:0:
256,192,27517,1,8,0:0:0:0:
256,192,27603,1,0,0:0:0:0:
256,192,27776,1,8,0:0:0:0:
256,192,27950,1,0,0:0:0:0:
256,192,28036,1,8,0:0:0:0:
256,192,28123,1,0,0:0:0:0:
256,192,28209,1,0,0:0:0:0:
256,192,28296,1,8,0:0:0:0:
256,192,28642,1,8,0:0:0:0:
256,192,28815,1,8,0:0:0:0:
256,192,28988,1,0,0:0:0:0:
256,192,29161,1,8,0:0:0:0:
256,192,29334,1,0,0:0:0:0:
256,192,29421,1,0,0:0:0:0:
256,192,29507,1,0,0:0:0:0:
256,192,29680,1,0,0:0:0:0:
256,192,29853,1,8,0:0:0:0:
256,192,30026,1,0,0:0:0:0:
256,192,30199,1,8,0:0:0:0:
256,192,30373,1,0,0:0:0:0:
256,192,30546,1,8,0:0:0:0:
256,192,30719,1,0,0:0:0:0:
256,192,30892,1,8,0:0:0:0:
256,192,30978,1,8,0:0:0:0:
256,192,31065,1,0,0:0:0:0:
256,192,31238,1,8,0:0:0:0:
256,192,31411,1,8,0:0:0:0:
256,192,31584,1,0,0:0:0:0:
256,192,31757,1,8,0:0:0:0:
256,192,31930,1,0,0:0:0:0:
256,192,32276,1,8,0:0:0:0:
256,192,32622,1,0,0:0:0:0:
256,192,32795,1,0,0:0:0:0:
256,192,32969,1,8,0:0:0:0:
256,192,33142,1,0,0:0:0:0:
256,192,33315,1,8,0:0:0:0:
256,192,33661,1,8,0:0:0:0:
256,192,34007,1,0,0:0:0:0:
256,192,34180,1,8,0:0:0:0:
256,192,34353,1,8,0:0:0:0:
256,192,34526,1,0,0:0:0:0:
256,192,34699,1,8,0:0:0:0:
256,192,34872,1,0,0:0:0:0:
256,192,34959,1,0,0:0:0:0:
256,192,35045,1,0,0:0:0:0:
256,192,35218,1,0,0:0:0:0:
256,192,35392,1,8,0:0:0:0:
256,192,35565,1,0,0:0:0:0:
256,192,35738,1,8,0:0:0:0:
256,192,35911,1,0,0:0:0:0:
256,192,36084,1,8,0:0:0:0:
256,192,36257,1,0,0:0:0:0:
256,192,36430,1,8,0:0:0:0:
256,192,36517,1,8,0:0:0:0:
256,192,36603,1,0,0:0:0:0:
256,192,36776,1,8,0:0:0:0:
256,192,36949,1,8,0:0:0:0:
256,192,37122,1,0,0:0:0:0:
256,192,37295,1,8,0:0:0:0:
256,192,37468,1,0,0:0:0:0:
256,192,37815,1,8,0:0:0:0:
256,192,38161,1,0,0:0:0:0:
256,192,38334,1,0,0:0:0:0:
256,192,38507,1,8,0:0:0:0:
256,192,38680,1,0,0:0:0:0:
256,192,38853,1,8,0:0:0:0:
256,192,39199,1,0,0:0:0:0:
256,192,39545,1,8,0:0:0:0:
256,192,39718,1,0,0:0:0:0:
256,192,39891,1,8,0:0:0:0:
256,192,40064,1,0,0:0:0:0:
256,192,40151,1,0,0:0:0:0:
256,192,40238,1,0,0:0:0:0:
256,192,40411,1,8,0:0:0:0:
256,192,40584,1,0,0:0:0:0:
256,192,40757,1,8,0:0:0:0:
256,192,40843,1,8,0:0:0:0:
256,192,40930,1,8,0:0:0:0:
256,192,41103,1,8,0:0:0:0:
256,192,41276,1,0,0:0:0:0:
256,192,41362,1,8,0:0:0:0:
256,192,41449,1,0,0:0:0:0:
256,192,41622,1,8,0:0:0:0:
256,192,41709,1,8,0:0:0:0:
256,192,41795,1,0,0:0:0:0:
256,192,41882,1,0,0:0:0:0:
256,192,41968,1,8,0:0:0:0:
256,192,42141,1,0,0:0:0:0:
256,192,42228,1,8,0:0:0:0:
256,192,42314,1,0,0:0:0:0:
256,192,42487,1,8,0:0:0:0:
256,192,42661,1,0,0:0:0:0:
256,192,42834,1,8,0:0:0:0:
256,192,42920,1,8,0:0:0:0:
256,192,43007,1,8,0:0:0:0:
256,192,43180,1,0,0:0:0:0:
256,192,43353,1,8,0:0:0:0:
256,192,43526,1,0,0:0:0:0:
256,192,43612,1,0,0:0:0:0:
256,192,43699,1,0,0:0:0:0:
256,192,43872,1,8,0:0:0:0:
256,192,44045,1,0,0:0:0:0:
256,192,44132,1,8,0:0:0:0:
256,192,44218,1,0,0:0:0:0:
256,192,44391,1,8,0:0:0:0:
256,192,44478,1,8,0:0:0:0:
256,192,44564,1,0,0:0:0:0:
256,192,44651,1,0,0:0:0:0:
256,192,44737,1,8,0:0:0:0:
256,192,45083,1,8,0:0:0:0:
256,192,45257,1,8,0:0:0:0:
256,192,45430,1,0,0:0:0:0:
256,192,45603,1,8,0:0:0:0:
256,192,45689,1,8,0:0:0:0:
256,192,45776,1,8,0:0:0:0:
256,192,45949,1,0,0:0:0:0:
256,192,46122,1,8,0:0:0:0:
256,192,46295,1,0,0:0:0:0:
256,192,46382,1,0,0:0:0:0:
256,192,46468,1,0,0:0:0:0:
256,192,46641,1,8,0:0:0:0:
256,192,46814,1,0,0:0:0:0:
256,192,46901,1,0,0:0:0:0:
256,192,46987,1,0,0:0:0:0:
256,192,47160,1,8,0:0:0:0:
256,192,47247,1,8,0:0:0:0:
256,192,47333,1,0,0:0:0:0:
256,192,47420,1,0,0:0:0:0:
256,192,47506,1,8,0:0:0:0:
256,192,47680,1,0,0:0:0:0:
256,192,47853,1,8,0:0:0:0:
256,192,48026,1,0,0:0:0:0:
256,192,48199,1,0,0:0:0:0:
256,192,48372,1,8,0:0:0:0:
256,192,48458,1,8,0:0:0:0:
256,192,48545,1,8,0:0:0:0:
256,192,48718,1,0,0:0:0:0:
256,192,48891,1,8,0:0:0:0:
256,192,49064,1,0,0:0:0:0:
256,192,49151,1,0,0:0:0:0:
256,192,49237,1,0,0:0:0:0:
256,192,49410,1,0,0:0:0:0:
256,192,49583,1,8,0:0:0:0:
256,192,49670,1,0,0:0:0:0:
256,192,49756,1,8,0:0:0:0:
256,192,49929,1,0,0:0:0:0:
256,192,50016,1,0,0:0:0:0:
256,192,50103,1,8,0:0:0:0:
256,192,50189,1,8,0:0:0:0:
256,192,50276,1,0,0:0:0:0:
256,192,50622,1,8,0:0:0:0:
256,192,50795,1,0,0:0:0:0:
256,192,50881,1,0,0:0:0:0:
256,192,50968,1,0,0:0:0:0:
256,192,51141,1,0,0:0:0:0:
256,192,51314,1,8,0:0:0:0:
256,192,51487,1,8,0:0:0:0:
256,192,51660,1,8,0:0:0:0:
256,192,52006,1,0,0:0:0:0:
256,192,52179,1,8,0:0:0:0:
256,192,52266,1,8,0:0:0:0:
256,192,52352,1,8,0:0:0:0:
256,192,52526,1,8,0:0:0:0:
256,192,52699,1,0,0:0:0:0:
256,192,52872,1,0,0:0:0:0:
256,192,53045,1,0,0:0:0:0:
256,192,53218,1,0,0:0:0:0:
256,192,53391,1,8,0:0:0:0:
256,192,53564,1,8,0:0:0:0:
256,192,53650,1,8,0:0:0:0:
256,192,53737,1,8,0:0:0:0:
256,192,53910,1,8,0:0:0:0:
256,192,54083,1,0,0:0:0:0:
256,192,54256,1,0,0:0:0:0:
256,192,54429,1,0,0:0:0:0:
256,192,54775,1,8,0:0:0:0:
256,192,54948,1,0,0:0:0:0:
256,192,55035,1,0,0:0:0:0:
256,192,55122,1,0,0:0:0:0:
256,192,55295,1,0,0:0:0:0:
256,192,55468,1,8,0:0:0:0:
256,192,55641,1,8,0:0:0:0:
256,192,55814,1,8,0:0:0:0:
256,192,55987,1,8,0:0:0:0:
256,192,56160,1,0,0:0:0:0:
