osu file format v14

[General]
AudioFilename: www.mp3
AudioLeadIn: 0
PreviewTime: 907
Countdown: 0
SampleSet: Normal
StackLeniency: 0.7
Mode: 1
LetterboxInBreaks: 0
WidescreenStoryboard: 1

[Editor]
DistanceSpacing: 0.9
BeatDivisor: 8
GridSize: 32
TimelineZoom: 0.6999997

[Metadata]
Title:Battle Hurry 2
TitleUnicode:Battle Hurry 2
Artist:Jun Chikuma
ArtistUnicode:竹間淳
Creator:meiqth
Version:Futsuu
Source:スーパーボンバーマン5
Tags:super bomberman 5 super famicom instrumental VIDEO GAME nintendo snes electronic Mniam
BeatmapID:4406694
BeatmapSetID:2100196

[Difficulty]
HPDrainRate:9
CircleSize:4
OverallDifficulty:4
ApproachRate:9.6
SliderMultiplier:1.4
SliderTickRate:1

[Events]
//Background and Video events
0,0,"wpw.jpg",0,80
//Break Periods
//Storyboard Layer 0 (Background)
//Storyboard Layer 1 (Fail)
//Storyboard Layer 2 (Pass)
//Storyboard Layer 3 (Foreground)
//Storyboard Layer 4 (Overlay)
//Storyboard Sound Samples

[TimingPoints]
778,346.140533056421,4,1,0,50,1,0
907,-99.9999000001,4,1,0,70,0,0

[HitObjects]
256,192,85,5,8,0:0:0:0:
256,192,431,1,8,0:0:0:0:
256,192,778,1,0,0:0:0:0:
256,192,951,1,8,0:0:0:0:
256,192,1124,1,8,0:0:0:0:
256,192,1297,1,8,0:0:0:0:
256,192,1470,1,0,0:0:0:0:
256,192,1816,1,8,0:0:0:0:
256,192,2162,1,0,0:0:0:0:
256,192,2335,1,8,0:0:0:0:
256,192,2508,1,0,0:0:0:0:
256,192,2681,1,0,0:0:0:0:
256,192,2854,1,8,0:0:0:0:
256,192,3200,1,0,0:0:0:0:
256,192,3547,1,8,0:0:0:0:
256,192,3893,1,0,0:0:0:0:
256,192,4066,1,8,0:0:0:0:
256,192,4239,1,0,0:0:0:0:
256,192,4931,1,0,0:0:0:0:
256,192,5277,1,8,0:0:0:0:
256,192,5450,1,0,0:0:0:0:
256,192,5623,1,8,0:0:0:0:
256,192,5970,1,8,0:0:0:0:
256,192,6316,1,0,0:0:0:0:
256,192,6489,1,0,0:0:0:0:
256,192,6662,1,8,0:0:0:0:
256,192,6835,1,0,0:0:0:0:
256,192,7008,1,8,0:0:0:0:
256,192,7354,1,0,0:0:0:0:
256,192,7700,1,8,0:0:0:0:
256,192,7873,1,0,0:0:0:0:
256,192,8046,1,0,0:0:0:0:
256,192,8220,1,0,0:0:0:0:
256,192,8393,1,8,0:0:0:0:
256,192,8739,1,0,0:0:0:0:
256,192,9085,1,8,0:0:0:0:
256,192,9431,1,0,0:0:0:0:
256,192,9604,1,0,0:0:0:0:
256,192,9777,1,8,0:0:0:0:
256,192,10469,1,0,0:0:0:0:
256,192,10816,1,8,0:0:0:0:
256,192,10989,1,8,0:0:0:0:
256,192,11162,1,0,0:0:0:0:
256,192,11508,1,8,0:0:0:0:
256,192,11854,1,0,0:0:0:0:
256,192,12027,1,8,0:0:0:0:
256,192,12200,1,8,0:0:0:0:
256,192,12373,1,0,0:0:0:0:
256,192,12546,1,8,0:0:0:0:
256,192,12892,1,0,0:0:0:0:
256,192,13239,1,8,0:0:0:0:
256,192,13412,1,8,0:0:0:0:
256,192,13585,1,0,0:0:0:0:
256,192,13758,1,8,0:0:0:0:
256,192,13931,1,8,0:0:0:0:
256,192,14277,1,0,0:0:0:0:
256,192,14623,1,8,0:0:0:0:
256,192,14796,1,8,0:0:0:0:
256,192,14969,1,0,0:0:0:0:
256,192,15142,1,0,0:0:0:0:
256,192,15315,1,8,0:0:0:0:
256,192,15662,1,0,0:0:0:0:
256,192,16008,1,8,0:0:0:0:
256,192,16181,1,8,0:0:0:0:
256,192,16354,1,8,0:0:0:0:
256,192,16527,1,0,0:0:0:0:
256,192,16700,1,8,0:0:0:0:
256,192,17046,1,8,0:0:0:0:
256,192,17392,1,0,0:0:0:0:
256,192,17565,1,0,0:0:0:0:
256,192,17738,1,8,0:0:0:0:
256,192,18085,1,0,0:0:0:0:
256,192,18431,1,0,0:0:0:0:
256,192,18777,1,8,0:0:0:0:
256,192,18950,1,8,0:0:0:0:
256,192,19123,1,0,0:0:0:0:
256,192,19469,1,8,0:0:0:0:
256,192,19815,1,8,0:0:0:0:
256,192,20161,1,0,0:0:0:0:
256,192,20334,1,0,0:0:0:0:
256,192,20508,1,8,0:0:0:0:
256,192,20854,1,8,0:0:0:0:
256,192,21027,1,0,0:0:0:0:
256,192,21200,1,8,0:0:0:0:
256,192,21719,1,8,0:0:0:0:
256,192,21892,1,8,0:0:0:0:
256,192,22065,1,8,0:0:0:0:
256,192,22238,1,0,0:0:0:0:
256,192,22930,1,8,0:0:0:0:
256,192,23277,1,0,0:0:0:0:
256,192,23623,1,8,0:0:0:0:
256,192,23796,1,8,0:0:0:0:
256,192,23969,1,8,0:0:0:0:
256,192,24315,1,0,0:0:0:0:
256,192,24661,1,8,0:0:0:0:
256,192,24834,1,0,0:0:0:0:
256,192,25007,1,8,0:0:0:0:
256,192,25180,1,8,0:0:0:0:
256,192,25353,1,0,0:0:0:0:
256,192,25700,1,8,0:0:0:0:
256,192,26046,1,8,0:0:0:0:
256,192,26392,1,0,0:0:0:0:
256,192,26565,1,0,0:0:0:0:
256,192,26738,1,0,0:0:0:0:
256,192,27084,1,8,0:0:0:0:
256,192,27430,1,0,0:0:0:0:
256,192,27603,1,0,0:0:0:0:
256,192,27776,1,8,0:0:0:0:
256,192,28469,1,0,0:0:0:0:
256,192,28815,1,8,0:0:0:0:
256,192,28988,1,8,0:0:0:0:
256,192,29161,1,8,0:0:0:0:
256,192,29507,1,0,0:0:0:0:
256,192,29853,1,8,0:0:0:0:
256,192,30199,1,8,0:0:0:0:
256,192,30546,1,0,0:0:0:0:
256,192,30719,1,0,0:0:0:0:
256,192,30892,1,0,0:0:0:0:
256,192,31238,1,8,0:0:0:0:
256,192,31584,1,0,0:0:0:0:
256,192,31930,1,8,0:0:0:0:
256,192,32622,1,0,0:0:0:0:
256,192,32969,1,8,0:0:0:0:
256,192,33315,1,0,0:0:0:0:
256,192,34007,1,8,0:0:0:0:
256,192,34353,1,0,0:0:0:0:
256,192,34526,1,0,0:0:0:0:
256,192,34699,1,0,0:0:0:0:
256,192,35045,1,8,0:0:0:0:
256,192,35392,1,0,0:0:0:0:
256,192,35738,1,0,0:0:0:0:
256,192,36084,1,8,0:0:0:0:
256,192,36257,1,8,0:0:0:0:
256,192,36430,1,8,0:0:0:0:
256,192,36776,1,0,0:0:0:0:
256,192,37122,1,0,0:0:0:0:
256,192,37468,1,0,0:0:0:0:
256,192,38161,1,8,0:0:0:0:
256,192,38507,1,8,0:0:0:0:
256,192,38853,1,0,0:0:0:0:
256,192,39545,1,8,0:0:0:0:
256,192,39891,1,0,0:0:0:0:
256,192,40238,1,8,0:0:0:0:
256,192,40411,1,0,0:0:0:0:
256,192,40584,1,8,0:0:0:0:
256,192,40930,1,0,0:0:0:0:
256,192,41276,1,8,0:0:0:0:
256,192,41449,1,0,0:0:0:0:
256,192,41622,1,8,0:0:0:0:
256,192,41795,1,8,0:0:0:0:
256,192,41968,1,0,0:0:0:0:
256,192,42314,1,8,0:0:0:0:
256,192,42661,1,8,0:0:0:0:
256,192,43007,1,0,0:0:0:0:
256,192,43180,1,8,0:0:0:0:
256,192,43353,1,0,0:0:0:0:
256,192,43699,1,8,0:0:0:0:
256,192,44045,1,0,0:0:0:0:
256,192,44218,1,0,0:0:0:0:
256,192,44391,1,8,0:0:0:0:
256,192,44564,1,8,0:0:0:0:
256,192,44737,1,0,0:0:0:0:
256,192,45083,1,8,0:0:0:0:
256,192,45430,1,8,0:0:0:0:
256,192,45776,1,0,0:0:0:0:
256,192,45949,1,0,0:0:0:0:
256,192,46122,1,8,0:0:0:0:
256,192,46468,1,0,0:0:0:0:
256,192,46814,1,8,0:0:0:0:
256,192,46987,1,8,0:0:0:0:
256,192,47160,1,0,0:0:0:0:
256,192,47333,1,8,0:0:0:0:
256,192,47506,1,0,0:0:0:0:
256,192,47853,1,8,0:0:0:0:
256,192,48199,1,8,0:0:0:0:
256,192,48545,1,0,0:0:0:0:
256,192,48718,1,0,0:0:0:0:
256,192,48891,1,8,0:0:0:0:
256,192,49237,1,0,0:0:0:0:
256,192,49583,1,8,0:0:0:0:
256,192,49756,1,0,0:0:0:0:
256,192,49929,1,8,0:0:0:0:
256,192,50622,1,8,0:0:0:0:
256,192,50968,1,8,0:0:0:0:
256,192,51314,1,0,0:0:0:0:
256,192,51487,1,0,0:0:0:0:
256,192,51660,1,8,0:0:0:0:
256,192,52006,1,0,0:0:0:0:
256,192,52352,1,0,0:0:0:0:
256,192,52699,1,8,0:0:0:0:
256,192,52872,1,8,0:0:0:0:
256,192,53045,1,8,0:0:0:0:
256,192,53218,1,8,0:0:0:0:
256,192,53391,1,0,0:0:0:0:
256,192,53737,1,0,0:0:0:0:
256,192,54083,1,8,0:0:0:0:
256,192,54256,1,8,0:0:0:0:
256,192,54429,1,0,0:0:0:0:
256,192,54775,1,8,0:0:0:0:
256,192,55122,1,8,0:0:0:0:
256,192,55468,1,0,0:0:0:0:
256,192,55641,1,0,0:0:0:0:
256,192,55814,1,0,0:0:0:0:
256,192,55987,1,0,0:0:0:0:
256,192,56160,1,8,0:0:0:0:
