osu file format v14

[General]
AudioFilename: audio.mp3
AudioLeadIn: 0
PreviewTime: 114231
Countdown: 0
SampleSet: Normal
StackLeniency: 0.7
Mode: 1
LetterboxInBreaks: 0
WidescreenStoryboard: 1

[Editor]
DistanceSpacing: 1.6
BeatDivisor: 4
GridSize: 32
TimelineZoom: 1.6

[Metadata]
Title:Unable
TitleUnicode:Unable
Artist:July
ArtistUnicode:줄라이
Creator:Jaltzu
Version:Oni
Source:
Tags:julysfx instrumental piano hip hop classical korean
BeatmapID:2280832
BeatmapSetID:1090975

[Difficulty]
HPDrainRate:6
CircleSize:2
OverallDifficulty:5.5
ApproachRate:0
SliderMultiplier:1.4
SliderTickRate:1

[Events]
//Background and Video events
0,0,"12891.jpg",0,-140
//Break Periods
//Storyboard Layer 0 (Background)
//Storyboard Layer 1 (Fail)
//Storyboard Layer 2 (Pass)
//Storyboard Layer 3 (Foreground)
//Storyboard Layer 4 (Overlay)
//Storyboard Sound Samples

[TimingPoints]
825,789.473684210526,4,1,0,60,1,0
825,-64.9561545956479,4,1,0,60,0,0
1614,857.142857142857,5,1,0,60,1,8
1614,-59.8300825655139,4,1,0,60,0,0
5792,769.230769230769,4,1,0,60,1,0
5792,-66.6666666666667,4,1,0,60,0,0
6561,845.070422535211,5,1,0,60,1,8
6561,-60.6832938891923,4,1,0,60,0,0
10375,769.230769230769,4,1,0,60,1,8
10375,-66.6666666666667,4,1,0,60,0,0
10759,689.655172413793,4,1,0,60,1,0
10759,-74.360499702558,4,1,0,60,0,0
12138,750,4,1,0,60,1,8
12138,-68.3760683760684,4,1,0,60,0,0
13638,750,4,1,0,60,1,0
13638,-68.3760683760684,4,1,0,60,0,0
16638,750,4,1,0,60,1,8
16720,681.818181818182,4,1,0,60,1,0
16720,-75.2162467092892,4,1,0,60,0,0
26264,674.157303370787,4,1,0,60,1,8
26264,-76.0687661646128,4,1,0,60,0,0
27612,681.818181818182,4,1,0,60,1,0
27612,-75.2162467092892,4,1,0,60,0,0
28975,659.340659340659,4,1,0,60,1,8
28975,-77.7786419849109,4,1,0,60,0,0
30293,681.818181818182,4,1,0,60,1,0
30293,-75.2162467092892,4,1,0,60,0,0
31656,697.674418604651,4,1,0,60,1,8
31656,-73.5023888276369,4,1,0,60,0,0
33051,681.818181818182,4,1,0,60,1,0
33051,-75.2162467092892,4,1,0,60,0,0
38505,674.157303370787,4,1,0,60,1,0
38505,-76.0687661646128,4,1,0,60,0,0
39853,659.340659340659,4,1,0,60,1,8
39853,-77.7786419849109,4,1,0,60,0,0
41171,645.161290322581,4,1,0,60,1,0
41171,-79.484937604324,4,1,0,60,0,0
42461,681.818181818182,4,1,0,60,1,8
42461,-75.2162467092892,4,1,0,60,0,0
43142,652.173913043478,4,1,0,60,1,8
43142,-78.6348981678069,4,1,0,60,0,0
43794,681.818181818182,4,1,0,60,1,0
43794,-75.2162467092892,4,1,0,60,0,0
44475,674.157303370787,4,1,0,60,1,8
44475,-76.0687661646128,4,1,0,60,0,0
45149,648.648648648649,4,1,0,60,1,8
45149,-79.0576330144675,4,1,0,60,0,0
46446,648.648648648649,4,1,0,60,1,0
46446,-79.0576330144675,4,1,0,60,0,0
47743,697.674418604651,4,1,0,60,1,8
47743,-73.5077918259336,4,1,0,60,0,0
48440,666.666666666667,4,1,0,60,1,8
48440,-76.9230769230769,4,1,0,60,0,0
48935,-76.9230769230769,4,1,0,70,0,0
49106,681.818181818182,4,1,0,70,1,0
49106,-75.2162467092892,4,1,0,70,0,0
70924,666.666666666667,4,1,0,70,1,1
70924,-76.9230769230769,4,1,0,70,0,1
89590,705.882352941176,4,1,0,70,1,0
89590,-72.6480203414457,4,1,0,70,0,0
90207,-72.6480203414457,4,1,0,60,0,0
90295,714.285714285714,4,1,0,60,1,8
90295,-71.7926627898629,4,1,0,60,0,0
91009,750,4,1,0,60,1,8
91009,-68.3760683760684,4,1,0,60,0,0
92583,681.818181818182,4,1,0,60,1,0
92583,-75.2162467092892,4,1,0,60,0,0
95310,697.674418604651,4,1,0,60,1,0
95310,-73.5077918259336,4,1,0,60,0,0
96705,738.461538461538,4,1,0,60,1,8
96705,-69.4444444444444,4,1,0,60,0,0
98181,670.391061452514,4,1,0,60,1,0
98181,-76.499388004896,4,1,0,60,0,0
104884,652.173913043478,4,1,0,60,1,8
104884,-78.6348981678069,4,1,0,60,0,0
106188,652.173913043478,4,1,0,60,1,0
106188,-78.6348981678069,4,1,0,60,0,0
106840,681.818181818182,4,1,0,60,1,8
106840,-75.2162467092892,4,1,0,60,0,0
108885,681.818181818182,4,1,0,60,1,0
108885,-75.2162467092892,4,1,0,60,0,0
111612,685.714285714286,4,1,0,60,1,0
111612,-74.7887218607434,4,1,0,60,0,0
111954,-74.7887218607434,4,1,0,40,0,0
112983,740.740740740741,4,1,0,40,1,8
112983,-69.23289947383,4,1,0,40,0,0
114422,-69.23289947383,4,1,0,70,0,0
114464,666.666666666667,4,1,0,70,1,1
114464,-76.9230769230769,4,1,0,70,0,1
133130,714.285714285714,4,1,0,70,1,0
133130,-71.7926627898629,4,1,0,70,0,0
134380,-71.7926627898629,4,1,0,60,0,0
134558,750,4,1,0,60,1,8
134558,-68.3760683760684,4,1,0,60,0,0
136160,472.44094488189,4,1,0,60,1,0
136160,-76.9230769230769,4,1,0,60,0,0
151248,-76.9230769230769,4,1,0,70,0,0
151278,-76.9230769230769,4,1,0,70,0,1
166396,-76.9230769230769,4,1,0,70,0,0
166986,-76.9230769230769,4,1,0,60,0,0
167104,530.973451327434,4,1,0,60,1,8
167104,-68.4415851071111,4,1,0,60,0,0
168433,576.923076923077,4,1,0,60,1,0
168433,-63.0318310746927,4,1,0,60,0,0
168564,-64.1972138409193,4,1,0,60,0,0
168865,-66.6666666666667,4,1,0,60,0,0
169009,-67.9717237629146,4,1,0,60,0,0
169154,-69.3337031130833,4,1,0,60,0,0
169298,-70.7463742483198,4,1,0,60,0,0
169442,-72.2230247002744,4,1,0,60,0,0
169586,638.297872340426,4,1,0,60,1,8
169586,-66.6666666666667,4,1,0,60,0,0
169745,-68.1152510046999,4,1,0,60,0,0
169905,-69.6281854894861,4,1,0,60,0,0
170064,-71.2098554439934,4,1,0,60,0,0
170224,-72.8703636231145,4,1,0,60,0,0
170383,-74.6045956430916,4,1,0,60,0,0
170543,-76.4233855559801,4,1,0,60,0,0
170778,-76.4233855559801,4,1,0,70,0,0
170862,666.666666666667,4,1,0,70,1,1
170862,-76.9230769230769,4,1,0,70,0,1
189487,-76.9230769230769,4,1,0,60,0,1
189528,-76.9230769230769,4,1,0,60,0,0
192153,-76.9230769230769,4,1,0,70,0,0
192195,-76.9230769230769,4,1,0,70,0,1
210817,-76.9230769230769,4,1,0,60,0,1
210862,705.882352941176,4,1,0,60,1,0
210862,-72.6480203414457,4,1,0,60,0,0
212273,740.740740740741,4,1,0,60,1,8
212273,-69.23289947383,4,1,0,60,0,0
213013,869.565217391304,4,1,0,60,1,8
213013,-58.9726956419178,4,1,0,60,0,0
213882,800,4,1,0,60,1,0
213882,-64.1025641025641,4,1,0,60,0,0
215482,857.142857142857,4,1,0,60,1,8
215482,-59.8300825655139,4,1,0,60,0,0
216767,1132.07547169811,4,1,0,60,1,8
216767,-45.3001132502831,4,1,0,60,0,0
219031,833.333333333333,4,1,0,60,1,0
219031,-61.5384615384615,4,1,0,60,0,0
219864,800,4,1,0,60,1,8
219864,-64.1025641025641,4,1,0,60,0,0
220264,857.142857142857,4,1,0,60,1,8
220264,-59.8300825655139,4,1,0,60,0,0
220692,923.076923076923,4,1,0,60,1,8
220692,-55.5555555555556,4,1,0,60,0,0
221153,967.741935483871,4,1,0,60,1,8
221153,-52.9913624079275,4,1,0,60,0,0
221636,857.142857142857,4,1,0,60,1,8
221636,-59.8300825655139,4,1,0,60,0,0
222064,909.090909090909,4,1,0,60,1,8
222064,-56.4111242737068,4,1,0,60,0,0
223882,750,4,1,0,60,1,8
223882,-68.3760683760684,4,1,0,60,0,0
224444,-68.3760683760684,4,1,0,50,0,0
224632,750,4,1,0,50,1,0
224632,-68.3760683760684,4,1,0,50,0,0
224913,-68.3760683760684,4,1,0,45,0,0
225382,-68.3760683760684,4,1,0,40,0,0
225757,-68.3760683760684,4,1,0,35,0,0
226132,-68.3760683760684,4,1,0,30,0,0
226507,-68.3760683760684,4,1,0,25,0,0
226882,-68.3760683760684,4,1,0,20,0,0
227257,-68.3760683760684,4,1,0,15,0,0
227632,-68.3760683760684,4,1,0,10,0,0

[HitObjects]
256,192,825,5,0,0:0:0:0:
256,192,1219,1,0,0:0:0:0:
256,192,1614,1,0,0:0:0:0:
256,192,1828,1,0,0:0:0:0:
256,192,2042,1,8,0:0:0:0:
256,192,2256,1,0,0:0:0:0:
256,192,2471,1,8,0:0:0:0:
256,192,2899,1,8,0:0:0:0:
256,192,3328,1,0,0:0:0:0:
256,192,3756,1,8,0:0:0:0:
256,192,5792,1,0,0:0:0:0:
256,192,6176,1,0,0:0:0:0:
256,192,6561,1,0,0:0:0:0:
256,192,6772,1,0,0:0:0:0:
256,192,6983,1,8,0:0:0:0:
256,192,7194,1,0,0:0:0:0:
256,192,7406,1,8,0:0:0:0:
256,192,7828,1,0,0:0:0:0:
256,192,8251,1,8,0:0:0:0:
256,192,8673,1,0,0:0:0:0:
256,192,10375,1,0,0:0:0:0:
256,192,10759,1,8,0:0:0:0:
256,192,11103,1,0,0:0:0:0:
256,192,11448,1,8,0:0:0:0:
256,192,11793,1,8,0:0:0:0:
256,192,12138,1,0,0:0:0:0:
256,192,12513,1,0,0:0:0:0:
256,192,12888,1,8,0:0:0:0:
256,192,13263,1,8,0:0:0:0:
256,192,13638,1,8,0:0:0:0:
256,192,14013,1,0,0:0:0:0:
256,192,14388,1,0,0:0:0:0:
256,192,14763,1,8,0:0:0:0:
256,192,15138,1,0,0:0:0:0:
256,192,16720,5,0,0:0:0:0:
256,192,17060,1,0,0:0:0:0:
256,192,17401,1,0,0:0:0:0:
256,192,17572,1,0,0:0:0:0:
256,192,17742,1,8,0:0:0:0:
256,192,17913,1,0,0:0:0:0:
256,192,18083,1,8,0:0:0:0:
256,192,18424,1,0,0:0:0:0:
256,192,19106,1,0,0:0:0:0:
256,192,19447,1,8,0:0:0:0:
256,192,19788,1,0,0:0:0:0:
256,192,20129,1,0,0:0:0:0:
256,192,20810,1,8,0:0:0:0:
256,192,21151,1,0,0:0:0:0:
256,192,21492,1,8,0:0:0:0:
256,192,22174,1,0,0:0:0:0:
256,192,22515,1,0,0:0:0:0:
256,192,22856,1,0,0:0:0:0:
256,192,23026,1,0,0:0:0:0:
256,192,23197,1,8,0:0:0:0:
256,192,23367,1,0,0:0:0:0:
256,192,23538,1,8,0:0:0:0:
256,192,23879,1,0,0:0:0:0:
256,192,24560,1,0,0:0:0:0:
256,192,24901,1,8,0:0:0:0:
256,192,25242,1,0,0:0:0:0:
256,192,25583,1,0,0:0:0:0:
256,192,26264,1,8,0:0:0:0:
256,192,26601,1,0,0:0:0:0:
256,192,26938,1,8,0:0:0:0:
256,192,27612,1,0,0:0:0:0:
256,192,27952,1,0,0:0:0:0:
256,192,28293,1,0,0:0:0:0:
256,192,28464,1,0,0:0:0:0:
256,192,28634,1,0,0:0:0:0:
256,192,28805,1,8,0:0:0:0:
256,192,28975,1,8,0:0:0:0:
256,192,29304,1,8,0:0:0:0:
256,192,29469,1,8,0:0:0:0:
256,192,29964,1,8,0:0:0:0:
256,192,30293,1,0,0:0:0:0:
256,192,30633,1,0,0:0:0:0:
256,192,30974,1,8,0:0:0:0:
256,192,31656,1,8,0:0:0:0:
256,192,32004,1,0,0:0:0:0:
256,192,32353,1,8,0:0:0:0:
256,192,32702,1,8,0:0:0:0:
256,192,32876,1,8,0:0:0:0:
256,192,33051,1,0,0:0:0:0:
256,192,33391,1,0,0:0:0:0:
256,192,33732,1,0,0:0:0:0:
256,192,33903,1,0,0:0:0:0:
256,192,34073,1,8,0:0:0:0:
256,192,34244,1,0,0:0:0:0:
256,192,34414,1,8,0:0:0:0:
256,192,34755,1,0,0:0:0:0:
256,192,35437,1,0,0:0:0:0:
256,192,35778,1,8,0:0:0:0:
256,192,36119,1,0,0:0:0:0:
256,192,36460,1,0,0:0:0:0:
256,192,37141,1,8,0:0:0:0:
256,192,37482,1,0,0:0:0:0:
256,192,37823,1,8,0:0:0:0:
256,192,38505,5,8,0:0:0:0:
256,192,38842,1,0,0:0:0:0:
256,192,39179,1,8,0:0:0:0:
256,192,39516,1,0,0:0:0:0:
256,192,39853,1,0,0:0:0:0:
256,192,40182,1,0,0:0:0:0:
256,192,40512,1,8,0:0:0:0:
256,192,40842,1,0,0:0:0:0:
256,192,41171,1,0,0:0:0:0:
256,192,41493,1,0,0:0:0:0:
256,192,41816,1,8,0:0:0:0:
256,192,42138,1,0,0:0:0:0:
256,192,42461,1,8,0:0:0:0:
256,192,43142,1,8,0:0:0:0:
256,192,43794,1,8,0:0:0:0:
256,192,44134,1,0,0:0:0:0:
256,192,44475,1,8,0:0:0:0:
256,192,44812,1,8,0:0:0:0:
256,192,45149,1,0,0:0:0:0:
256,192,45473,1,0,0:0:0:0:
256,192,45797,1,8,0:0:0:0:
256,192,46121,1,0,0:0:0:0:
256,192,46446,1,0,0:0:0:0:
256,192,46770,1,0,0:0:0:0:
256,192,47094,1,8,0:0:0:0:
256,192,47418,1,0,0:0:0:0:
256,192,47743,1,8,0:0:0:0:
256,192,48440,1,8,0:0:0:0:
256,192,49106,5,0,0:0:0:0:
256,192,49446,1,0,0:0:0:0:
256,192,49787,1,8,0:0:0:0:
256,192,49958,1,0,0:0:0:0:
256,192,50128,1,0,0:0:0:0:
256,192,50299,1,0,0:0:0:0:
256,192,50469,1,8,0:0:0:0:
256,192,50810,1,0,0:0:0:0:
256,192,51151,1,8,0:0:0:0:
256,192,51492,1,0,0:0:0:0:
256,192,51662,1,0,0:0:0:0:
256,192,51833,1,0,0:0:0:0:
256,192,52174,1,0,0:0:0:0:
256,192,52515,1,8,0:0:0:0:
256,192,52856,1,8,0:0:0:0:
256,192,53026,1,0,0:0:0:0:
256,192,53196,1,0,0:0:0:0:
256,192,53367,1,8,0:0:0:0:
256,192,53537,1,0,0:0:0:0:
256,192,53878,1,8,0:0:0:0:
256,192,54219,1,8,0:0:0:0:
256,192,54390,1,0,0:0:0:0:
256,192,54560,1,0,0:0:0:0:
256,192,54901,1,0,0:0:0:0:
256,192,55242,1,8,0:0:0:0:
256,192,55412,1,0,0:0:0:0:
256,192,55583,1,8,0:0:0:0:
256,192,55753,1,0,0:0:0:0:
256,192,55924,1,8,0:0:0:0:
256,192,56265,1,0,0:0:0:0:
256,192,56606,1,8,0:0:0:0:
256,192,56946,1,0,0:0:0:0:
256,192,57117,1,0,0:0:0:0:
256,192,57287,1,0,0:0:0:0:
256,192,57628,1,0,0:0:0:0:
256,192,57969,1,8,0:0:0:0:
256,192,58310,1,8,0:0:0:0:
256,192,58481,1,0,0:0:0:0:
256,192,58651,1,0,0:0:0:0:
256,192,58821,1,8,0:0:0:0:
256,192,58992,1,0,0:0:0:0:
256,192,59333,1,8,0:0:0:0:
256,192,59674,1,8,0:0:0:0:
256,192,59844,1,0,0:0:0:0:
256,192,60015,1,0,0:0:0:0:
256,192,60356,1,0,0:0:0:0:
256,192,60696,1,0,0:0:0:0:
256,192,60867,1,0,0:0:0:0:
256,192,61037,1,8,0:0:0:0:
256,192,61208,1,0,0:0:0:0:
256,192,61378,1,8,0:0:0:0:
256,192,61719,1,0,0:0:0:0:
256,192,61890,1,8,0:0:0:0:
256,192,62060,1,0,0:0:0:0:
256,192,62401,1,8,0:0:0:0:
256,192,62571,1,8,0:0:0:0:
256,192,62742,1,0,0:0:0:0:
256,192,63083,1,0,0:0:0:0:
256,192,63424,1,8,0:0:0:0:
256,192,63765,1,8,0:0:0:0:
256,192,63935,1,0,0:0:0:0:
256,192,64106,1,8,0:0:0:0:
256,192,64276,1,0,0:0:0:0:
256,192,64446,1,0,0:0:0:0:
256,192,64787,1,8,0:0:0:0:
256,192,65128,1,8,0:0:0:0:
256,192,65299,1,8,0:0:0:0:
256,192,65469,1,0,0:0:0:0:
256,192,65810,1,0,0:0:0:0:
256,192,66151,1,8,0:0:0:0:
256,192,66321,1,0,0:0:0:0:
256,192,66492,1,8,0:0:0:0:
256,192,66662,1,8,0:0:0:0:
256,192,66833,1,0,0:0:0:0:
256,192,67174,1,0,0:0:0:0:
256,192,67515,1,8,0:0:0:0:
256,192,67856,1,8,0:0:0:0:
256,192,68026,1,0,0:0:0:0:
256,192,68196,1,0,0:0:0:0:
256,192,68537,1,0,0:0:0:0:
256,192,69219,1,0,0:0:0:0:
256,192,69390,1,0,0:0:0:0:
256,192,69560,1,8,0:0:0:0:
256,192,69731,1,0,0:0:0:0:
256,192,69901,1,0,0:0:0:0:
256,192,70071,1,8,0:0:0:0:
256,192,70242,1,8,0:0:0:0:
256,192,70583,1,8,0:0:0:0:
256,192,70753,1,8,0:0:0:0:
256,192,70924,5,0,0:0:0:0:
256,192,71257,1,0,0:0:0:0:
256,192,71590,1,0,0:0:0:0:
256,192,71757,1,0,0:0:0:0:
256,192,71924,1,8,0:0:0:0:
256,192,72090,1,0,0:0:0:0:
256,192,72257,1,8,0:0:0:0:
256,192,72590,1,0,0:0:0:0:
256,192,72924,1,8,0:0:0:0:
256,192,73090,1,0,0:0:0:0:
256,192,73257,1,8,0:0:0:0:
256,192,73424,1,0,0:0:0:0:
256,192,73590,1,0,0:0:0:0:
256,192,73924,1,0,0:0:0:0:
256,192,74257,1,8,0:0:0:0:
256,192,74590,1,8,0:0:0:0:
256,192,74757,1,0,0:0:0:0:
256,192,74924,1,0,0:0:0:0:
256,192,75090,1,8,0:0:0:0:
256,192,75257,1,0,0:0:0:0:
256,192,75590,1,8,0:0:0:0:
256,192,75924,1,8,0:0:0:0:
256,192,76090,1,0,0:0:0:0:
256,192,76257,1,0,0:0:0:0:
256,192,76590,1,0,0:0:0:0:
256,192,76924,1,0,0:0:0:0:
256,192,77090,1,0,0:0:0:0:
256,192,77257,1,8,0:0:0:0:
256,192,77424,1,0,0:0:0:0:
256,192,77590,1,0,0:0:0:0:
256,192,77924,1,0,0:0:0:0:
256,192,78257,1,8,0:0:0:0:
256,192,78424,1,0,0:0:0:0:
256,192,78590,1,0,0:0:0:0:
256,192,78757,1,8,0:0:0:0:
256,192,78924,1,8,0:0:0:0:
256,192,79257,1,8,0:0:0:0:
256,192,79590,1,0,0:0:0:0:
256,192,79924,1,8,0:0:0:0:
256,192,80090,1,8,0:0:0:0:
256,192,80257,1,0,0:0:0:0:
256,192,80424,1,8,0:0:0:0:
256,192,80590,1,0,0:0:0:0:
256,192,80924,1,8,0:0:0:0:
256,192,81257,1,8,0:0:0:0:
256,192,81424,1,0,0:0:0:0:
256,192,81590,1,8,0:0:0:0:
256,192,81924,1,0,0:0:0:0:
256,192,82257,1,8,0:0:0:0:
256,192,82424,1,0,0:0:0:0:
256,192,82590,1,8,0:0:0:0:
256,192,82757,1,8,0:0:0:0:
256,192,82924,1,0,0:0:0:0:
256,192,83257,1,0,0:0:0:0:
256,192,83590,1,8,0:0:0:0:
256,192,83757,1,0,0:0:0:0:
256,192,83924,1,8,0:0:0:0:
256,192,84090,1,0,0:0:0:0:
256,192,84257,1,0,0:0:0:0:
256,192,84590,1,0,0:0:0:0:
256,192,84924,1,8,0:0:0:0:
256,192,85257,1,8,0:0:0:0:
256,192,85424,1,0,0:0:0:0:
256,192,85590,1,0,0:0:0:0:
256,192,85757,1,0,0:0:0:0:
256,192,85924,1,0,0:0:0:0:
256,192,86257,1,8,0:0:0:0:
256,192,86590,1,8,0:0:0:0:
256,192,86757,1,8,0:0:0:0:
256,192,86924,1,0,0:0:0:0:
256,192,87257,1,0,0:0:0:0:
256,192,87590,1,8,0:0:0:0:
256,192,87924,1,8,0:0:0:0:
256,192,88090,1,8,0:0:0:0:
256,192,88257,1,0,0:0:0:0:
256,192,88590,1,0,0:0:0:0:
256,192,88924,1,8,0:0:0:0:
256,192,89257,1,8,0:0:0:0:
256,192,89424,1,0,0:0:0:0:
256,192,89590,1,8,0:0:0:0:
256,192,89942,1,0,0:0:0:0:
256,192,90295,1,8,0:0:0:0:
256,192,91009,1,0,0:0:0:0:
256,192,91384,1,0,0:0:0:0:
256,192,91759,1,8,0:0:0:0:
256,192,92583,5,0,0:0:0:0:
256,192,92923,1,0,0:0:0:0:
256,192,93264,1,0,0:0:0:0:
256,192,93435,1,0,0:0:0:0:
256,192,93605,1,8,0:0:0:0:
256,192,93776,1,0,0:0:0:0:
256,192,93946,1,8,0:0:0:0:
256,192,94287,1,0,0:0:0:0:
256,192,94969,1,0,0:0:0:0:
256,192,95310,1,8,0:0:0:0:
256,192,95658,1,0,0:0:0:0:
256,192,96007,1,8,0:0:0:0:
256,192,96705,1,8,0:0:0:0:
256,192,97074,1,0,0:0:0:0:
256,192,97443,1,0,0:0:0:0:
256,192,98181,1,8,0:0:0:0:
256,192,98516,1,0,0:0:0:0:
256,192,98851,1,0,0:0:0:0:
256,192,99018,1,0,0:0:0:0:
256,192,99186,1,0,0:0:0:0:
256,192,99354,1,8,0:0:0:0:
256,192,99521,1,0,0:0:0:0:
256,192,99856,1,0,0:0:0:0:
256,192,100192,1,0,0:0:0:0:
256,192,100359,1,0,0:0:0:0:
256,192,100527,1,8,0:0:0:0:
256,192,100694,1,8,0:0:0:0:
256,192,100862,1,0,0:0:0:0:
256,192,101197,1,0,0:0:0:0:
256,192,101532,1,8,0:0:0:0:
256,192,101700,1,0,0:0:0:0:
256,192,101868,1,8,0:0:0:0:
256,192,102035,1,8,0:0:0:0:
256,192,102203,1,0,0:0:0:0:
256,192,102538,1,0,0:0:0:0:
256,192,102873,1,8,0:0:0:0:
256,192,103208,1,0,0:0:0:0:
256,192,103544,1,0,0:0:0:0:
256,192,104214,1,0,0:0:0:0:
256,192,104382,1,0,0:0:0:0:
256,192,104549,1,8,0:0:0:0:
256,192,104717,1,8,0:0:0:0:
256,192,104884,1,0,0:0:0:0:
256,192,105210,1,0,0:0:0:0:
256,192,105373,1,8,0:0:0:0:
256,192,105862,1,8,0:0:0:0:
256,192,106188,1,0,0:0:0:0:
256,192,106514,1,0,0:0:0:0:
256,192,106840,1,8,0:0:0:0:
256,192,107010,1,8,0:0:0:0:
256,192,107180,1,0,0:0:0:0:
256,192,107521,1,8,0:0:0:0:
256,192,107862,1,0,0:0:0:0:
256,192,108203,1,8,0:0:0:0:
256,192,108544,1,8,0:0:0:0:
256,192,108715,1,0,0:0:0:0:
256,192,108885,1,8,0:0:0:0:
256,192,109225,1,0,0:0:0:0:
256,192,109566,1,8,0:0:0:0:
256,192,109737,1,8,0:0:0:0:
256,192,109907,1,0,0:0:0:0:
256,192,110248,1,0,0:0:0:0:
256,192,110589,1,0,0:0:0:0:
256,192,110930,1,8,0:0:0:0:
256,192,111271,1,0,0:0:0:0:
256,192,111612,1,8,0:0:0:0:
256,192,111954,1,0,0:0:0:0:
256,192,112126,1,8,0:0:0:0:
256,192,112297,1,0,0:0:0:0:
256,192,112469,1,8,0:0:0:0:
256,192,112640,1,0,0:0:0:0:
256,192,112812,1,8,0:0:0:0:
256,192,112983,1,8,0:0:0:0:
256,192,113168,1,0,0:0:0:0:
256,192,113538,1,8,0:0:0:0:
256,192,114094,1,8,0:0:0:0:
256,192,114279,1,8,0:0:0:0:
256,192,114464,5,0,0:0:0:0:
256,192,114797,1,0,0:0:0:0:
256,192,115130,1,0,0:0:0:0:
256,192,115297,1,0,0:0:0:0:
256,192,115464,1,8,0:0:0:0:
256,192,115630,1,0,0:0:0:0:
256,192,115797,1,8,0:0:0:0:
256,192,116130,1,0,0:0:0:0:
256,192,116464,1,8,0:0:0:0:
256,192,116630,1,0,0:0:0:0:
256,192,116797,1,8,0:0:0:0:
256,192,116964,1,0,0:0:0:0:
256,192,117130,1,0,0:0:0:0:
256,192,117464,1,0,0:0:0:0:
256,192,117797,1,8,0:0:0:0:
256,192,118130,1,8,0:0:0:0:
256,192,118297,1,0,0:0:0:0:
256,192,118464,1,0,0:0:0:0:
256,192,118630,1,8,0:0:0:0:
256,192,118797,1,0,0:0:0:0:
256,192,119130,1,8,0:0:0:0:
256,192,119464,1,8,0:0:0:0:
256,192,119630,1,0,0:0:0:0:
256,192,119797,1,0,0:0:0:0:
256,192,120130,1,0,0:0:0:0:
256,192,120464,1,0,0:0:0:0:
256,192,120630,1,0,0:0:0:0:
256,192,120797,1,8,0:0:0:0:
256,192,120964,1,0,0:0:0:0:
256,192,121130,1,0,0:0:0:0:
256,192,121464,1,0,0:0:0:0:
256,192,121797,1,8,0:0:0:0:
256,192,121964,1,0,0:0:0:0:
256,192,122130,1,0,0:0:0:0:
256,192,122297,1,8,0:0:0:0:
256,192,122464,1,8,0:0:0:0:
256,192,122797,1,0,0:0:0:0:
256,192,123130,1,8,0:0:0:0:
256,192,123464,1,8,0:0:0:0:
256,192,123630,1,8,0:0:0:0:
256,192,123797,1,0,0:0:0:0:
256,192,123964,1,8,0:0:0:0:
256,192,124130,1,0,0:0:0:0:
256,192,124464,1,8,0:0:0:0:
256,192,124797,1,8,0:0:0:0:
256,192,124964,1,0,0:0:0:0:
256,192,125130,1,8,0:0:0:0:
256,192,125464,1,0,0:0:0:0:
256,192,125797,1,8,0:0:0:0:
256,192,125964,1,0,0:0:0:0:
256,192,126130,1,8,0:0:0:0:
256,192,126297,1,8,0:0:0:0:
256,192,126464,1,0,0:0:0:0:
256,192,126797,1,0,0:0:0:0:
256,192,127130,1,8,0:0:0:0:
256,192,127297,1,0,0:0:0:0:
256,192,127464,1,8,0:0:0:0:
256,192,127630,1,0,0:0:0:0:
256,192,127797,1,0,0:0:0:0:
256,192,128130,1,0,0:0:0:0:
256,192,128464,1,8,0:0:0:0:
256,192,128797,1,8,0:0:0:0:
256,192,128964,1,0,0:0:0:0:
256,192,129130,1,0,0:0:0:0:
256,192,129297,1,0,0:0:0:0:
256,192,129464,1,0,0:0:0:0:
256,192,129797,1,8,0:0:0:0:
256,192,130130,1,8,0:0:0:0:
256,192,130297,1,8,0:0:0:0:
256,192,130464,1,0,0:0:0:0:
256,192,130797,1,0,0:0:0:0:
256,192,131130,1,8,0:0:0:0:
256,192,131464,1,8,0:0:0:0:
256,192,131630,1,8,0:0:0:0:
256,192,131797,1,0,0:0:0:0:
256,192,132130,1,0,0:0:0:0:
256,192,132464,1,8,0:0:0:0:
256,192,132797,1,8,0:0:0:0:
256,192,132964,1,0,0:0:0:0:
256,192,133130,1,8,0:0:0:0:
256,192,133487,1,0,0:0:0:0:
256,192,133844,1,8,0:0:0:0:
256,192,134558,1,0,0:0:0:0:
256,192,134933,1,0,0:0:0:0:
256,192,135308,1,8,0:0:0:0:
256,192,136160,5,8,0:0:0:0:
256,192,136396,1,8,0:0:0:0:
256,192,136632,1,0,0:0:0:0:
256,192,136868,1,0,0:0:0:0:
256,192,137104,1,8,0:0:0:0:
256,192,137341,1,0,0:0:0:0:
256,192,137577,1,8,0:0:0:0:
256,192,137813,1,8,0:0:0:0:
256,192,137931,1,0,0:0:0:0:
256,192,138049,1,0,0:0:0:0:
256,192,138285,1,0,0:0:0:0:
256,192,138522,1,8,0:0:0:0:
256,192,138758,1,0,0:0:0:0:
256,192,138994,1,8,0:0:0:0:
256,192,139230,1,0,0:0:0:0:
256,192,139348,1,0,0:0:0:0:
256,192,139467,1,0,0:0:0:0:
256,192,139703,1,8,0:0:0:0:
256,192,139939,1,0,0:0:0:0:
256,192,140411,1,0,0:0:0:0:
256,192,140648,1,8,0:0:0:0:
256,192,140884,1,8,0:0:0:0:
256,192,141120,1,0,0:0:0:0:
256,192,141356,1,0,0:0:0:0:
256,192,141593,1,8,0:0:0:0:
256,192,141711,1,0,0:0:0:0:
256,192,141829,1,8,0:0:0:0:
256,192,142065,1,0,0:0:0:0:
256,192,142301,1,0,0:0:0:0:
256,192,142537,1,8,0:0:0:0:
256,192,142774,1,8,0:0:0:0:
256,192,143010,1,0,0:0:0:0:
256,192,143246,1,0,0:0:0:0:
256,192,143482,1,8,0:0:0:0:
256,192,143600,1,8,0:0:0:0:
256,192,143719,1,0,0:0:0:0:
256,192,144191,1,0,0:0:0:0:
256,192,144427,1,8,0:0:0:0:
256,192,144663,1,8,0:0:0:0:
256,192,144900,1,0,0:0:0:0:
256,192,145136,1,8,0:0:0:0:
256,192,145372,1,8,0:0:0:0:
256,192,145490,1,0,0:0:0:0:
256,192,145608,1,0,0:0:0:0:
256,192,145845,1,0,0:0:0:0:
256,192,146081,1,8,0:0:0:0:
256,192,146317,1,0,0:0:0:0:
256,192,146553,1,8,0:0:0:0:
256,192,146789,1,0,0:0:0:0:
256,192,146908,1,0,0:0:0:0:
256,192,147026,1,0,0:0:0:0:
256,192,147262,1,8,0:0:0:0:
256,192,147498,1,0,0:0:0:0:
256,192,147971,1,0,0:0:0:0:
256,192,148207,1,0,0:0:0:0:
256,192,148443,1,8,0:0:0:0:
256,192,148679,1,0,0:0:0:0:
256,192,148915,1,0,0:0:0:0:
256,192,149152,1,8,0:0:0:0:
256,192,149270,1,0,0:0:0:0:
256,192,149388,1,8,0:0:0:0:
256,192,149624,1,0,0:0:0:0:
256,192,149860,1,0,0:0:0:0:
256,192,150097,1,8,0:0:0:0:
256,192,150333,1,8,0:0:0:0:
256,192,150569,1,0,0:0:0:0:
256,192,150805,1,8,0:0:0:0:
256,192,150923,1,8,0:0:0:0:
256,192,151041,1,0,0:0:0:0:
256,192,151160,1,0,0:0:0:0:
256,192,151278,5,8,0:0:0:0:
256,192,151750,1,8,0:0:0:0:
256,192,151868,1,0,0:0:0:0:
256,192,151986,1,8,0:0:0:0:
256,192,152222,1,8,0:0:0:0:
256,192,152459,1,0,0:0:0:0:
256,192,152577,1,0,0:0:0:0:
256,192,152695,1,8,0:0:0:0:
256,192,152931,1,8,0:0:0:0:
256,192,153049,1,8,0:0:0:0:
256,192,153167,1,0,0:0:0:0:
256,192,153404,1,0,0:0:0:0:
256,192,153640,1,8,0:0:0:0:
256,192,153758,1,0,0:0:0:0:
256,192,153876,1,8,0:0:0:0:
256,192,154112,1,8,0:0:0:0:
256,192,154348,1,0,0:0:0:0:
256,192,154467,1,0,0:0:0:0:
256,192,154585,1,8,0:0:0:0:
256,192,154703,1,0,0:0:0:0:
256,192,154821,1,8,0:0:0:0:
256,192,154939,1,8,0:0:0:0:
256,192,155057,1,0,0:0:0:0:
256,192,155530,1,8,0:0:0:0:
256,192,155648,1,0,0:0:0:0:
256,192,155766,1,8,0:0:0:0:
256,192,156002,1,8,0:0:0:0:
256,192,156238,1,0,0:0:0:0:
256,192,156356,1,0,0:0:0:0:
256,192,156474,1,8,0:0:0:0:
256,192,156711,1,0,0:0:0:0:
256,192,156829,1,8,0:0:0:0:
256,192,156947,1,0,0:0:0:0:
256,192,157183,1,0,0:0:0:0:
256,192,157419,1,8,0:0:0:0:
256,192,157656,1,8,0:0:0:0:
256,192,157774,1,0,0:0:0:0:
256,192,157892,1,8,0:0:0:0:
256,192,158128,1,8,0:0:0:0:
256,192,158246,1,0,0:0:0:0:
256,192,158364,1,8,0:0:0:0:
256,192,158482,1,8,0:0:0:0:
256,192,158600,1,0,0:0:0:0:
256,192,158719,1,8,0:0:0:0:
256,192,158837,1,0,0:0:0:0:
256,192,159309,1,8,0:0:0:0:
256,192,159782,1,0,0:0:0:0:
256,192,160136,1,8,0:0:0:0:
256,192,160254,1,0,0:0:0:0:
256,192,160490,1,0,0:0:0:0:
256,192,160608,1,8,0:0:0:0:
256,192,160726,1,0,0:0:0:0:
256,192,161199,1,8,0:0:0:0:
256,192,161671,1,0,0:0:0:0:
256,192,161789,1,0,0:0:0:0:
256,192,161908,1,0,0:0:0:0:
256,192,162026,1,8,0:0:0:0:
256,192,162144,1,8,0:0:0:0:
256,192,162380,1,8,0:0:0:0:
256,192,162498,1,8,0:0:0:0:
256,192,162616,1,0,0:0:0:0:
256,192,163089,1,8,0:0:0:0:
256,192,163561,1,0,0:0:0:0:
256,192,163915,1,8,0:0:0:0:
256,192,164034,1,0,0:0:0:0:
256,192,164270,1,8,0:0:0:0:
256,192,164388,1,8,0:0:0:0:
256,192,164506,1,0,0:0:0:0:
256,192,164860,1,8,0:0:0:0:
256,192,164978,1,8,0:0:0:0:
256,192,165215,1,8,0:0:0:0:
256,192,165451,1,0,0:0:0:0:
256,192,165687,1,0,0:0:0:0:
256,192,165805,1,8,0:0:0:0:
256,192,165923,1,8,0:0:0:0:
256,192,166041,1,0,0:0:0:0:
256,192,166160,1,8,0:0:0:0:
256,192,166278,1,8,0:0:0:0:
256,192,166396,1,0,0:0:0:0:
256,192,167104,1,0,0:0:0:0:
256,192,167236,1,8,0:0:0:0:
256,192,167369,1,0,0:0:0:0:
256,192,168433,1,0,0:0:0:0:
256,192,168577,1,0,0:0:0:0:
256,192,168865,1,8,0:0:0:0:
256,192,169009,1,0,0:0:0:0:
256,192,169154,1,8,0:0:0:0:
256,192,169298,1,0,0:0:0:0:
256,192,169442,1,8,0:0:0:0:
256,192,169586,1,8,0:0:0:0:
256,192,169745,1,0,0:0:0:0:
256,192,169905,1,8,0:0:0:0:
256,192,170064,1,0,0:0:0:0:
256,192,170224,1,8,0:0:0:0:
256,192,170383,1,8,0:0:0:0:
256,192,170543,1,0,0:0:0:0:
256,192,170862,5,12,0:0:0:0:
256,192,171195,1,0,0:0:0:0:
256,192,171528,1,0,0:0:0:0:
256,192,171695,1,0,0:0:0:0:
256,192,171862,1,8,0:0:0:0:
256,192,172028,1,0,0:0:0:0:
256,192,172195,1,8,0:0:0:0:
256,192,172528,1,0,0:0:0:0:
256,192,172862,1,8,0:0:0:0:
256,192,173028,1,0,0:0:0:0:
256,192,173195,1,0,0:0:0:0:
256,192,173362,1,8,0:0:0:0:
256,192,173528,1,0,0:0:0:0:
256,192,173862,1,0,0:0:0:0:
256,192,174195,1,8,0:0:0:0:
256,192,174528,1,8,0:0:0:0:
256,192,174695,1,8,0:0:0:0:
256,192,174862,1,0,0:0:0:0:
256,192,175028,1,8,0:0:0:0:
256,192,175195,1,0,0:0:0:0:
256,192,175528,1,8,0:0:0:0:
256,192,175862,1,8,0:0:0:0:
256,192,176028,1,8,0:0:0:0:
256,192,176195,1,0,0:0:0:0:
256,192,176528,1,0,0:0:0:0:
256,192,176862,1,8,0:0:0:0:
256,192,177028,1,0,0:0:0:0:
256,192,177195,1,8,0:0:0:0:
256,192,177362,1,0,0:0:0:0:
256,192,177528,1,8,0:0:0:0:
256,192,177862,1,0,0:0:0:0:
256,192,178195,1,8,0:0:0:0:
256,192,178362,1,0,0:0:0:0:
256,192,178528,1,8,0:0:0:0:
256,192,178695,1,8,0:0:0:0:
256,192,178862,1,8,0:0:0:0:
256,192,179195,1,8,0:0:0:0:
256,192,179528,1,0,0:0:0:0:
256,192,179862,1,8,0:0:0:0:
256,192,180028,1,0,0:0:0:0:
256,192,180195,1,8,0:0:0:0:
256,192,180362,1,8,0:0:0:0:
256,192,180528,1,0,0:0:0:0:
256,192,180862,1,8,0:0:0:0:
256,192,181195,1,8,0:0:0:0:
256,192,181362,1,0,0:0:0:0:
256,192,181528,1,8,0:0:0:0:
256,192,181862,1,0,0:0:0:0:
256,192,182195,1,0,0:0:0:0:
256,192,182362,1,0,0:0:0:0:
256,192,182528,1,8,0:0:0:0:
256,192,182695,1,0,0:0:0:0:
256,192,182862,1,8,0:0:0:0:
256,192,183195,1,0,0:0:0:0:
256,192,183528,1,8,0:0:0:0:
256,192,183695,1,0,0:0:0:0:
256,192,183862,1,0,0:0:0:0:
256,192,184028,1,8,0:0:0:0:
256,192,184195,1,0,0:0:0:0:
256,192,184528,1,8,0:0:0:0:
256,192,184862,1,8,0:0:0:0:
256,192,185195,1,8,0:0:0:0:
256,192,185362,1,0,0:0:0:0:
256,192,185528,1,8,0:0:0:0:
256,192,185695,1,0,0:0:0:0:
256,192,185862,1,0,0:0:0:0:
256,192,186195,1,8,0:0:0:0:
256,192,186528,1,8,0:0:0:0:
256,192,186695,1,8,0:0:0:0:
256,192,186862,1,0,0:0:0:0:
256,192,187195,1,0,0:0:0:0:
256,192,187528,1,8,0:0:0:0:
256,192,187862,1,8,0:0:0:0:
256,192,188028,1,8,0:0:0:0:
256,192,188195,1,0,0:0:0:0:
256,192,188528,1,0,0:0:0:0:
256,192,188862,1,8,0:0:0:0:
256,192,189195,1,8,0:0:0:0:
256,192,189362,1,0,0:0:0:0:
256,192,189528,1,8,0:0:0:0:
256,192,189862,1,0,0:0:0:0:
256,192,190528,1,0,0:0:0:0:
256,192,190695,1,0,0:0:0:0:
256,192,190862,1,8,0:0:0:0:
256,192,191028,1,0,0:0:0:0:
256,192,191195,1,0,0:0:0:0:
256,192,191362,1,8,0:0:0:0:
256,192,191528,1,8,0:0:0:0:
256,192,191862,1,8,0:0:0:0:
256,192,192028,1,0,0:0:0:0:
256,192,192195,5,0,0:0:0:0:
256,192,192528,1,0,0:0:0:0:
256,192,192862,1,0,0:0:0:0:
256,192,193028,1,0,0:0:0:0:
256,192,193195,1,8,0:0:0:0:
256,192,193362,1,0,0:0:0:0:
256,192,193528,1,8,0:0:0:0:
256,192,193862,1,0,0:0:0:0:
256,192,194195,1,8,0:0:0:0:
256,192,194362,1,0,0:0:0:0:
256,192,194528,1,0,0:0:0:0:
256,192,194695,1,8,0:0:0:0:
256,192,194862,1,8,0:0:0:0:
256,192,195195,1,0,0:0:0:0:
256,192,195362,1,8,0:0:0:0:
256,192,195528,1,8,0:0:0:0:
256,192,195862,1,8,0:0:0:0:
256,192,196028,1,0,0:0:0:0:
256,192,196195,1,8,0:0:0:0:
256,192,196362,1,8,0:0:0:0:
256,192,196528,1,0,0:0:0:0:
256,192,196695,1,8,0:0:0:0:
256,192,196862,1,0,0:0:0:0:
256,192,197195,1,8,0:0:0:0:
256,192,197362,1,8,0:0:0:0:
256,192,197528,1,0,0:0:0:0:
256,192,197862,1,0,0:0:0:0:
256,192,198195,1,0,0:0:0:0:
256,192,198362,1,0,0:0:0:0:
256,192,198528,1,8,0:0:0:0:
256,192,198695,1,0,0:0:0:0:
256,192,198862,1,8,0:0:0:0:
256,192,199195,1,0,0:0:0:0:
256,192,199528,1,8,0:0:0:0:
256,192,199695,1,0,0:0:0:0:
256,192,199862,1,0,0:0:0:0:
256,192,200028,1,8,0:0:0:0:
256,192,200195,1,8,0:0:0:0:
256,192,200528,1,0,0:0:0:0:
256,192,200695,1,8,0:0:0:0:
256,192,200862,1,8,0:0:0:0:
256,192,201195,1,8,0:0:0:0:
256,192,201362,1,0,0:0:0:0:
256,192,201528,1,8,0:0:0:0:
256,192,201695,1,8,0:0:0:0:
256,192,201862,1,0,0:0:0:0:
256,192,202028,1,8,0:0:0:0:
256,192,202195,1,8,0:0:0:0:
256,192,202528,1,8,0:0:0:0:
256,192,202695,1,0,0:0:0:0:
256,192,202862,1,8,0:0:0:0:
256,192,203195,1,0,0:0:0:0:
256,192,203528,1,8,0:0:0:0:
256,192,203862,1,8,0:0:0:0:
256,192,204028,1,0,0:0:0:0:
256,192,204195,1,8,0:0:0:0:
256,192,204528,1,0,0:0:0:0:
256,192,204695,1,8,0:0:0:0:
256,192,204862,1,8,0:0:0:0:
256,192,205195,1,8,0:0:0:0:
256,192,205362,1,8,0:0:0:0:
256,192,205528,1,0,0:0:0:0:
256,192,205862,1,0,0:0:0:0:
256,192,206028,1,0,0:0:0:0:
256,192,206195,1,8,0:0:0:0:
256,192,206528,1,8,0:0:0:0:
256,192,206695,1,0,0:0:0:0:
256,192,206862,1,8,0:0:0:0:
256,192,207028,1,8,0:0:0:0:
256,192,207195,1,0,0:0:0:0:
256,192,207362,1,0,0:0:0:0:
256,192,207528,1,8,0:0:0:0:
256,192,207862,1,8,0:0:0:0:
256,192,208028,1,0,0:0:0:0:
256,192,208195,1,0,0:0:0:0:
256,192,208528,1,0,0:0:0:0:
256,192,208862,1,8,0:0:0:0:
256,192,209028,1,0,0:0:0:0:
256,192,209195,1,8,0:0:0:0:
256,192,209362,1,8,0:0:0:0:
256,192,209528,1,0,0:0:0:0:
256,192,209862,1,0,0:0:0:0:
256,192,210195,1,8,0:0:0:0:
256,192,210362,1,0,0:0:0:0:
256,192,210528,1,0,0:0:0:0:
256,192,210695,1,8,0:0:0:0:
256,192,210862,1,0,0:0:0:0:
256,192,211214,1,0,0:0:0:0:
256,192,211920,1,8,0:0:0:0:
256,192,212097,1,0,0:0:0:0:
256,192,212273,1,0,0:0:0:0:
256,192,212643,1,0,0:0:0:0:
256,192,213013,1,8,0:0:0:0:
256,192,213882,1,0,0:0:0:0:
256,192,214282,1,0,0:0:0:0:
256,192,214682,1,0,0:0:0:0:
256,192,214882,1,0,0:0:0:0:
256,192,215082,1,8,0:0:0:0:
256,192,215282,1,0,0:0:0:0:
256,192,215482,1,8,0:0:0:0:
256,192,215910,1,8,0:0:0:0:
256,192,216339,1,8,0:0:0:0:
256,192,216767,1,0,0:0:0:0:
256,192,219031,1,0,0:0:0:0:
256,192,219447,1,0,0:0:0:0:
256,192,219864,1,0,0:0:0:0:
256,192,220064,1,0,0:0:0:0:
256,192,220264,1,8,0:0:0:0:
256,192,220478,1,0,0:0:0:0:
256,192,220692,1,8,0:0:0:0:
256,192,221153,1,0,0:0:0:0:
256,192,221636,1,8,0:0:0:0:
256,192,222064,1,0,0:0:0:0:
256,192,223882,1,8,0:0:0:0:
256,192,224632,1,0,0:0:0:0:
256,192,225007,12,0,227632,0:0:0:0:
