osu file format v14

[General]
AudioFilename: audio.mp3
AudioLeadIn: 0
PreviewTime: 114231
Countdown: 0
SampleSet: Normal
StackLeniency: 0.7
Mode: 1
LetterboxInBreaks: 0
WidescreenStoryboard: 1

[Editor]
DistanceSpacing: 1.4
BeatDivisor: 2
GridSize: 32
TimelineZoom: 1

[Metadata]
Title:Unable
TitleUnicode:Unable
Artist:July
ArtistUnicode:줄라이
Creator:Jaltzu
Version:Futsuu
Source:
Tags:julysfx instrumental piano hip hop classical korean
BeatmapID:2280830
BeatmapSetID:1090975

[Difficulty]
HPDrainRate:8
CircleSize:2
OverallDifficulty:3.5
ApproachRate:0
SliderMultiplier:1.4
SliderTickRate:1

[Events]
//Background and Video events
0,0,"12891.jpg",0,-140
//Break Periods
//Storyboard Layer 0 (Background)
//Storyboard Layer 1 (Fail)
//Storyboard Layer 2 (Pass)
//Storyboard Layer 3 (Foreground)
//Storyboard Layer 4 (Overlay)
//Storyboard Sound Samples

[TimingPoints]
825,789.473684210526,4,1,0,60,1,0
825,-84.4451950684006,4,1,0,60,0,0
1614,857.142857142857,5,1,0,60,1,8
1614,-77.7786419849109,4,1,0,60,0,0
5792,769.230769230769,4,1,0,60,1,0
5792,-86.6701334720055,4,1,0,60,0,0
6561,845.070422535211,5,1,0,60,1,8
6561,-78.8892395077311,4,1,0,60,0,0
10375,769.230769230769,4,1,0,60,1,8
10375,-86.6701334720055,4,1,0,60,0,0
10759,689.655172413793,4,1,0,60,1,0
10759,-96.665055582407,4,1,0,60,0,0
12138,750,4,1,0,60,1,8
12138,-88.8888888888889,4,1,0,60,0,0
13638,750,4,1,0,60,1,0
13638,-88.8888888888889,4,1,0,60,0,0
16638,750,4,1,0,60,1,8
16720,681.818181818182,4,1,0,60,1,0
16720,-97.7803852547179,4,1,0,60,0,0
26264,674.157303370787,4,1,0,60,1,8
26264,-98.8924050632911,4,1,0,60,0,0
27612,681.818181818182,4,1,0,60,1,0
27612,-97.7803852547179,4,1,0,60,0,0
28975,659.340659340659,4,1,0,60,1,8
28975,-101.112234580384,4,1,0,60,0,0
30293,681.818181818182,4,1,0,60,1,0
30293,-97.7803852547179,4,1,0,60,0,0
31656,697.674418604651,4,1,0,60,1,8
31656,-95.5566172957477,4,1,0,60,0,0
33051,681.818181818182,4,1,0,60,1,0
33051,-97.7803852547179,4,1,0,60,0,0
38505,674.157303370787,4,1,0,60,1,0
38505,-98.8924050632911,4,1,0,60,0,0
39853,659.340659340659,4,1,0,60,1,8
39853,-101.112234580384,4,1,0,60,0,0
41171,645.161290322581,4,1,0,60,1,0
41171,-103.337811305157,4,1,0,60,0,0
42461,681.818181818182,4,1,0,60,1,8
42461,-97.7803852547179,4,1,0,60,0,0
43142,652.173913043478,4,1,0,60,1,8
43142,-102.218133496882,4,1,0,60,0,0
43794,681.818181818182,4,1,0,60,1,0
43794,-97.7803852547179,4,1,0,60,0,0
44475,674.157303370787,4,1,0,60,1,8
44475,-98.8924050632911,4,1,0,60,0,0
45149,648.648648648649,4,1,0,60,1,8
45149,-102.774922918808,4,1,0,60,0,0
46446,648.648648648649,4,1,0,60,1,0
46446,-102.774922918808,4,1,0,60,0,0
47743,697.674418604651,4,1,0,60,1,8
47743,-95.5566172957477,4,1,0,60,0,0
48440,666.666666666667,4,1,0,60,1,8
48935,-100,4,1,0,70,0,0
49106,681.818181818182,4,1,0,70,1,0
49106,-97.7803852547179,4,1,0,70,0,0
70924,666.666666666667,4,1,0,70,1,1
89590,705.882352941176,4,1,0,70,1,0
89590,-94.4465432565168,4,1,0,70,0,0
90295,714.285714285714,4,1,0,60,1,8
90295,-93.3358222885944,4,1,0,60,0,0
91009,750,4,1,0,60,1,8
91009,-88.8888888888889,4,1,0,60,0,0
92583,681.818181818182,4,1,0,60,1,0
92583,-97.7803852547179,4,1,0,60,0,0
95310,697.674418604651,4,1,0,60,1,0
95310,-95.5566172957477,4,1,0,60,0,0
96705,738.461538461538,4,1,0,60,1,8
96705,-90.2771508531191,4,1,0,60,0,0
98181,670.391061452514,4,1,0,60,1,0
98181,-99.4431185361973,4,1,0,60,0,0
104884,652.173913043478,4,1,0,60,1,8
104884,-102.218133496882,4,1,0,60,0,0
106188,652.173913043478,4,1,0,60,1,0
106188,-102.218133496882,4,1,0,60,0,0
106840,681.818181818182,4,1,0,60,1,8
106840,-97.7803852547179,4,1,0,60,0,0
108885,681.818181818182,4,1,0,60,1,0
108885,-97.7803852547179,4,1,0,60,0,0
111612,685.714285714286,4,1,0,60,1,0
111612,-97.2195216799533,4,1,0,60,0,0
111954,-97.2195216799533,4,1,0,40,0,0
112983,740.740740740741,4,1,0,40,1,8
112983,-90.0009000090001,4,1,0,40,0,0
114371,-90.0009000090001,4,1,0,70,0,0
114464,666.666666666667,4,1,0,70,1,1
133130,714.285714285714,4,1,0,70,1,0
133130,-93.3358222885944,4,1,0,70,0,0
134380,-93.3358222885944,4,1,0,60,0,0
134558,750,4,1,0,60,1,8
134558,-88.8888888888889,4,1,0,60,0,0
136160,472.44094488189,4,1,0,60,1,0
151219,-100,4,1,0,70,0,0
151278,-100,4,1,0,70,0,1
166396,-100,4,1,0,70,0,0
166986,-100,4,1,0,60,0,0
167104,530.973451327434,4,1,0,60,1,8
167104,-88.9758875344781,4,1,0,60,0,0
168433,576.923076923077,4,1,0,60,1,0
168433,-81.8866688503112,4,1,0,60,0,0
169009,-88.3236177353824,4,1,0,60,0,0
169586,638.297872340426,4,1,0,60,1,8
169586,-86.6325911808022,4,1,0,60,0,0
170224,-94.7059380623165,4,1,0,60,0,0
170543,-99.3443274389032,4,1,0,60,0,0
170778,-99.3443274389032,4,1,0,70,0,0
170862,666.666666666667,4,1,0,70,1,1
189445,-100,4,1,0,60,0,1
189528,-100,4,1,0,60,0,0
192112,-100,4,1,0,70,0,0
192195,-100,4,1,0,70,0,1
210773,-100,4,1,0,60,0,1
210862,705.882352941176,4,1,0,60,1,0
210862,-94.4465432565168,4,1,0,60,0,0
212273,740.740740740741,4,1,0,60,1,8
212273,-90.0009000090001,4,1,0,60,0,0
213013,869.565217391304,4,1,0,60,1,8
213013,-76.6694778808556,4,1,0,60,0,0
213882,800,4,1,0,60,1,0
213882,-83.3333333333333,4,1,0,60,0,0
215482,857.142857142857,4,1,0,60,1,8
215482,-77.7786419849109,4,1,0,60,0,0
216767,1132.07547169811,4,1,0,60,1,8
216767,-58.8893469171427,4,1,0,60,0,0
219031,833.333333333333,4,1,0,60,1,0
219031,-80,4,1,0,60,0,0
219864,800,4,1,0,60,1,8
219864,-83.3333333333333,4,1,0,60,0,0
220264,857.142857142857,4,1,0,60,1,8
220264,-77.7786419849109,4,1,0,60,0,0
220692,923.076923076923,4,1,0,60,1,8
220692,-72.2230247002744,4,1,0,60,0,0
221153,967.741935483871,4,1,0,60,1,8
221153,-68.889501240011,4,1,0,60,0,0
221636,857.142857142857,4,1,0,60,1,8
221636,-77.7786419849109,4,1,0,60,0,0
222064,909.090909090909,4,1,0,60,1,8
222064,-73.3352889410384,4,1,0,60,0,0
223882,750,4,1,0,60,1,8
223882,-88.8888888888889,4,1,0,60,0,0
224444,-88.8888888888889,4,1,0,50,0,0
224632,750,4,1,0,50,1,0
224632,-88.8888888888889,4,1,0,50,0,0
224913,-88.8888888888889,4,1,0,45,0,0
225382,-88.8888888888889,4,1,0,40,0,0
225757,-88.8888888888889,4,1,0,35,0,0
226132,-88.8888888888889,4,1,0,30,0,0
226507,-88.8888888888889,4,1,0,25,0,0
226882,-88.8888888888889,4,1,0,20,0,0
227257,-88.8888888888889,4,1,0,15,0,0
227632,-88.8888888888889,4,1,0,10,0,0

[HitObjects]
256,192,825,5,0,0:0:0:0:
256,192,1614,1,0,0:0:0:0:
256,192,2042,1,8,0:0:0:0:
256,192,2471,1,8,0:0:0:0:
256,192,3756,1,0,0:0:0:0:
256,192,5792,1,0,0:0:0:0:
256,192,6561,1,0,0:0:0:0:
256,192,6983,1,0,0:0:0:0:
256,192,7406,1,8,0:0:0:0:
256,192,8673,1,0,0:0:0:0:
256,192,10375,1,0,0:0:0:0:
256,192,10759,1,8,0:0:0:0:
256,192,11448,1,0,0:0:0:0:
256,192,12138,1,0,0:0:0:0:
256,192,12888,1,8,0:0:0:0:
256,192,13263,1,8,0:0:0:0:
256,192,13638,1,0,0:0:0:0:
256,192,14388,1,0,0:0:0:0:
256,192,15138,1,8,0:0:0:0:
256,192,16720,5,0,0:0:0:0:
256,192,17401,1,0,0:0:0:0:
256,192,17742,1,0,0:0:0:0:
256,192,18083,1,8,0:0:0:0:
256,192,19106,1,8,0:0:0:0:
256,192,19447,1,0,0:0:0:0:
256,192,20810,1,8,0:0:0:0:
256,192,22174,1,0,0:0:0:0:
256,192,22856,1,0,0:0:0:0:
256,192,23197,1,8,0:0:0:0:
256,192,23538,1,8,0:0:0:0:
256,192,24560,1,8,0:0:0:0:
256,192,24901,1,0,0:0:0:0:
256,192,26264,1,8,0:0:0:0:
256,192,27612,1,0,0:0:0:0:
249,196,28293,1,0,0:0:0:0:
256,192,28634,1,0,0:0:0:0:
256,192,28975,1,8,0:0:0:0:
256,192,29964,1,8,0:0:0:0:
256,192,30293,1,0,0:0:0:0:
256,192,31656,1,8,0:0:0:0:
256,192,32702,1,8,0:0:0:0:
256,192,33051,1,0,0:0:0:0:
256,192,33732,1,0,0:0:0:0:
256,192,34073,1,8,0:0:0:0:
256,192,34414,1,8,0:0:0:0:
256,192,35437,1,8,0:0:0:0:
256,192,35778,1,0,0:0:0:0:
256,192,37141,1,8,0:0:0:0:
256,192,38505,1,8,0:0:0:0:
256,192,39179,1,8,0:0:0:0:
256,192,39853,1,0,0:0:0:0:
256,192,40512,1,8,0:0:0:0:
256,192,41171,1,0,0:0:0:0:
256,192,41816,1,8,0:0:0:0:
256,192,42461,1,8,0:0:0:0:
256,192,43794,1,0,0:0:0:0:
256,192,44475,1,8,0:0:0:0:
256,192,45149,1,0,0:0:0:0:
256,192,45797,1,8,0:0:0:0:
256,192,46446,1,0,0:0:0:0:
256,192,47094,1,8,0:0:0:0:
256,192,47743,1,8,0:0:0:0:
256,192,49106,1,0,0:0:0:0:
256,192,49787,1,0,0:0:0:0:
256,192,50128,1,8,0:0:0:0:
256,192,50469,1,8,0:0:0:0:
256,192,50810,1,0,0:0:0:0:
256,192,51492,1,8,0:0:0:0:
256,192,51833,1,0,0:0:0:0:
256,192,53196,1,0,0:0:0:0:
256,192,53878,1,8,0:0:0:0:
256,192,54560,1,0,0:0:0:0:
256,192,55242,1,0,0:0:0:0:
256,192,55583,1,8,0:0:0:0:
256,192,55924,1,0,0:0:0:0:
256,192,56265,1,8,0:0:0:0:
256,192,56946,1,8,0:0:0:0:
256,192,57287,1,0,0:0:0:0:
256,192,58651,1,0,0:0:0:0:
256,192,59333,1,8,0:0:0:0:
256,192,60015,1,0,0:0:0:0:
256,192,60696,1,0,0:0:0:0:
256,192,61037,1,8,0:0:0:0:
256,192,61378,1,8,0:0:0:0:
256,192,62060,1,8,0:0:0:0:
256,192,62401,1,8,0:0:0:0:
256,192,62742,1,0,0:0:0:0:
256,192,64106,1,8,0:0:0:0:
256,192,65128,1,8,0:0:0:0:
256,192,65469,1,0,0:0:0:0:
256,192,66151,1,0,0:0:0:0:
256,192,66492,1,8,0:0:0:0:
256,192,66833,1,8,0:0:0:0:
256,192,67174,1,0,0:0:0:0:
256,192,67856,1,8,0:0:0:0:
256,192,68196,1,0,0:0:0:0:
256,192,69560,1,0,0:0:0:0:
256,192,70242,1,8,0:0:0:0:
256,192,70583,1,8,0:0:0:0:
256,192,70924,1,0,0:0:0:0:
256,192,71590,1,0,0:0:0:0:
256,192,71924,1,0,0:0:0:0:
256,192,72257,1,8,0:0:0:0:
256,192,72924,1,8,0:0:0:0:
256,192,73257,1,0,0:0:0:0:
256,192,73590,1,0,0:0:0:0:
256,192,73924,1,8,0:0:0:0:
256,192,74590,1,8,0:0:0:0:
256,192,74924,1,0,0:0:0:0:
256,192,75924,1,8,0:0:0:0:
256,192,76257,1,0,0:0:0:0:
256,192,76924,1,0,0:0:0:0:
256,192,77257,1,8,0:0:0:0:
256,192,77590,1,0,0:0:0:0:
256,192,78257,1,8,0:0:0:0:
256,192,78590,1,0,0:0:0:0:
256,192,78924,1,8,0:0:0:0:
256,192,79257,1,8,0:0:0:0:
256,192,79924,1,8,0:0:0:0:
256,192,80257,1,0,0:0:0:0:
256,192,81257,1,8,0:0:0:0:
256,192,81590,1,0,0:0:0:0:
256,192,82257,1,8,0:0:0:0:
256,192,82590,1,8,0:0:0:0:
256,192,82924,1,0,0:0:0:0:
256,192,83590,1,8,0:0:0:0:
256,192,83924,1,0,0:0:0:0:
256,192,84257,1,0,0:0:0:0:
256,192,84590,1,8,0:0:0:0:
256,192,85257,1,8,0:0:0:0:
256,192,85590,1,0,0:0:0:0:
256,192,86590,1,8,0:0:0:0:
256,192,86924,1,0,0:0:0:0:
256,192,87924,1,8,0:0:0:0:
256,192,88257,1,0,0:0:0:0:
256,192,89257,1,0,0:0:0:0:
256,192,89590,1,8,0:0:0:0:
256,192,91009,1,0,0:0:0:0:
256,192,92583,1,0,0:0:0:0:
256,192,93264,1,0,0:0:0:0:
256,192,93605,1,8,0:0:0:0:
256,192,93946,1,8,0:0:0:0:
256,192,94287,1,0,0:0:0:0:
256,192,95310,1,8,0:0:0:0:
256,192,96705,1,0,0:0:0:0:
256,192,98181,1,0,0:0:0:0:
256,192,98851,1,0,0:0:0:0:
256,192,99186,1,0,0:0:0:0:
256,192,99521,1,8,0:0:0:0:
256,192,100192,1,0,0:0:0:0:
256,192,100527,1,8,0:0:0:0:
256,192,100862,1,0,0:0:0:0:
256,192,101532,1,8,0:0:0:0:
256,192,101868,1,8,0:0:0:0:
256,192,102203,1,0,0:0:0:0:
256,192,103544,1,0,0:0:0:0:
256,192,104549,1,0,0:0:0:0:
256,192,104884,1,8,0:0:0:0:
256,192,105862,1,8,0:0:0:0:
256,192,106188,1,0,0:0:0:0:
256,192,106840,1,0,0:0:0:0:
256,192,107521,1,8,0:0:0:0:
256,192,108544,1,8,0:0:0:0:
256,192,108885,1,0,0:0:0:0:
256,192,109566,1,8,0:0:0:0:
256,192,110248,1,0,0:0:0:0:
256,192,111271,1,8,0:0:0:0:
256,192,111612,1,0,0:0:0:0:
256,192,112983,1,8,0:0:0:0:
256,192,114094,1,8,0:0:0:0:
256,192,114464,1,0,0:0:0:0:
256,192,115130,1,0,0:0:0:0:
256,192,115464,1,0,0:0:0:0:
256,192,115797,1,8,0:0:0:0:
256,192,116464,1,8,0:0:0:0:
256,192,116797,1,0,0:0:0:0:
256,192,117130,1,0,0:0:0:0:
256,192,117464,1,8,0:0:0:0:
256,192,118130,1,8,0:0:0:0:
256,192,118464,1,0,0:0:0:0:
256,192,119464,1,8,0:0:0:0:
256,192,119797,1,0,0:0:0:0:
256,192,120464,1,0,0:0:0:0:
256,192,120797,1,8,0:0:0:0:
256,192,121130,1,0,0:0:0:0:
256,192,121797,1,8,0:0:0:0:
256,192,122130,1,0,0:0:0:0:
256,192,122464,1,8,0:0:0:0:
256,192,122797,1,8,0:0:0:0:
256,192,123464,1,8,0:0:0:0:
256,192,123797,1,0,0:0:0:0:
256,192,124797,1,8,0:0:0:0:
256,192,125130,1,0,0:0:0:0:
256,192,125797,1,8,0:0:0:0:
256,192,126130,1,8,0:0:0:0:
256,192,126464,1,0,0:0:0:0:
256,192,127130,1,8,0:0:0:0:
256,192,127464,1,0,0:0:0:0:
256,192,127797,1,0,0:0:0:0:
256,192,128130,1,8,0:0:0:0:
256,192,128797,1,8,0:0:0:0:
256,192,129130,1,0,0:0:0:0:
256,192,130130,1,8,0:0:0:0:
256,192,130464,1,0,0:0:0:0:
256,192,131464,1,8,0:0:0:0:
256,192,131797,1,0,0:0:0:0:
256,192,132797,1,0,0:0:0:0:
256,192,133130,1,8,0:0:0:0:
256,192,134558,1,0,0:0:0:0:
256,192,136160,5,0,0:0:0:0:
256,192,137104,1,8,0:0:0:0:
256,192,137813,1,8,0:0:0:0:
256,192,138049,1,0,0:0:0:0:
256,192,138522,1,0,0:0:0:0:
256,192,138994,1,8,0:0:0:0:
256,192,139467,1,0,0:0:0:0:
256,192,139703,1,8,0:0:0:0:
256,192,139939,1,0,0:0:0:0:
256,192,140884,1,8,0:0:0:0:
256,192,141593,1,0,0:0:0:0:
256,192,141829,1,8,0:0:0:0:
256,192,142301,1,0,0:0:0:0:
256,192,142774,1,8,0:0:0:0:
256,192,143246,1,8,0:0:0:0:
256,192,143482,1,8,0:0:0:0:
256,192,143719,1,0,0:0:0:0:
256,192,144663,1,8,0:0:0:0:
256,192,145372,1,8,0:0:0:0:
256,192,145608,1,0,0:0:0:0:
256,192,146081,1,0,0:0:0:0:
256,192,146553,1,8,0:0:0:0:
256,192,147026,1,0,0:0:0:0:
256,192,147262,1,8,0:0:0:0:
256,192,147498,1,0,0:0:0:0:
256,192,148443,1,8,0:0:0:0:
256,192,149152,1,0,0:0:0:0:
256,192,149388,1,8,0:0:0:0:
256,192,149860,1,8,0:0:0:0:
256,192,150333,1,0,0:0:0:0:
256,192,150805,1,8,0:0:0:0:
256,192,151041,1,0,0:0:0:0:
256,192,151278,5,8,0:0:0:0:
256,192,152222,1,8,0:0:0:0:
256,192,152695,1,8,0:0:0:0:
256,192,152931,1,8,0:0:0:0:
256,192,153167,1,0,0:0:0:0:
256,192,153640,1,8,0:0:0:0:
256,192,154112,1,8,0:0:0:0:
256,192,154585,1,8,0:0:0:0:
256,192,154821,1,0,0:0:0:0:
256,192,155057,1,8,0:0:0:0:
256,192,156002,1,8,0:0:0:0:
256,192,156474,1,8,0:0:0:0:
256,192,156711,1,8,0:0:0:0:
256,192,156947,1,0,0:0:0:0:
256,192,157419,1,8,0:0:0:0:
256,192,157892,1,0,0:0:0:0:
256,192,158364,1,0,0:0:0:0:
256,192,158600,1,8,0:0:0:0:
256,192,158837,1,0,0:0:0:0:
256,192,159782,1,0,0:0:0:0:
256,192,160254,1,0,0:0:0:0:
256,192,160490,1,8,0:0:0:0:
256,192,160726,1,8,0:0:0:0:
256,192,161199,1,8,0:0:0:0:
256,192,161671,1,0,0:0:0:0:
256,192,162144,1,8,0:0:0:0:
256,192,162380,1,8,0:0:0:0:
256,192,162616,1,0,0:0:0:0:
256,192,163561,1,0,0:0:0:0:
256,192,164034,1,0,0:0:0:0:
256,192,164270,1,8,0:0:0:0:
256,192,164506,1,0,0:0:0:0:
256,192,164978,1,8,0:0:0:0:
256,192,165451,1,8,0:0:0:0:
256,192,165923,1,8,0:0:0:0:
256,192,166160,1,8,0:0:0:0:
256,192,166396,1,0,0:0:0:0:
256,192,167104,1,0,0:0:0:0:
256,192,167369,1,0,0:0:0:0:
256,192,168433,1,0,0:0:0:0:
256,192,169009,1,8,0:0:0:0:
256,192,169586,1,0,0:0:0:0:
256,192,170224,1,8,0:0:0:0:
256,192,170543,1,0,0:0:0:0:
256,192,170862,1,12,0:0:0:0:
256,192,171528,1,8,0:0:0:0:
256,192,171862,1,8,0:0:0:0:
256,192,172195,1,0,0:0:0:0:
256,192,172862,1,8,0:0:0:0:
256,192,173195,1,0,0:0:0:0:
256,192,173528,1,0,0:0:0:0:
256,192,173862,1,8,0:0:0:0:
256,192,174528,1,8,0:0:0:0:
256,192,174862,1,0,0:0:0:0:
256,192,175862,1,8,0:0:0:0:
256,192,176195,1,0,0:0:0:0:
256,192,176862,1,8,0:0:0:0:
256,192,177195,1,8,0:0:0:0:
256,192,177528,1,0,0:0:0:0:
256,192,178195,1,0,0:0:0:0:
256,192,178528,1,8,0:0:0:0:
256,192,178862,1,0,0:0:0:0:
256,192,179195,1,8,0:0:0:0:
256,192,179862,1,8,0:0:0:0:
256,192,180195,1,0,0:0:0:0:
256,192,181195,1,8,0:0:0:0:
256,192,181528,1,0,0:0:0:0:
256,192,182195,1,8,0:0:0:0:
256,192,182528,1,8,0:0:0:0:
256,192,182862,1,0,0:0:0:0:
256,192,183528,1,8,0:0:0:0:
256,192,183862,1,0,0:0:0:0:
256,192,184195,1,0,0:0:0:0:
256,192,184528,1,8,0:0:0:0:
256,192,185195,1,8,0:0:0:0:
256,192,185528,1,0,0:0:0:0:
256,192,186528,1,8,0:0:0:0:
256,192,186862,1,0,0:0:0:0:
256,192,187862,1,8,0:0:0:0:
256,192,188195,1,0,0:0:0:0:
256,192,189195,1,0,0:0:0:0:
256,192,189528,1,8,0:0:0:0:
256,192,189862,1,0,0:0:0:0:
256,192,190862,1,0,0:0:0:0:
256,192,191528,1,8,0:0:0:0:
256,192,191862,1,8,0:0:0:0:
256,192,192195,5,0,0:0:0:0:
256,192,192862,1,8,0:0:0:0:
256,192,193195,1,0,0:0:0:0:
256,192,193528,1,8,0:0:0:0:
256,192,194195,1,8,0:0:0:0:
256,192,194528,1,0,0:0:0:0:
256,192,194862,1,0,0:0:0:0:
256,192,195528,1,8,0:0:0:0:
256,192,195862,1,0,0:0:0:0:
256,192,196195,1,8,0:0:0:0:
256,192,196528,1,8,0:0:0:0:
256,192,196862,1,0,0:0:0:0:
256,192,197195,1,8,0:0:0:0:
256,192,197528,1,0,0:0:0:0:
256,192,198528,1,8,0:0:0:0:
256,192,198862,1,0,0:0:0:0:
256,192,199528,1,8,0:0:0:0:
256,192,199862,1,0,0:0:0:0:
256,192,200195,1,0,0:0:0:0:
256,192,200862,1,8,0:0:0:0:
256,192,201195,1,0,0:0:0:0:
256,192,201528,1,8,0:0:0:0:
256,192,201862,1,0,0:0:0:0:
256,192,202195,1,8,0:0:0:0:
256,192,202528,1,8,0:0:0:0:
256,192,202862,1,0,0:0:0:0:
256,192,203862,1,0,0:0:0:0:
256,192,204195,1,8,0:0:0:0:
256,192,204862,1,8,0:0:0:0:
256,192,205195,1,0,0:0:0:0:
256,192,205528,1,0,0:0:0:0:
256,192,206195,1,8,0:0:0:0:
256,192,206528,1,0,0:0:0:0:
256,192,206862,1,8,0:0:0:0:
256,192,207528,1,0,0:0:0:0:
256,192,207862,1,8,0:0:0:0:
256,192,208195,1,0,0:0:0:0:
256,192,209195,1,8,0:0:0:0:
256,192,209528,1,0,0:0:0:0:
256,192,210195,1,8,0:0:0:0:
256,192,210528,1,0,0:0:0:0:
256,192,210862,5,0,0:0:0:0:
256,192,211214,1,8,0:0:0:0:
256,192,211920,1,8,0:0:0:0:
256,192,212273,1,0,0:0:0:0:
256,192,213882,1,0,0:0:0:0:
256,192,214682,1,0,0:0:0:0:
256,192,215082,1,8,0:0:0:0:
256,192,215482,1,8,0:0:0:0:
256,192,215910,1,8,0:0:0:0:
256,192,216767,1,0,0:0:0:0:
256,192,219031,1,0,0:0:0:0:
256,192,219864,1,0,0:0:0:0:
256,192,220264,1,8,0:0:0:0:
256,192,220692,1,8,0:0:0:0:
256,192,221153,1,0,0:0:0:0:
256,192,222064,1,0,0:0:0:0:
256,192,223882,1,8,0:0:0:0:
256,192,224632,1,0,0:0:0:0:
256,192,225007,12,0,227632,0:0:0:0:
