osu file format v14

[General]
AudioFilename: audio.mp3
AudioLeadIn: 0
PreviewTime: 13744
Countdown: 0
SampleSet: Drum
StackLeniency: 0.7
Mode: 3
LetterboxInBreaks: 0
SpecialStyle: 0
WidescreenStoryboard: 1

[Editor]
Bookmarks: 35037,56370,77704
DistanceSpacing: 1.2
BeatDivisor: 16
GridSize: 32
TimelineZoom: 4.499998

[Metadata]
Title:Hush, Little Baby - Persia
TitleUnicode:Hush, Little Baby - Persia
Artist:Juliet Persia (CV: Kayano Ai)
ArtistUnicode:ジュリエット・ペルシア (CV: 茅野愛衣)
Creator:Drum-Hitnormal
Version:4K Voxa's Little Baby
Source:寄宿学校のジュリエット
Tags:[Crz]xz1z1z Affirmation tatatat _Kobii Voxa Keysound Piano Anime English Kishuku Gakkou no Juliet Boarding School ost storyboard SB dudehacker
BeatmapID:2303336
BeatmapSetID:1081573

[Difficulty]
HPDrainRate:7
CircleSize:4
OverallDifficulty:7
ApproachRate:5
SliderMultiplier:1.4
SliderTickRate:1

[Events]
//Background and Video events
0,0,"juliet 02.jpg",0,0
//Break Periods
//Storyboard Layer 0 (Background)
Sprite,Background,Centre,"sb\p.png",320,240 F,0,0,,1 S,0,0,,1000 C,0,0,,0,0,0 F,0,120000,,0
Sprite,Background,Centre,"sb\blur.jpg",320,240 L,0,12 R,1,0,2500,0,-0.01 R,2,2500,5000,-0.01,0 R,1,5000,7500,0,0.01 R,2,7500,10000,0.01,0 S,0,0,,0.46 F,0,410,1744,0,1 F,0,36410,,0 F,0,56410,,1 F,0,79077,,0 F,0,99077,,1 F,0,104410,109744,1,0
Sprite,Background,Centre,"sb\BG.jpg",320,240 L,0,12 R,1,0,2500,0,-0.01 R,2,2500,5000,-0.01,0 R,1,5000,7500,0,0.01 R,2,7500,10000,0.01,0 S,0,0,,0.46 F,0,35077,36410,0,1 F,0,56410,57744,1,0 F,0,77744,79077,0,1 F,0,99077,100410,1,0
//Storyboard Layer 1 (Fail)
//Storyboard Layer 2 (Pass)
//Storyboard Layer 3 (Foreground)
Sprite,Foreground,Centre,"sb\lyrics\1\004a.png",0,0 F,0,410,,0,1 S,0,410,,0.6 C,0,410,,255,255,255 MX,0,410,11077,448.4514,438.4514 MY,0,410,11077,333.8515 F,0,10577,11077,1,0 MX,29,10657,11157,438.4514,443.4514
Sprite,Foreground,Centre,"sb\lyrics\1\0075.png",0,0 S,0,410,,0.6 C,0,410,,255,255,255 F,0,410,490,0,1 MX,0,410,11077,463.4514,453.4514 MY,0,410,11077,337.1515 F,0,10577,11077,1,0 MX,29,10657,11157,453.4514,458.4514
Sprite,Foreground,Centre,"sb\lyrics\1\006c.png",0,0 S,0,410,,0.6 C,0,410,,255,255,255 F,0,410,570,0,1 MX,0,410,11077,476.3514,466.3514 MY,0,410,11077,333.5515 F,0,10577,11077,1,0 MX,29,10657,11157,466.3514,471.3514
Sprite,Foreground,Centre,"sb\lyrics\1\0069.png",0,0 S,0,410,,0.6 C,0,410,,255,255,255 F,0,410,650,0,1 MX,0,410,11077,487.1514,477.1514 MY,0,410,11077,333.5515 F,0,10577,11077,1,0 MX,29,10657,11157,477.1514,482.1514
Sprite,Foreground,Centre,"sb\lyrics\1\0065.png",0,0 S,0,410,,0.6 C,0,410,,255,255,255 F,0,410,730,0,1 MX,0,410,11077,500.6514,490.6514 MY,0,410,11077,336.8515 F,0,10577,11077,1,0 MX,29,10657,11157,490.6514,495.6514
Sprite,Foreground,Centre,"sb\lyrics\1\0074.png",0,0 S,0,410,,0.6 C,0,410,,255,255,255 F,0,410,810,0,1 MX,0,410,11077,514.4514,504.4514 MY,0,410,11077,334.1515 F,0,10577,11077,1,0 MX,29,10657,11157,504.4514,509.4514
Sprite,Foreground,Centre,"sb\lyrics\1\0050.png",0,0 S,0,410,,0.6 C,0,410,,255,255,255 F,0,410,890,0,1 MX,0,410,11077,539.6515,529.6515 MY,0,410,11077,333.5515 F,0,10577,11077,1,0 MX,29,10657,11157,529.6515,534.6515
Sprite,Foreground,Centre,"sb\lyrics\1\0065.png",0,0 S,0,410,,0.6 C,0,410,,255,255,255 F,0,410,970,0,1 MX,0,410,11077,555.2515,545.2515 MY,0,410,11077,336.8515 F,0,10577,11077,1,0 MX,29,10657,11157,545.2515,550.2515
Sprite,Foreground,Centre,"sb\lyrics\1\0072.png",0,0 S,0,410,,0.6 C,0,410,,255,255,255 F,0,410,1050,0,1 MX,0,410,11077,569.0515,559.0515 MY,0,410,11077,336.8515 F,0,10577,11077,1,0 MX,29,10657,11157,559.0515,564.0515
Sprite,Foreground,Centre,"sb\lyrics\1\0073.png",0,0 S,0,410,,0.6 C,0,410,,255,255,255 F,0,410,1130,0,1 MX,0,410,11077,582.5515,572.5515 MY,0,410,11077,336.5515 F,0,10577,11077,1,0 MX,29,10657,11157,572.5515,577.5515
Sprite,Foreground,Centre,"sb\lyrics\1\0069.png",0,0 S,0,410,,0.6 C,0,410,,255,255,255 F,0,410,1210,0,1 MX,0,410,11077,594.5515,584.5515 MY,0,410,11077,333.5515 F,0,10577,11077,1,0 MX,29,10657,11157,584.5515,589.5515
Sprite,Foreground,Centre,"sb\lyrics\1\0061.png",0,0 S,0,410,,0.6 C,0,410,,255,255,255 F,0,410,1290,0,1 MX,0,410,11077,608.0515,598.0515 MY,0,410,11077,336.8515 F,0,10577,11077,1,0 MX,29,10657,11157,598.0515,603.0515
Sprite,Foreground,Centre,"sb\lyrics\2\0048.png",0,0 F,0,5744,,0,1 S,0,5744,,0.6 C,0,5744,,255,255,255 MX,0,5744,11077,298.7515,288.7515 MY,0,5744,11077,393.2515 F,0,10577,11077,1,0 MX,29,10657,11157,288.7515,293.7515
Sprite,Foreground,Centre,"sb\lyrics\2\0075.png",0,0 S,0,5744,,0.6 C,0,5744,,255,255,255 F,0,5744,5824,0,1 MX,0,5744,11077,314.6515,304.6515 MY,0,5744,11077,397.1515 F,0,10577,11077,1,0 MX,29,10657,11157,304.6515,309.6515
Sprite,Foreground,Centre,"sb\lyrics\2\0073.png",0,0 S,0,5744,,0.6 C,0,5744,,255,255,255 F,0,5744,5904,0,1 MX,0,5744,11077,329.3515,319.3515 MY,0,5744,11077,396.5515 F,0,10577,11077,1,0 MX,29,10657,11157,319.3515,324.3515
Sprite,Foreground,Centre,"sb\lyrics\2\0068.png",0,0 S,0,5744,,0.6 C,0,5744,,255,255,255 F,0,5744,5984,0,1 MX,0,5744,11077,343.7515,333.7515 MY,0,5744,11077,393.5515 F,0,10577,11077,1,0 MX,29,10657,11157,333.7515,338.7515
Sprite,Foreground,Centre,"sb\lyrics\2\002c.png",0,0 S,0,5744,,0.6 C,0,5744,,255,255,255 F,0,5744,6064,0,1 MX,0,5744,11077,357.5515,347.5515 MY,0,5744,11077,404.3515 F,0,10577,11077,1,0 MX,29,10657,11157,347.5515,352.5515
Sprite,Foreground,Centre,"sb\lyrics\2\004c.png",0,0 S,0,5744,,0.6 C,0,5744,,255,255,255 F,0,5744,6144,0,1 MX,0,5744,11077,383.0515,373.0515 MY,0,5744,11077,393.2515 F,0,10577,11077,1,0 MX,29,10657,11157,373.0515,378.0515
Sprite,Foreground,Centre,"sb\lyrics\2\0069.png",0,0 S,0,5744,,0.6 C,0,5744,,255,255,255 F,0,5744,6224,0,1 MX,0,5744,11077,395.9515,385.9515 MY,0,5744,11077,393.5515 F,0,10577,11077,1,0 MX,29,10657,11157,385.9515,390.9515
Sprite,Foreground,Centre,"sb\lyrics\2\0074.png",0,0 S,0,5744,,0.6 C,0,5744,,255,255,255 F,0,5744,6304,0,1 MX,0,5744,11077,408.8515,398.8515 MY,0,5744,11077,394.1515 F,0,10577,11077,1,0 MX,29,10657,11157,398.8515,403.8515
Sprite,Foreground,Centre,"sb\lyrics\2\0074.png",0,0 S,0,5744,,0.6 C,0,5744,,255,255,255 F,0,5744,6384,0,1 MX,0,5744,11077,422.6515,412.6515 MY,0,5744,11077,394.1515 F,0,10577,11077,1,0 MX,29,10657,11157,412.6515,417.6515
Sprite,Foreground,Centre,"sb\lyrics\2\006c.png",0,0 S,0,5744,,0.6 C,0,5744,,255,255,255 F,0,5744,6464,0,1 MX,0,5744,11077,434.9514,424.9514 MY,0,5744,11077,393.5515 F,0,10577,11077,1,0 MX,29,10657,11157,424.9514,429.9514
Sprite,Foreground,Centre,"sb\lyrics\2\0065.png",0,0 S,0,5744,,0.6 C,0,5744,,255,255,255 F,0,5744,6544,0,1 MX,0,5744,11077,447.8514,437.8514 MY,0,5744,11077,396.8515 F,0,10577,11077,1,0 MX,29,10657,11157,437.8514,442.8514
Sprite,Foreground,Centre,"sb\lyrics\2\0042.png",0,0 S,0,5744,,0.6 C,0,5744,,255,255,255 F,0,5744,6624,0,1 MX,0,5744,11077,473.9514,463.9514 MY,0,5744,11077,393.5515 F,0,10577,11077,1,0 MX,29,10657,11157,463.9514,468.9514
Sprite,Foreground,Centre,"sb\lyrics\2\0061.png",0,0 S,0,5744,,0.6 C,0,5744,,255,255,255 F,0,5744,6704,0,1 MX,0,5744,11077,489.8514,479.8514 MY,0,5744,11077,396.8515 F,0,10577,11077,1,0 MX,29,10657,11157,479.8514,484.8514
Sprite,Foreground,Centre,"sb\lyrics\2\0062.png",0,0 S,0,5744,,0.6 C,0,5744,,255,255,255 F,0,5744,6784,0,1 MX,0,5744,11077,504.5515,494.5515 MY,0,5744,11077,393.5515 F,0,10577,11077,1,0 MX,29,10657,11157,494.5515,499.5515
Sprite,Foreground,Centre,"sb\lyrics\2\0079.png",0,0 S,0,5744,,0.6 C,0,5744,,255,255,255 F,0,5744,6864,0,1 MX,0,5744,11077,519.2515,509.2514 MY,0,5744,11077,399.2515 F,0,10577,11077,1,0 MX,29,10657,11157,509.2514,514.2515
Sprite,Foreground,Centre,"sb\lyrics\2\002d.png",0,0 S,0,5744,,0.6 C,0,5744,,255,255,255 F,0,5744,6944,0,1 MX,0,5744,11077,544.4515,534.4515 MY,0,5744,11077,392.9515 F,0,10577,11077,1,0 MX,29,10657,11157,534.4515,539.4515
Sprite,Foreground,Centre,"sb\lyrics\2\0050.png",0,0 S,0,5744,,0.6 C,0,5744,,255,255,255 F,0,5744,7024,0,1 MX,0,5744,11077,570.8515,560.8515 MY,0,5744,11077,393.5515 F,0,10577,11077,1,0 MX,29,10657,11157,560.8515,565.8515
Sprite,Foreground,Centre,"sb\lyrics\2\0065.png",0,0 S,0,5744,,0.6 C,0,5744,,255,255,255 F,0,5744,7104,0,1 MX,0,5744,11077,586.4515,576.4515 MY,0,5744,11077,396.8515 F,0,10577,11077,1,0 MX,29,10657,11157,576.4515,581.4515
Sprite,Foreground,Centre,"sb\lyrics\2\0072.png",0,0 S,0,5744,,0.6 C,0,5744,,255,255,255 F,0,5744,7184,0,1 MX,0,5744,11077,600.2515,590.2515 MY,0,5744,11077,396.8515 F,0,10577,11077,1,0 MX,29,10657,11157,590.2515,595.2515
Sprite,Foreground,Centre,"sb\lyrics\2\0073.png",0,0 S,0,5744,,0.6 C,0,5744,,255,255,255 F,0,5744,7264,0,1 MX,0,5744,11077,613.7515,603.7515 MY,0,5744,11077,396.5515 F,0,10577,11077,1,0 MX,29,10657,11157,603.7515,608.7515
Sprite,Foreground,Centre,"sb\lyrics\2\0069.png",0,0 S,0,5744,,0.6 C,0,5744,,255,255,255 F,0,5744,7344,0,1 MX,0,5744,11077,625.7515,615.7515 MY,0,5744,11077,393.5515 F,0,10577,11077,1,0 MX,29,10657,11157,615.7515,620.7515
Sprite,Foreground,Centre,"sb\lyrics\2\0061.png",0,0 S,0,5744,,0.6 C,0,5744,,255,255,255 F,0,5744,7424,0,1 MX,0,5744,11077,639.2515,629.2515 MY,0,5744,11077,396.8515 F,0,10577,11077,1,0 MX,29,10657,11157,629.2515,634.2515
Sprite,Foreground,Centre,"sb\lyrics\3\0048.png",0,0 F,0,13744,,0,1 S,0,13744,,0.6 C,0,13744,,255,255,255 MX,0,13744,18410,242.6515,232.6515 MY,0,13744,18410,373.2515 F,0,17910,18410,1,0 MX,29,17990,18490,232.6515,237.6515
Sprite,Foreground,Centre,"sb\lyrics\3\0075.png",0,0 S,0,13744,,0.6 C,0,13744,,255,255,255 F,0,13744,13824,0,1 MX,0,13744,18410,258.5515,248.5515 MY,0,13744,18410,377.1515 F,0,17910,18410,1,0 MX,29,17990,18490,248.5515,253.5515
Sprite,Foreground,Centre,"sb\lyrics\3\0073.png",0,0 S,0,13744,,0.6 C,0,13744,,255,255,255 F,0,13744,13904,0,1 MX,0,13744,18410,273.2515,263.2515 MY,0,13744,18410,376.5515 F,0,17910,18410,1,0 MX,29,17990,18490,263.2515,268.2515
Sprite,Foreground,Centre,"sb\lyrics\3\0068.png",0,0 S,0,13744,,0.6 C,0,13744,,255,255,255 F,0,13744,13984,0,1 MX,0,13744,18410,287.6515,277.6515 MY,0,13744,18410,373.5515 F,0,17910,18410,1,0 MX,29,17990,18490,277.6515,282.6515
Sprite,Foreground,Centre,"sb\lyrics\3\002c.png",0,0 S,0,13744,,0.6 C,0,13744,,255,255,255 F,0,13744,14064,0,1 MX,0,13744,18410,301.4515,291.4515 MY,0,13744,18410,384.3515 F,0,17910,18410,1,0 MX,29,17990,18490,291.4515,296.4515
Sprite,Foreground,Centre,"sb\lyrics\3\006c.png",0,0 S,0,13744,,0.6 C,0,13744,,255,255,255 F,0,13744,14144,0,1 MX,0,13744,18410,323.6515,313.6515 MY,0,13744,18410,373.5515 F,0,17910,18410,1,0 MX,29,17990,18490,313.6515,318.6515
Sprite,Foreground,Centre,"sb\lyrics\3\0069.png",0,0 S,0,13744,,0.6 C,0,13744,,255,255,255 F,0,13744,14224,0,1 MX,0,13744,18410,334.4515,324.4515 MY,0,13744,18410,373.5515 F,0,17910,18410,1,0 MX,29,17990,18490,324.4515,329.4515
Sprite,Foreground,Centre,"sb\lyrics\3\0074.png",0,0 S,0,13744,,0.6 C,0,13744,,255,255,255 F,0,13744,14304,0,1 MX,0,13744,18410,347.3515,337.3515 MY,0,13744,18410,374.1515 F,0,17910,18410,1,0 MX,29,17990,18490,337.3515,342.3515
Sprite,Foreground,Centre,"sb\lyrics\3\0074.png",0,0 S,0,13744,,0.6 C,0,13744,,255,255,255 F,0,13744,14384,0,1 MX,0,13744,18410,361.1515,351.1515 MY,0,13744,18410,374.1515 F,0,17910,18410,1,0 MX,29,17990,18490,351.1515,356.1515
Sprite,Foreground,Centre,"sb\lyrics\3\006c.png",0,0 S,0,13744,,0.6 C,0,13744,,255,255,255 F,0,13744,14464,0,1 MX,0,13744,18410,373.4514,363.4514 MY,0,13744,18410,373.5515 F,0,17910,18410,1,0 MX,29,17990,18490,363.4514,368.4514
Sprite,Foreground,Centre,"sb\lyrics\3\0065.png",0,0 S,0,13744,,0.6 C,0,13744,,255,255,255 F,0,13744,14544,0,1 MX,0,13744,18410,386.3514,376.3514 MY,0,13744,18410,376.8515 F,0,17910,18410,1,0 MX,29,17990,18490,376.3514,381.3514
Sprite,Foreground,Centre,"sb\lyrics\3\0062.png",0,0 S,0,13744,,0.6 C,0,13744,,255,255,255 F,0,13744,14624,0,1 MX,0,13744,18410,411.2515,401.2515 MY,0,13744,18410,373.5515 F,0,17910,18410,1,0 MX,29,17990,18490,401.2515,406.2515
Sprite,Foreground,Centre,"sb\lyrics\3\0061.png",0,0 S,0,13744,,0.6 C,0,13744,,255,255,255 F,0,13744,14704,0,1 MX,0,13744,18410,426.5515,416.5515 MY,0,13744,18410,376.8515 F,0,17910,18410,1,0 MX,29,17990,18490,416.5515,421.5515
Sprite,Foreground,Centre,"sb\lyrics\3\0062.png",0,0 S,0,13744,,0.6 C,0,13744,,255,255,255 F,0,13744,14784,0,1 MX,0,13744,18410,441.2515,431.2515 MY,0,13744,18410,373.5515 F,0,17910,18410,1,0 MX,29,17990,18490,431.2515,436.2515
Sprite,Foreground,Centre,"sb\lyrics\3\0079.png",0,0 S,0,13744,,0.6 C,0,13744,,255,255,255 F,0,13744,14864,0,1 MX,0,13744,18410,455.9514,445.9514 MY,0,13744,18410,379.2515 F,0,17910,18410,1,0 MX,29,17990,18490,445.9514,450.9514
Sprite,Foreground,Centre,"sb\lyrics\3\002c.png",0,0 S,0,13744,,0.6 C,0,13744,,255,255,255 F,0,13744,14944,0,1 MX,0,13744,18410,468.2514,458.2514 MY,0,13744,18410,384.3515 F,0,17910,18410,1,0 MX,29,17990,18490,458.2514,463.2514
Sprite,Foreground,Centre,"sb\lyrics\3\0064.png",0,0 S,0,13744,,0.6 C,0,13744,,255,255,255 F,0,13744,15024,0,1 MX,0,13744,18410,492.5515,482.5515 MY,0,13744,18410,373.8515 F,0,17910,18410,1,0 MX,29,17990,18490,482.5515,487.5515
Sprite,Foreground,Centre,"sb\lyrics\3\006f.png",0,0 S,0,13744,,0.6 C,0,13744,,255,255,255 F,0,13744,15104,0,1 MX,0,13744,18410,507.5515,497.5515 MY,0,13744,18410,376.8515 F,0,17910,18410,1,0 MX,29,17990,18490,497.5515,502.5515
Sprite,Foreground,Centre,"sb\lyrics\3\006e.png",0,0 S,0,13744,,0.6 C,0,13744,,255,255,255 F,0,13744,15184,0,1 MX,0,13744,18410,522.2515,512.2515 MY,0,13744,18410,376.8515 F,0,17910,18410,1,0 MX,29,17990,18490,512.2515,517.2515
Sprite,Foreground,Centre,"sb\lyrics\3\0027.png",0,0 S,0,13744,,0.6 C,0,13744,,255,255,255 F,0,13744,15264,0,1 MX,0,13744,18410,536.3514,526.3514 MY,0,13744,18410,363.6515 F,0,17910,18410,1,0 MX,29,17990,18490,526.3514,531.3514
Sprite,Foreground,Centre,"sb\lyrics\3\0074.png",0,0 S,0,13744,,0.6 C,0,13744,,255,255,255 F,0,13744,15344,0,1 MX,0,13744,18410,548.9515,538.9515 MY,0,13744,18410,374.1515 F,0,17910,18410,1,0 MX,29,17990,18490,538.9515,543.9515
Sprite,Foreground,Centre,"sb\lyrics\3\0073.png",0,0 S,0,13744,,0.6 C,0,13744,,255,255,255 F,0,13744,15424,0,1 MX,0,13744,18410,573.2515,563.2515 MY,0,13744,18410,376.5515 F,0,17910,18410,1,0 MX,29,17990,18490,563.2515,568.2515
Sprite,Foreground,Centre,"sb\lyrics\3\0061.png",0,0 S,0,13744,,0.6 C,0,13744,,255,255,255 F,0,13744,15504,0,1 MX,0,13744,18410,587.3514,577.3514 MY,0,13744,18410,376.8515 F,0,17910,18410,1,0 MX,29,17990,18490,577.3514,582.3514
Sprite,Foreground,Centre,"sb\lyrics\3\0079.png",0,0 S,0,13744,,0.6 C,0,13744,,255,255,255 F,0,13744,15584,0,1 MX,0,13744,18410,601.1515,591.1515 MY,0,13744,18410,379.2515 F,0,17910,18410,1,0 MX,29,17990,18490,591.1515,596.1515
Sprite,Foreground,Centre,"sb\lyrics\3\0061.png",0,0 S,0,13744,,0.6 C,0,13744,,255,255,255 F,0,13744,15664,0,1 MX,0,13744,18410,625.7515,615.7515 MY,0,13744,18410,376.8515 F,0,17910,18410,1,0 MX,29,17990,18490,615.7515,620.7515
Sprite,Foreground,Centre,"sb\lyrics\3\0077.png",0,0 S,0,13744,,0.6 C,0,13744,,255,255,255 F,0,13744,15744,0,1 MX,0,13744,18410,651.2515,641.2515 MY,0,13744,18410,377.1515 F,0,17910,18410,1,0 MX,29,17990,18490,641.2515,646.2515
Sprite,Foreground,Centre,"sb\lyrics\3\006f.png",0,0 S,0,13744,,0.6 C,0,13744,,255,255,255 F,0,13744,15824,0,1 MX,0,13744,18410,667.1515,657.1515 MY,0,13744,18410,376.8515 F,0,17910,18410,1,0 MX,29,17990,18490,657.1515,662.1515
Sprite,Foreground,Centre,"sb\lyrics\3\0072.png",0,0 S,0,13744,,0.6 C,0,13744,,255,255,255 F,0,13744,15904,0,1 MX,0,13744,18410,680.9515,670.9515 MY,0,13744,18410,376.8515 F,0,17910,18410,1,0 MX,29,17990,18490,670.9515,675.9515
Sprite,Foreground,Centre,"sb\lyrics\3\0064.png",0,0 S,0,13744,,0.6 C,0,13744,,255,255,255 F,0,13744,15984,0,1 MX,0,13744,18410,694.7515,684.7515 MY,0,13744,18410,373.8515 F,0,17910,18410,1,0 MX,29,17990,18490,684.7515,689.7515
Sprite,Foreground,Centre,"sb\lyrics\4\004d.png",0,0 F,0,19077,,0,1 S,0,19077,,0.6 C,0,19077,,255,255,255 MX,0,19077,23744,238.4514,228.4514 MY,0,19077,23744,373.8515 F,0,23244,23744,1,0 MX,29,23324,23824,228.4514,233.4514
Sprite,Foreground,Centre,"sb\lyrics\4\0061.png",0,0 S,0,19077,,0.6 C,0,19077,,255,255,255 F,0,19077,19157,0,1 MX,0,19077,23744,254.9514,244.9514 MY,0,19077,23744,376.8515 F,0,23244,23744,1,0 MX,29,23324,23824,244.9514,249.9514
Sprite,Foreground,Centre,"sb\lyrics\4\006d.png",0,0 S,0,19077,,0.6 C,0,19077,,255,255,255 F,0,19077,19237,0,1 MX,0,19077,23744,271.1515,261.1515 MY,0,19077,23744,376.8515 F,0,23244,23744,1,0 MX,29,23324,23824,261.1515,266.1515
Sprite,Foreground,Centre,"sb\lyrics\4\0061.png",0,0 S,0,19077,,0.6 C,0,19077,,255,255,255 F,0,19077,19317,0,1 MX,0,19077,23744,287.3514,277.3514 MY,0,19077,23744,376.8515 F,0,23244,23744,1,0 MX,29,23324,23824,277.3514,282.3514
Sprite,Foreground,Centre,"sb\lyrics\4\0027.png",0,0 S,0,19077,,0.6 C,0,19077,,255,255,255 F,0,19077,19397,0,1 MX,0,19077,23744,300.5515,290.5515 MY,0,19077,23744,363.6515 F,0,23244,23744,1,0 MX,29,23324,23824,290.5515,295.5515
Sprite,Foreground,Centre,"sb\lyrics\4\0073.png",0,0 S,0,19077,,0.6 C,0,19077,,255,255,255 F,0,19077,19477,0,1 MX,0,19077,23744,313.4514,303.4514 MY,0,19077,23744,376.5515 F,0,23244,23744,1,0 MX,29,23324,23824,303.4514,308.4514
Sprite,Foreground,Centre,"sb\lyrics\4\0067.png",0,0 S,0,19077,,0.6 C,0,19077,,255,255,255 F,0,19077,19557,0,1 MX,0,19077,23744,337.4514,327.4514 MY,0,19077,23744,378.9515 F,0,23244,23744,1,0 MX,29,23324,23824,327.4514,332.4514
Sprite,Foreground,Centre,"sb\lyrics\4\006f.png",0,0 S,0,19077,,0.6 C,0,19077,,255,255,255 F,0,19077,19637,0,1 MX,0,19077,23744,352.7514,342.7514 MY,0,19077,23744,376.8515 F,0,23244,23744,1,0 MX,29,23324,23824,342.7514,347.7514
Sprite,Foreground,Centre,"sb\lyrics\4\006e.png",0,0 S,0,19077,,0.6 C,0,19077,,255,255,255 F,0,19077,19717,0,1 MX,0,19077,23744,367.4514,357.4514 MY,0,19077,23744,376.8515 F,0,23244,23744,1,0 MX,29,23324,23824,357.4514,362.4514
Sprite,Foreground,Centre,"sb\lyrics\4\006e.png",0,0 S,0,19077,,0.6 C,0,19077,,255,255,255 F,0,19077,19797,0,1 MX,0,19077,23744,383.0515,373.0515 MY,0,19077,23744,376.8515 F,0,23244,23744,1,0 MX,29,23324,23824,373.0515,378.0515
Sprite,Foreground,Centre,"sb\lyrics\4\0061.png",0,0 S,0,19077,,0.6 C,0,19077,,255,255,255 F,0,19077,19877,0,1 MX,0,19077,23744,398.3514,388.3514 MY,0,19077,23744,376.8515 F,0,23244,23744,1,0 MX,29,23324,23824,388.3514,393.3514
Sprite,Foreground,Centre,"sb\lyrics\4\0062.png",0,0 S,0,19077,,0.6 C,0,19077,,255,255,255 F,0,19077,19957,0,1 MX,0,19077,23744,423.2515,413.2515 MY,0,19077,23744,373.5515 F,0,23244,23744,1,0 MX,29,23324,23824,413.2515,418.2515
Sprite,Foreground,Centre,"sb\lyrics\4\0075.png",0,0 S,0,19077,,0.6 C,0,19077,,255,255,255 F,0,19077,20037,0,1 MX,0,19077,23744,438.5515,428.5515 MY,0,19077,23744,377.1515 F,0,23244,23744,1,0 MX,29,23324,23824,428.5515,433.5515
Sprite,Foreground,Centre,"sb\lyrics\4\0079.png",0,0 S,0,19077,,0.6 C,0,19077,,255,255,255 F,0,19077,20117,0,1 MX,0,19077,23744,452.9514,442.9514 MY,0,19077,23744,379.2515 F,0,23244,23744,1,0 MX,29,23324,23824,442.9514,447.9514
Sprite,Foreground,Centre,"sb\lyrics\4\0079.png",0,0 S,0,19077,,0.6 C,0,19077,,255,255,255 F,0,19077,20197,0,1 MX,0,19077,23744,476.9514,466.9514 MY,0,19077,23744,379.2515 F,0,23244,23744,1,0 MX,29,23324,23824,466.9514,471.9514
Sprite,Foreground,Centre,"sb\lyrics\4\006f.png",0,0 S,0,19077,,0.6 C,0,19077,,255,255,255 F,0,19077,20277,0,1 MX,0,19077,23744,491.3514,481.3514 MY,0,19077,23744,376.8515 F,0,23244,23744,1,0 MX,29,23324,23824,481.3514,486.3514
Sprite,Foreground,Centre,"sb\lyrics\4\0075.png",0,0 S,0,19077,,0.6 C,0,19077,,255,255,255 F,0,19077,20357,0,1 MX,0,19077,23744,505.7514,495.7514 MY,0,19077,23744,377.1515 F,0,23244,23744,1,0 MX,29,23324,23824,495.7514,500.7514
Sprite,Foreground,Centre,"sb\lyrics\4\0061.png",0,0 S,0,19077,,0.6 C,0,19077,,255,255,255 F,0,19077,20437,0,1 MX,0,19077,23744,530.9514,520.9514 MY,0,19077,23744,376.8515 F,0,23244,23744,1,0 MX,29,23324,23824,520.9514,525.9514
Sprite,Foreground,Centre,"sb\lyrics\4\006d.png",0,0 S,0,19077,,0.6 C,0,19077,,255,255,255 F,0,19077,20517,0,1 MX,0,19077,23744,557.3514,547.3514 MY,0,19077,23744,376.8515 F,0,23244,23744,1,0 MX,29,23324,23824,547.3514,552.3514
Sprite,Foreground,Centre,"sb\lyrics\4\006f.png",0,0 S,0,19077,,0.6 C,0,19077,,255,255,255 F,0,19077,20597,0,1 MX,0,19077,23744,573.5515,563.5515 MY,0,19077,23744,376.8515 F,0,23244,23744,1,0 MX,29,23324,23824,563.5515,568.5515
Sprite,Foreground,Centre,"sb\lyrics\4\0063.png",0,0 S,0,19077,,0.6 C,0,19077,,255,255,255 F,0,19077,20677,0,1 MX,0,19077,23744,587.9515,577.9515 MY,0,19077,23744,376.8515 F,0,23244,23744,1,0 MX,29,23324,23824,577.9515,582.9515
Sprite,Foreground,Centre,"sb\lyrics\4\006b.png",0,0 S,0,19077,,0.6 C,0,19077,,255,255,255 F,0,19077,20757,0,1 MX,0,19077,23744,602.6515,592.6515 MY,0,19077,23744,373.5515 F,0,23244,23744,1,0 MX,29,23324,23824,592.6515,597.6515
Sprite,Foreground,Centre,"sb\lyrics\4\0069.png",0,0 S,0,19077,,0.6 C,0,19077,,255,255,255 F,0,19077,20837,0,1 MX,0,19077,23744,615.8515,605.8515 MY,0,19077,23744,373.5515 F,0,23244,23744,1,0 MX,29,23324,23824,605.8515,610.8515
Sprite,Foreground,Centre,"sb\lyrics\4\006e.png",0,0 S,0,19077,,0.6 C,0,19077,,255,255,255 F,0,19077,20917,0,1 MX,0,19077,23744,629.6515,619.6515 MY,0,19077,23744,376.8515 F,0,23244,23744,1,0 MX,29,23324,23824,619.6515,624.6515
Sprite,Foreground,Centre,"sb\lyrics\4\0067.png",0,0 S,0,19077,,0.6 C,0,19077,,255,255,255 F,0,19077,20997,0,1 MX,0,19077,23744,644.6515,634.6515 MY,0,19077,23744,378.9515 F,0,23244,23744,1,0 MX,29,23324,23824,634.6515,639.6515
Sprite,Foreground,Centre,"sb\lyrics\4\0062.png",0,0 S,0,19077,,0.6 C,0,19077,,255,255,255 F,0,19077,21077,0,1 MX,0,19077,23744,660.2515,650.2515 MY,0,19077,23744,373.5515 F,0,23244,23744,1,0 MX,29,23324,23824,650.2515,655.2515
Sprite,Foreground,Centre,"sb\lyrics\4\0069.png",0,0 S,0,19077,,0.6 C,0,19077,,255,255,255 F,0,19077,21157,0,1 MX,0,19077,23744,673.4515,663.4515 MY,0,19077,23744,373.5515 F,0,23244,23744,1,0 MX,29,23324,23824,663.4515,668.4515
Sprite,Foreground,Centre,"sb\lyrics\4\0072.png",0,0 S,0,19077,,0.6 C,0,19077,,255,255,255 F,0,19077,21237,0,1 MX,0,19077,23744,686.3515,676.3515 MY,0,19077,23744,376.8515 F,0,23244,23744,1,0 MX,29,23324,23824,676.3515,681.3515
Sprite,Foreground,Centre,"sb\lyrics\4\0064.png",0,0 S,0,19077,,0.6 C,0,19077,,255,255,255 F,0,19077,21317,0,1 MX,0,19077,23744,700.1515,690.1515 MY,0,19077,23744,373.8515 F,0,23244,23744,1,0 MX,29,23324,23824,690.1515,695.1515
Sprite,Foreground,Centre,"sb\lyrics\5\0049.png",0,0 F,0,24410,,0,1 S,0,24410,,0.6 C,0,24410,,255,255,255 MX,0,24410,29077,267.5515,257.5515 MY,0,24410,29077,373.5515 F,0,28577,29077,1,0 MX,29,28657,29157,257.5515,262.5515
Sprite,Foreground,Centre,"sb\lyrics\5\0066.png",0,0 S,0,24410,,0.6 C,0,24410,,255,255,255 F,0,24410,24490,0,1 MX,0,24410,29077,281.3515,271.3515 MY,0,24410,29077,373.5515 F,0,28577,29077,1,0 MX,29,28657,29157,271.3515,276.3515
Sprite,Foreground,Centre,"sb\lyrics\5\0074.png",0,0 S,0,24410,,0.6 C,0,24410,,255,255,255 F,0,24410,24570,0,1 MX,0,24410,29077,305.6515,295.6515 MY,0,24410,29077,374.1515 F,0,28577,29077,1,0 MX,29,28657,29157,295.6515,300.6515
Sprite,Foreground,Centre,"sb\lyrics\5\0068.png",0,0 S,0,24410,,0.6 C,0,24410,,255,255,255 F,0,24410,24650,0,1 MX,0,24410,29077,320.3515,310.3515 MY,0,24410,29077,373.5515 F,0,28577,29077,1,0 MX,29,28657,29157,310.3515,315.3515
Sprite,Foreground,Centre,"sb\lyrics\5\0061.png",0,0 S,0,24410,,0.6 C,0,24410,,255,255,255 F,0,24410,24730,0,1 MX,0,24410,29077,336.2515,326.2515 MY,0,24410,29077,376.8515 F,0,28577,29077,1,0 MX,29,28657,29157,326.2515,331.2515
Sprite,Foreground,Centre,"sb\lyrics\5\0074.png",0,0 S,0,24410,,0.6 C,0,24410,,255,255,255 F,0,24410,24810,0,1 MX,0,24410,29077,350.0515,340.0515 MY,0,24410,29077,374.1515 F,0,28577,29077,1,0 MX,29,28657,29157,340.0515,345.0515
Sprite,Foreground,Centre,"sb\lyrics\5\006d.png",0,0 S,0,24410,,0.6 C,0,24410,,255,255,255 F,0,24410,24890,0,1 MX,0,24410,29077,376.4515,366.4515 MY,0,24410,29077,376.8515 F,0,28577,29077,1,0 MX,29,28657,29157,366.4515,371.4515
Sprite,Foreground,Centre,"sb\lyrics\5\006f.png",0,0 S,0,24410,,0.6 C,0,24410,,255,255,255 F,0,24410,24970,0,1 MX,0,24410,29077,392.6515,382.6515 MY,0,24410,29077,376.8515 F,0,28577,29077,1,0 MX,29,28657,29157,382.6515,387.6515
Sprite,Foreground,Centre,"sb\lyrics\5\0063.png",0,0 S,0,24410,,0.6 C,0,24410,,255,255,255 F,0,24410,25050,0,1 MX,0,24410,29077,407.0515,397.0515 MY,0,24410,29077,376.8515 F,0,28577,29077,1,0 MX,29,28657,29157,397.0515,402.0515
Sprite,Foreground,Centre,"sb\lyrics\5\006b.png",0,0 S,0,24410,,0.6 C,0,24410,,255,255,255 F,0,24410,25130,0,1 MX,0,24410,29077,421.7515,411.7515 MY,0,24410,29077,373.5515 F,0,28577,29077,1,0 MX,29,28657,29157,411.7515,416.7515
Sprite,Foreground,Centre,"sb\lyrics\5\0069.png",0,0 S,0,24410,,0.6 C,0,24410,,255,255,255 F,0,24410,25210,0,1 MX,0,24410,29077,434.9515,424.9515 MY,0,24410,29077,373.5515 F,0,28577,29077,1,0 MX,29,28657,29157,424.9515,429.9515
Sprite,Foreground,Centre,"sb\lyrics\5\006e.png",0,0 S,0,24410,,0.6 C,0,24410,,255,255,255 F,0,24410,25290,0,1 MX,0,24410,29077,448.7515,438.7515 MY,0,24410,29077,376.8515 F,0,28577,29077,1,0 MX,29,28657,29157,438.7515,443.7515
Sprite,Foreground,Centre,"sb\lyrics\5\0067.png",0,0 S,0,24410,,0.6 C,0,24410,,255,255,255 F,0,24410,25370,0,1 MX,0,24410,29077,463.7515,453.7515 MY,0,24410,29077,378.9515 F,0,28577,29077,1,0 MX,29,28657,29157,453.7515,458.7515
Sprite,Foreground,Centre,"sb\lyrics\5\0062.png",0,0 S,0,24410,,0.6 C,0,24410,,255,255,255 F,0,24410,25450,0,1 MX,0,24410,29077,479.3515,469.3515 MY,0,24410,29077,373.5515 F,0,28577,29077,1,0 MX,29,28657,29157,469.3515,474.3515
Sprite,Foreground,Centre,"sb\lyrics\5\0069.png",0,0 S,0,24410,,0.6 C,0,24410,,255,255,255 F,0,24410,25530,0,1 MX,0,24410,29077,492.5515,482.5515 MY,0,24410,29077,373.5515 F,0,28577,29077,1,0 MX,29,28657,29157,482.5515,487.5515
Sprite,Foreground,Centre,"sb\lyrics\5\0072.png",0,0 S,0,24410,,0.6 C,0,24410,,255,255,255 F,0,24410,25610,0,1 MX,0,24410,29077,505.4515,495.4515 MY,0,24410,29077,376.8515 F,0,28577,29077,1,0 MX,29,28657,29157,495.4515,500.4515
Sprite,Foreground,Centre,"sb\lyrics\5\0064.png",0,0 S,0,24410,,0.6 C,0,24410,,255,255,255 F,0,24410,25690,0,1 MX,0,24410,29077,519.2515,509.2515 MY,0,24410,29077,373.8515 F,0,28577,29077,1,0 MX,29,28657,29157,509.2515,514.2515
Sprite,Foreground,Centre,"sb\lyrics\5\0077.png",0,0 S,0,24410,,0.6 C,0,24410,,255,255,255 F,0,24410,25770,0,1 MX,0,24410,29077,545.3516,535.3516 MY,0,24410,29077,377.1515 F,0,28577,29077,1,0 MX,29,28657,29157,535.3516,540.3516
Sprite,Foreground,Centre,"sb\lyrics\5\006f.png",0,0 S,0,24410,,0.6 C,0,24410,,255,255,255 F,0,24410,25850,0,1 MX,0,24410,29077,561.2515,551.2515 MY,0,24410,29077,376.8515 F,0,28577,29077,1,0 MX,29,28657,29157,551.2515,556.2515
Sprite,Foreground,Centre,"sb\lyrics\5\006e.png",0,0 S,0,24410,,0.6 C,0,24410,,255,255,255 F,0,24410,25930,0,1 MX,0,24410,29077,575.9515,565.9515 MY,0,24410,29077,376.8515 F,0,28577,29077,1,0 MX,29,28657,29157,565.9515,570.9515
Sprite,Foreground,Centre,"sb\lyrics\5\0027.png",0,0 S,0,24410,,0.6 C,0,24410,,255,255,255 F,0,24410,26010,0,1 MX,0,24410,29077,590.0515,580.0515 MY,0,24410,29077,363.6515 F,0,28577,29077,1,0 MX,29,28657,29157,580.0515,585.0515
Sprite,Foreground,Centre,"sb\lyrics\5\0074.png",0,0 S,0,24410,,0.6 C,0,24410,,255,255,255 F,0,24410,26090,0,1 MX,0,24410,29077,602.6516,592.6516 MY,0,24410,29077,374.1515 F,0,28577,29077,1,0 MX,29,28657,29157,592.6516,597.6516
Sprite,Foreground,Centre,"sb\lyrics\5\0073.png",0,0 S,0,24410,,0.6 C,0,24410,,255,255,255 F,0,24410,26170,0,1 MX,0,24410,29077,626.9515,616.9515 MY,0,24410,29077,376.5515 F,0,28577,29077,1,0 MX,29,28657,29157,616.9515,621.9515
Sprite,Foreground,Centre,"sb\lyrics\5\0069.png",0,0 S,0,24410,,0.6 C,0,24410,,255,255,255 F,0,24410,26250,0,1 MX,0,24410,29077,638.9515,628.9515 MY,0,24410,29077,373.5515 F,0,28577,29077,1,0 MX,29,28657,29157,628.9515,633.9515
Sprite,Foreground,Centre,"sb\lyrics\5\006e.png",0,0 S,0,24410,,0.6 C,0,24410,,255,255,255 F,0,24410,26330,0,1 MX,0,24410,29077,652.7515,642.7515 MY,0,24410,29077,376.8515 F,0,28577,29077,1,0 MX,29,28657,29157,642.7515,647.7515
Sprite,Foreground,Centre,"sb\lyrics\5\0067.png",0,0 S,0,24410,,0.6 C,0,24410,,255,255,255 F,0,24410,26410,0,1 MX,0,24410,29077,667.7515,657.7515 MY,0,24410,29077,378.9515 F,0,28577,29077,1,0 MX,29,28657,29157,657.7515,662.7515
Sprite,Foreground,Centre,"sb\lyrics\6\004d.png",0,0 F,0,29744,,0,1 S,0,29744,,0.6 C,0,29744,,255,255,255 MX,0,29744,34410,233.6514,223.6514 MY,0,29744,34410,373.8515 F,0,33910,34410,1,0 MX,29,33990,34490,223.6514,228.6514
Sprite,Foreground,Centre,"sb\lyrics\6\0061.png",0,0 S,0,29744,,0.6 C,0,29744,,255,255,255 F,0,29744,29824,0,1 MX,0,29744,34410,250.1515,240.1515 MY,0,29744,34410,376.8515 F,0,33910,34410,1,0 MX,29,33990,34490,240.1515,245.1515
Sprite,Foreground,Centre,"sb\lyrics\6\006d.png",0,0 S,0,29744,,0.6 C,0,29744,,255,255,255 F,0,29744,29904,0,1 MX,0,29744,34410,266.3514,256.3514 MY,0,29744,34410,376.8515 F,0,33910,34410,1,0 MX,29,33990,34490,256.3514,261.3514
Sprite,Foreground,Centre,"sb\lyrics\6\0061.png",0,0 S,0,29744,,0.6 C,0,29744,,255,255,255 F,0,29744,29984,0,1 MX,0,29744,34410,282.5515,272.5515 MY,0,29744,34410,376.8515 F,0,33910,34410,1,0 MX,29,33990,34490,272.5515,277.5515
Sprite,Foreground,Centre,"sb\lyrics\6\0027.png",0,0 S,0,29744,,0.6 C,0,29744,,255,255,255 F,0,29744,30064,0,1 MX,0,29744,34410,295.7515,285.7515 MY,0,29744,34410,363.6515 F,0,33910,34410,1,0 MX,29,33990,34490,285.7515,290.7515
Sprite,Foreground,Centre,"sb\lyrics\6\0073.png",0,0 S,0,29744,,0.6 C,0,29744,,255,255,255 F,0,29744,30144,0,1 MX,0,29744,34410,308.6515,298.6515 MY,0,29744,34410,376.5515 F,0,33910,34410,1,0 MX,29,33990,34490,298.6515,303.6515
Sprite,Foreground,Centre,"sb\lyrics\6\0067.png",0,0 S,0,29744,,0.6 C,0,29744,,255,255,255 F,0,29744,30224,0,1 MX,0,29744,34410,332.6515,322.6515 MY,0,29744,34410,378.9515 F,0,33910,34410,1,0 MX,29,33990,34490,322.6515,327.6515
Sprite,Foreground,Centre,"sb\lyrics\6\006f.png",0,0 S,0,29744,,0.6 C,0,29744,,255,255,255 F,0,29744,30304,0,1 MX,0,29744,34410,347.9514,337.9514 MY,0,29744,34410,376.8515 F,0,33910,34410,1,0 MX,29,33990,34490,337.9514,342.9514
Sprite,Foreground,Centre,"sb\lyrics\6\006e.png",0,0 S,0,29744,,0.6 C,0,29744,,255,255,255 F,0,29744,30384,0,1 MX,0,29744,34410,362.6515,352.6515 MY,0,29744,34410,376.8515 F,0,33910,34410,1,0 MX,29,33990,34490,352.6515,357.6515
Sprite,Foreground,Centre,"sb\lyrics\6\006e.png",0,0 S,0,29744,,0.6 C,0,29744,,255,255,255 F,0,29744,30464,0,1 MX,0,29744,34410,378.2515,368.2515 MY,0,29744,34410,376.8515 F,0,33910,34410,1,0 MX,29,33990,34490,368.2515,373.2515
Sprite,Foreground,Centre,"sb\lyrics\6\0061.png",0,0 S,0,29744,,0.6 C,0,29744,,255,255,255 F,0,29744,30544,0,1 MX,0,29744,34410,393.5515,383.5515 MY,0,29744,34410,376.8515 F,0,33910,34410,1,0 MX,29,33990,34490,383.5515,388.5515
Sprite,Foreground,Centre,"sb\lyrics\6\0062.png",0,0 S,0,29744,,0.6 C,0,29744,,255,255,255 F,0,29744,30624,0,1 MX,0,29744,34410,418.4515,408.4515 MY,0,29744,34410,373.5515 F,0,33910,34410,1,0 MX,29,33990,34490,408.4515,413.4515
Sprite,Foreground,Centre,"sb\lyrics\6\0075.png",0,0 S,0,29744,,0.6 C,0,29744,,255,255,255 F,0,29744,30704,0,1 MX,0,29744,34410,433.7515,423.7515 MY,0,29744,34410,377.1515 F,0,33910,34410,1,0 MX,29,33990,34490,423.7515,428.7515
Sprite,Foreground,Centre,"sb\lyrics\6\0079.png",0,0 S,0,29744,,0.6 C,0,29744,,255,255,255 F,0,29744,30784,0,1 MX,0,29744,34410,448.1515,438.1515 MY,0,29744,34410,379.2515 F,0,33910,34410,1,0 MX,29,33990,34490,438.1515,443.1515
Sprite,Foreground,Centre,"sb\lyrics\6\0079.png",0,0 S,0,29744,,0.6 C,0,29744,,255,255,255 F,0,29744,30864,0,1 MX,0,29744,34410,472.1515,462.1515 MY,0,29744,34410,379.2515 F,0,33910,34410,1,0 MX,29,33990,34490,462.1515,467.1515
Sprite,Foreground,Centre,"sb\lyrics\6\006f.png",0,0 S,0,29744,,0.6 C,0,29744,,255,255,255 F,0,29744,30944,0,1 MX,0,29744,34410,486.5515,476.5515 MY,0,29744,34410,376.8515 F,0,33910,34410,1,0 MX,29,33990,34490,476.5515,481.5515
Sprite,Foreground,Centre,"sb\lyrics\6\0075.png",0,0 S,0,29744,,0.6 C,0,29744,,255,255,255 F,0,29744,31024,0,1 MX,0,29744,34410,500.9514,490.9514 MY,0,29744,34410,377.1515 F,0,33910,34410,1,0 MX,29,33990,34490,490.9514,495.9514
Sprite,Foreground,Centre,"sb\lyrics\6\0061.png",0,0 S,0,29744,,0.6 C,0,29744,,255,255,255 F,0,29744,31104,0,1 MX,0,29744,34410,526.1515,516.1515 MY,0,29744,34410,376.8515 F,0,33910,34410,1,0 MX,29,33990,34490,516.1515,521.1515
Sprite,Foreground,Centre,"sb\lyrics\6\0064.png",0,0 S,0,29744,,0.6 C,0,29744,,255,255,255 F,0,29744,31184,0,1 MX,0,29744,34410,550.7515,540.7515 MY,0,29744,34410,373.8515 F,0,33910,34410,1,0 MX,29,33990,34490,540.7515,545.7515
Sprite,Foreground,Centre,"sb\lyrics\6\0069.png",0,0 S,0,29744,,0.6 C,0,29744,,255,255,255 F,0,29744,31264,0,1 MX,0,29744,34410,563.6515,553.6515 MY,0,29744,34410,373.5515 F,0,33910,34410,1,0 MX,29,33990,34490,553.6515,558.6515
Sprite,Foreground,Centre,"sb\lyrics\6\0061.png",0,0 S,0,29744,,0.6 C,0,29744,,255,255,255 F,0,29744,31344,0,1 MX,0,29744,34410,577.1515,567.1515 MY,0,29744,34410,376.8515 F,0,33910,34410,1,0 MX,29,33990,34490,567.1515,572.1515
Sprite,Foreground,Centre,"sb\lyrics\6\006d.png",0,0 S,0,29744,,0.6 C,0,29744,,255,255,255 F,0,29744,31424,0,1 MX,0,29744,34410,593.3515,583.3515 MY,0,29744,34410,376.8515 F,0,33910,34410,1,0 MX,29,33990,34490,583.3515,588.3515
Sprite,Foreground,Centre,"sb\lyrics\6\006f.png",0,0 S,0,29744,,0.6 C,0,29744,,255,255,255 F,0,29744,31504,0,1 MX,0,29744,34410,609.5515,599.5515 MY,0,29744,34410,376.8515 F,0,33910,34410,1,0 MX,29,33990,34490,599.5515,604.5515
Sprite,Foreground,Centre,"sb\lyrics\6\006e.png",0,0 S,0,29744,,0.6 C,0,29744,,255,255,255 F,0,29744,31584,0,1 MX,0,29744,34410,624.2515,614.2515 MY,0,29744,34410,376.8515 F,0,33910,34410,1,0 MX,29,33990,34490,614.2515,619.2515
Sprite,Foreground,Centre,"sb\lyrics\6\0064.png",0,0 S,0,29744,,0.6 C,0,29744,,255,255,255 F,0,29744,31664,0,1 MX,0,29744,34410,639.5515,629.5515 MY,0,29744,34410,373.8515 F,0,33910,34410,1,0 MX,29,33990,34490,629.5515,634.5515
Sprite,Foreground,Centre,"sb\lyrics\6\0072.png",0,0 S,0,29744,,0.6 C,0,29744,,255,255,255 F,0,29744,31744,0,1 MX,0,29744,34410,664.1516,654.1516 MY,0,29744,34410,376.8515 F,0,33910,34410,1,0 MX,29,33990,34490,654.1516,659.1516
Sprite,Foreground,Centre,"sb\lyrics\6\0069.png",0,0 S,0,29744,,0.6 C,0,29744,,255,255,255 F,0,29744,31824,0,1 MX,0,29744,34410,675.8516,665.8516 MY,0,29744,34410,373.5515 F,0,33910,34410,1,0 MX,29,33990,34490,665.8516,670.8516
Sprite,Foreground,Centre,"sb\lyrics\6\006e.png",0,0 S,0,29744,,0.6 C,0,29744,,255,255,255 F,0,29744,31904,0,1 MX,0,29744,34410,689.6516,679.6516 MY,0,29744,34410,376.8515 F,0,33910,34410,1,0 MX,29,33990,34490,679.6516,684.6516
Sprite,Foreground,Centre,"sb\lyrics\6\0067.png",0,0 S,0,29744,,0.6 C,0,29744,,255,255,255 F,0,29744,31984,0,1 MX,0,29744,34410,704.6516,694.6516 MY,0,29744,34410,378.9515 F,0,33910,34410,1,0 MX,29,33990,34490,694.6516,699.6516
Sprite,Foreground,Centre,"sb\lyrics\7\0049.png",0,0 F,0,56410,,0,1 S,0,56410,,0.6 C,0,56410,,255,255,255 MX,0,56410,61077,255.8515,245.8515 MY,0,56410,61077,373.5515 F,0,60577,61077,1,0 MX,29,60657,61157,245.8515,250.8515
Sprite,Foreground,Centre,"sb\lyrics\7\0066.png",0,0 S,0,56410,,0.6 C,0,56410,,255,255,255 F,0,56410,56490,0,1 MX,0,56410,61077,269.6515,259.6515 MY,0,56410,61077,373.5515 F,0,60577,61077,1,0 MX,29,60657,61157,259.6515,264.6515
Sprite,Foreground,Centre,"sb\lyrics\7\0074.png",0,0 S,0,56410,,0.6 C,0,56410,,255,255,255 F,0,56410,56570,0,1 MX,0,56410,61077,293.9515,283.9515 MY,0,56410,61077,374.1515 F,0,60577,61077,1,0 MX,29,60657,61157,283.9515,288.9515
Sprite,Foreground,Centre,"sb\lyrics\7\0068.png",0,0 S,0,56410,,0.6 C,0,56410,,255,255,255 F,0,56410,56650,0,1 MX,0,56410,61077,308.6515,298.6515 MY,0,56410,61077,373.5515 F,0,60577,61077,1,0 MX,29,60657,61157,298.6515,303.6515
Sprite,Foreground,Centre,"sb\lyrics\7\0061.png",0,0 S,0,56410,,0.6 C,0,56410,,255,255,255 F,0,56410,56730,0,1 MX,0,56410,61077,324.5515,314.5515 MY,0,56410,61077,376.8515 F,0,60577,61077,1,0 MX,29,60657,61157,314.5515,319.5515
Sprite,Foreground,Centre,"sb\lyrics\7\0074.png",0,0 S,0,56410,,0.6 C,0,56410,,255,255,255 F,0,56410,56810,0,1 MX,0,56410,61077,338.3515,328.3515 MY,0,56410,61077,374.1515 F,0,60577,61077,1,0 MX,29,60657,61157,328.3515,333.3515
Sprite,Foreground,Centre,"sb\lyrics\7\0064.png",0,0 S,0,56410,,0.6 C,0,56410,,255,255,255 F,0,56410,56890,0,1 MX,0,56410,61077,362.9515,352.9515 MY,0,56410,61077,373.8515 F,0,60577,61077,1,0 MX,29,60657,61157,352.9515,357.9515
Sprite,Foreground,Centre,"sb\lyrics\7\0069.png",0,0 S,0,56410,,0.6 C,0,56410,,255,255,255 F,0,56410,56970,0,1 MX,0,56410,61077,375.8515,365.8515 MY,0,56410,61077,373.5515 F,0,60577,61077,1,0 MX,29,60657,61157,365.8515,370.8515
Sprite,Foreground,Centre,"sb\lyrics\7\0061.png",0,0 S,0,56410,,0.6 C,0,56410,,255,255,255 F,0,56410,57050,0,1 MX,0,56410,61077,389.3515,379.3515 MY,0,56410,61077,376.8515 F,0,60577,61077,1,0 MX,29,60657,61157,379.3515,384.3515
Sprite,Foreground,Centre,"sb\lyrics\7\006d.png",0,0 S,0,56410,,0.6 C,0,56410,,255,255,255 F,0,56410,57130,0,1 MX,0,56410,61077,405.5515,395.5515 MY,0,56410,61077,376.8515 F,0,60577,61077,1,0 MX,29,60657,61157,395.5515,400.5515
Sprite,Foreground,Centre,"sb\lyrics\7\006f.png",0,0 S,0,56410,,0.6 C,0,56410,,255,255,255 F,0,56410,57210,0,1 MX,0,56410,61077,421.7515,411.7515 MY,0,56410,61077,376.8515 F,0,60577,61077,1,0 MX,29,60657,61157,411.7515,416.7515
Sprite,Foreground,Centre,"sb\lyrics\7\006e.png",0,0 S,0,56410,,0.6 C,0,56410,,255,255,255 F,0,56410,57290,0,1 MX,0,56410,61077,436.4515,426.4515 MY,0,56410,61077,376.8515 F,0,60577,61077,1,0 MX,29,60657,61157,426.4515,431.4515
Sprite,Foreground,Centre,"sb\lyrics\7\0064.png",0,0 S,0,56410,,0.6 C,0,56410,,255,255,255 F,0,56410,57370,0,1 MX,0,56410,61077,451.7515,441.7515 MY,0,56410,61077,373.8515 F,0,60577,61077,1,0 MX,29,60657,61157,441.7515,446.7515
Sprite,Foreground,Centre,"sb\lyrics\7\0072.png",0,0 S,0,56410,,0.6 C,0,56410,,255,255,255 F,0,56410,57450,0,1 MX,0,56410,61077,476.3515,466.3515 MY,0,56410,61077,376.8515 F,0,60577,61077,1,0 MX,29,60657,61157,466.3515,471.3515
Sprite,Foreground,Centre,"sb\lyrics\7\0069.png",0,0 S,0,56410,,0.6 C,0,56410,,255,255,255 F,0,56410,57530,0,1 MX,0,56410,61077,488.0515,478.0515 MY,0,56410,61077,373.5515 F,0,60577,61077,1,0 MX,29,60657,61157,478.0515,483.0515
Sprite,Foreground,Centre,"sb\lyrics\7\006e.png",0,0 S,0,56410,,0.6 C,0,56410,,255,255,255 F,0,56410,57610,0,1 MX,0,56410,61077,501.8515,491.8515 MY,0,56410,61077,376.8515 F,0,60577,61077,1,0 MX,29,60657,61157,491.8515,496.8515
Sprite,Foreground,Centre,"sb\lyrics\7\0067.png",0,0 S,0,56410,,0.6 C,0,56410,,255,255,255 F,0,56410,57690,0,1 MX,0,56410,61077,516.8515,506.8515 MY,0,56410,61077,378.9515 F,0,60577,61077,1,0 MX,29,60657,61157,506.8515,511.8515
Sprite,Foreground,Centre,"sb\lyrics\7\0074.png",0,0 S,0,56410,,0.6 C,0,56410,,255,255,255 F,0,56410,57770,0,1 MX,0,56410,61077,541.7515,531.7515 MY,0,56410,61077,374.1515 F,0,60577,61077,1,0 MX,29,60657,61157,531.7515,536.7515
Sprite,Foreground,Centre,"sb\lyrics\7\0075.png",0,0 S,0,56410,,0.6 C,0,56410,,255,255,255 F,0,56410,57850,0,1 MX,0,56410,61077,556.1515,546.1515 MY,0,56410,61077,377.1515 F,0,60577,61077,1,0 MX,29,60657,61157,546.1515,551.1515
Sprite,Foreground,Centre,"sb\lyrics\7\0072.png",0,0 S,0,56410,,0.6 C,0,56410,,255,255,255 F,0,56410,57930,0,1 MX,0,56410,61077,570.5515,560.5515 MY,0,56410,61077,376.8515 F,0,60577,61077,1,0 MX,29,60657,61157,560.5515,565.5515
Sprite,Foreground,Centre,"sb\lyrics\7\006e.png",0,0 S,0,56410,,0.6 C,0,56410,,255,255,255 F,0,56410,58010,0,1 MX,0,56410,61077,584.6515,574.6515 MY,0,56410,61077,376.8515 F,0,60577,61077,1,0 MX,29,60657,61157,574.6515,579.6515
Sprite,Foreground,Centre,"sb\lyrics\7\0073.png",0,0 S,0,56410,,0.6 C,0,56410,,255,255,255 F,0,56410,58090,0,1 MX,0,56410,61077,599.6515,589.6515 MY,0,56410,61077,376.5515 F,0,60577,61077,1,0 MX,29,60657,61157,589.6515,594.6515
Sprite,Foreground,Centre,"sb\lyrics\7\0062.png",0,0 S,0,56410,,0.6 C,0,56410,,255,255,255 F,0,56410,58170,0,1 MX,0,56410,61077,624.2515,614.2515 MY,0,56410,61077,373.5515 F,0,60577,61077,1,0 MX,29,60657,61157,614.2515,619.2515
Sprite,Foreground,Centre,"sb\lyrics\7\0072.png",0,0 S,0,56410,,0.6 C,0,56410,,255,255,255 F,0,56410,58250,0,1 MX,0,56410,61077,638.9515,628.9515 MY,0,56410,61077,376.8515 F,0,60577,61077,1,0 MX,29,60657,61157,628.9515,633.9515
Sprite,Foreground,Centre,"sb\lyrics\7\0061.png",0,0 S,0,56410,,0.6 C,0,56410,,255,255,255 F,0,56410,58330,0,1 MX,0,56410,61077,652.7515,642.7515 MY,0,56410,61077,376.8515 F,0,60577,61077,1,0 MX,29,60657,61157,642.7515,647.7515
Sprite,Foreground,Centre,"sb\lyrics\7\0073.png",0,0 S,0,56410,,0.6 C,0,56410,,255,255,255 F,0,56410,58410,0,1 MX,0,56410,61077,666.8515,656.8515 MY,0,56410,61077,376.5515 F,0,60577,61077,1,0 MX,29,60657,61157,656.8515,661.8515
Sprite,Foreground,Centre,"sb\lyrics\7\0073.png",0,0 S,0,56410,,0.6 C,0,56410,,255,255,255 F,0,56410,58490,0,1 MX,0,56410,61077,680.6515,670.6515 MY,0,56410,61077,376.5515 F,0,60577,61077,1,0 MX,29,60657,61157,670.6515,675.6515
Sprite,Foreground,Centre,"sb\lyrics\8\004d.png",0,0 F,0,61744,,0,1 S,0,61744,,0.6 C,0,61744,,255,255,255 MX,0,61744,66410,230.3515,220.3515 MY,0,61744,66410,373.8515 F,0,65910,66410,1,0 MX,29,65990,66490,220.3515,225.3515
Sprite,Foreground,Centre,"sb\lyrics\8\0061.png",0,0 S,0,61744,,0.6 C,0,61744,,255,255,255 F,0,61744,61824,0,1 MX,0,61744,66410,246.8515,236.8515 MY,0,61744,66410,376.8515 F,0,65910,66410,1,0 MX,29,65990,66490,236.8515,241.8515
Sprite,Foreground,Centre,"sb\lyrics\8\006d.png",0,0 S,0,61744,,0.6 C,0,61744,,255,255,255 F,0,61744,61904,0,1 MX,0,61744,66410,263.0515,253.0515 MY,0,61744,66410,376.8515 F,0,65910,66410,1,0 MX,29,65990,66490,253.0515,258.0515
Sprite,Foreground,Centre,"sb\lyrics\8\0061.png",0,0 S,0,61744,,0.6 C,0,61744,,255,255,255 F,0,61744,61984,0,1 MX,0,61744,66410,279.2515,269.2515 MY,0,61744,66410,376.8515 F,0,65910,66410,1,0 MX,29,65990,66490,269.2515,274.2515
Sprite,Foreground,Centre,"sb\lyrics\8\0027.png",0,0 S,0,61744,,0.6 C,0,61744,,255,255,255 F,0,61744,62064,0,1 MX,0,61744,66410,292.4515,282.4515 MY,0,61744,66410,363.6515 F,0,65910,66410,1,0 MX,29,65990,66490,282.4515,287.4515
Sprite,Foreground,Centre,"sb\lyrics\8\0073.png",0,0 S,0,61744,,0.6 C,0,61744,,255,255,255 F,0,61744,62144,0,1 MX,0,61744,66410,305.3515,295.3515 MY,0,61744,66410,376.5515 F,0,65910,66410,1,0 MX,29,65990,66490,295.3515,300.3515
Sprite,Foreground,Centre,"sb\lyrics\8\0067.png",0,0 S,0,61744,,0.6 C,0,61744,,255,255,255 F,0,61744,62224,0,1 MX,0,61744,66410,329.3515,319.3515 MY,0,61744,66410,378.9515 F,0,65910,66410,1,0 MX,29,65990,66490,319.3515,324.3515
Sprite,Foreground,Centre,"sb\lyrics\8\006f.png",0,0 S,0,61744,,0.6 C,0,61744,,255,255,255 F,0,61744,62304,0,1 MX,0,61744,66410,344.6515,334.6515 MY,0,61744,66410,376.8515 F,0,65910,66410,1,0 MX,29,65990,66490,334.6515,339.6515
Sprite,Foreground,Centre,"sb\lyrics\8\006e.png",0,0 S,0,61744,,0.6 C,0,61744,,255,255,255 F,0,61744,62384,0,1 MX,0,61744,66410,359.3515,349.3515 MY,0,61744,66410,376.8515 F,0,65910,66410,1,0 MX,29,65990,66490,349.3515,354.3515
Sprite,Foreground,Centre,"sb\lyrics\8\006e.png",0,0 S,0,61744,,0.6 C,0,61744,,255,255,255 F,0,61744,62464,0,1 MX,0,61744,66410,374.9515,364.9515 MY,0,61744,66410,376.8515 F,0,65910,66410,1,0 MX,29,65990,66490,364.9515,369.9515
Sprite,Foreground,Centre,"sb\lyrics\8\0061.png",0,0 S,0,61744,,0.6 C,0,61744,,255,255,255 F,0,61744,62544,0,1 MX,0,61744,66410,390.2515,380.2515 MY,0,61744,66410,376.8515 F,0,65910,66410,1,0 MX,29,65990,66490,380.2515,385.2515
Sprite,Foreground,Centre,"sb\lyrics\8\0062.png",0,0 S,0,61744,,0.6 C,0,61744,,255,255,255 F,0,61744,62624,0,1 MX,0,61744,66410,415.1515,405.1515 MY,0,61744,66410,373.5515 F,0,65910,66410,1,0 MX,29,65990,66490,405.1515,410.1515
Sprite,Foreground,Centre,"sb\lyrics\8\0075.png",0,0 S,0,61744,,0.6 C,0,61744,,255,255,255 F,0,61744,62704,0,1 MX,0,61744,66410,430.4515,420.4515 MY,0,61744,66410,377.1515 F,0,65910,66410,1,0 MX,29,65990,66490,420.4515,425.4515
Sprite,Foreground,Centre,"sb\lyrics\8\0079.png",0,0 S,0,61744,,0.6 C,0,61744,,255,255,255 F,0,61744,62784,0,1 MX,0,61744,66410,444.8515,434.8515 MY,0,61744,66410,379.2515 F,0,65910,66410,1,0 MX,29,65990,66490,434.8515,439.8515
Sprite,Foreground,Centre,"sb\lyrics\8\0079.png",0,0 S,0,61744,,0.6 C,0,61744,,255,255,255 F,0,61744,62864,0,1 MX,0,61744,66410,468.8515,458.8515 MY,0,61744,66410,379.2515 F,0,65910,66410,1,0 MX,29,65990,66490,458.8515,463.8515
Sprite,Foreground,Centre,"sb\lyrics\8\006f.png",0,0 S,0,61744,,0.6 C,0,61744,,255,255,255 F,0,61744,62944,0,1 MX,0,61744,66410,483.2515,473.2515 MY,0,61744,66410,376.8515 F,0,65910,66410,1,0 MX,29,65990,66490,473.2515,478.2515
Sprite,Foreground,Centre,"sb\lyrics\8\0075.png",0,0 S,0,61744,,0.6 C,0,61744,,255,255,255 F,0,61744,63024,0,1 MX,0,61744,66410,497.6515,487.6515 MY,0,61744,66410,377.1515 F,0,65910,66410,1,0 MX,29,65990,66490,487.6515,492.6515
Sprite,Foreground,Centre,"sb\lyrics\8\0061.png",0,0 S,0,61744,,0.6 C,0,61744,,255,255,255 F,0,61744,63104,0,1 MX,0,61744,66410,522.8515,512.8515 MY,0,61744,66410,376.8515 F,0,65910,66410,1,0 MX,29,65990,66490,512.8515,517.8515
Sprite,Foreground,Centre,"sb\lyrics\8\006c.png",0,0 S,0,61744,,0.6 C,0,61744,,255,255,255 F,0,61744,63184,0,1 MX,0,61744,66410,545.3515,535.3515 MY,0,61744,66410,373.5515 F,0,65910,66410,1,0 MX,29,65990,66490,535.3515,540.3515
Sprite,Foreground,Centre,"sb\lyrics\8\006f.png",0,0 S,0,61744,,0.6 C,0,61744,,255,255,255 F,0,61744,63264,0,1 MX,0,61744,66410,558.2515,548.2515 MY,0,61744,66410,376.8515 F,0,65910,66410,1,0 MX,29,65990,66490,548.2515,553.2515
Sprite,Foreground,Centre,"sb\lyrics\8\006f.png",0,0 S,0,61744,,0.6 C,0,61744,,255,255,255 F,0,61744,63344,0,1 MX,0,61744,66410,572.6515,562.6515 MY,0,61744,66410,376.8515 F,0,65910,66410,1,0 MX,29,65990,66490,562.6515,567.6515
Sprite,Foreground,Centre,"sb\lyrics\8\006b.png",0,0 S,0,61744,,0.6 C,0,61744,,255,255,255 F,0,61744,63424,0,1 MX,0,61744,66410,587.9515,577.9515 MY,0,61744,66410,373.5515 F,0,65910,66410,1,0 MX,29,65990,66490,577.9515,582.9515
Sprite,Foreground,Centre,"sb\lyrics\8\0069.png",0,0 S,0,61744,,0.6 C,0,61744,,255,255,255 F,0,61744,63504,0,1 MX,0,61744,66410,601.1516,591.1516 MY,0,61744,66410,373.5515 F,0,65910,66410,1,0 MX,29,65990,66490,591.1516,596.1516
Sprite,Foreground,Centre,"sb\lyrics\8\006e.png",0,0 S,0,61744,,0.6 C,0,61744,,255,255,255 F,0,61744,63584,0,1 MX,0,61744,66410,614.9515,604.9515 MY,0,61744,66410,376.8515 F,0,65910,66410,1,0 MX,29,65990,66490,604.9515,609.9515
Sprite,Foreground,Centre,"sb\lyrics\8\0067.png",0,0 S,0,61744,,0.6 C,0,61744,,255,255,255 F,0,61744,63664,0,1 MX,0,61744,66410,629.9515,619.9515 MY,0,61744,66410,378.9515 F,0,65910,66410,1,0 MX,29,65990,66490,619.9515,624.9515
Sprite,Foreground,Centre,"sb\lyrics\8\0067.png",0,0 S,0,61744,,0.6 C,0,61744,,255,255,255 F,0,61744,63744,0,1 MX,0,61744,66410,655.1516,645.1516 MY,0,61744,66410,378.9515 F,0,65910,66410,1,0 MX,29,65990,66490,645.1516,650.1516
Sprite,Foreground,Centre,"sb\lyrics\8\006c.png",0,0 S,0,61744,,0.6 C,0,61744,,255,255,255 F,0,61744,63824,0,1 MX,0,61744,66410,668.3516,658.3516 MY,0,61744,66410,373.5515 F,0,65910,66410,1,0 MX,29,65990,66490,658.3516,663.3516
Sprite,Foreground,Centre,"sb\lyrics\8\0061.png",0,0 S,0,61744,,0.6 C,0,61744,,255,255,255 F,0,61744,63904,0,1 MX,0,61744,66410,681.2515,671.2515 MY,0,61744,66410,376.8515 F,0,65910,66410,1,0 MX,29,65990,66490,671.2515,676.2515
Sprite,Foreground,Centre,"sb\lyrics\8\0073.png",0,0 S,0,61744,,0.6 C,0,61744,,255,255,255 F,0,61744,63984,0,1 MX,0,61744,66410,695.3516,685.3516 MY,0,61744,66410,376.5515 F,0,65910,66410,1,0 MX,29,65990,66490,685.3516,690.3516
Sprite,Foreground,Centre,"sb\lyrics\8\0073.png",0,0 S,0,61744,,0.6 C,0,61744,,255,255,255 F,0,61744,64064,0,1 MX,0,61744,66410,709.1516,699.1516 MY,0,61744,66410,376.5515 F,0,65910,66410,1,0 MX,29,65990,66490,699.1516,704.1516
Sprite,Foreground,Centre,"sb\lyrics\9\0049.png",0,0 F,0,67077,,0,1 S,0,67077,,0.6 C,0,67077,,255,255,255 MX,0,67077,71744,258.2515,248.2515 MY,0,67077,71744,373.5515 F,0,71244,71744,1,0 MX,29,71324,71824,248.2515,253.2515
Sprite,Foreground,Centre,"sb\lyrics\9\0066.png",0,0 S,0,67077,,0.6 C,0,67077,,255,255,255 F,0,67077,67157,0,1 MX,0,67077,71744,272.0515,262.0515 MY,0,67077,71744,373.5515 F,0,71244,71744,1,0 MX,29,71324,71824,262.0515,267.0515
Sprite,Foreground,Centre,"sb\lyrics\9\0074.png",0,0 S,0,67077,,0.6 C,0,67077,,255,255,255 F,0,67077,67237,0,1 MX,0,67077,71744,296.3515,286.3515 MY,0,67077,71744,374.1515 F,0,71244,71744,1,0 MX,29,71324,71824,286.3515,291.3515
Sprite,Foreground,Centre,"sb\lyrics\9\0068.png",0,0 S,0,67077,,0.6 C,0,67077,,255,255,255 F,0,67077,67317,0,1 MX,0,67077,71744,311.0515,301.0515 MY,0,67077,71744,373.5515 F,0,71244,71744,1,0 MX,29,71324,71824,301.0515,306.0515
Sprite,Foreground,Centre,"sb\lyrics\9\0061.png",0,0 S,0,67077,,0.6 C,0,67077,,255,255,255 F,0,67077,67397,0,1 MX,0,67077,71744,326.9515,316.9515 MY,0,67077,71744,376.8515 F,0,71244,71744,1,0 MX,29,71324,71824,316.9515,321.9515
Sprite,Foreground,Centre,"sb\lyrics\9\0074.png",0,0 S,0,67077,,0.6 C,0,67077,,255,255,255 F,0,67077,67477,0,1 MX,0,67077,71744,340.7515,330.7515 MY,0,67077,71744,374.1515 F,0,71244,71744,1,0 MX,29,71324,71824,330.7515,335.7515
Sprite,Foreground,Centre,"sb\lyrics\9\006c.png",0,0 S,0,67077,,0.6 C,0,67077,,255,255,255 F,0,67077,67557,0,1 MX,0,67077,71744,363.2515,353.2515 MY,0,67077,71744,373.5515 F,0,71244,71744,1,0 MX,29,71324,71824,353.2515,358.2515
Sprite,Foreground,Centre,"sb\lyrics\9\006f.png",0,0 S,0,67077,,0.6 C,0,67077,,255,255,255 F,0,67077,67637,0,1 MX,0,67077,71744,376.1515,366.1515 MY,0,67077,71744,376.8515 F,0,71244,71744,1,0 MX,29,71324,71824,366.1515,371.1515
Sprite,Foreground,Centre,"sb\lyrics\9\006f.png",0,0 S,0,67077,,0.6 C,0,67077,,255,255,255 F,0,67077,67717,0,1 MX,0,67077,71744,390.5515,380.5515 MY,0,67077,71744,376.8515 F,0,71244,71744,1,0 MX,29,71324,71824,380.5515,385.5515
Sprite,Foreground,Centre,"sb\lyrics\9\006b.png",0,0 S,0,67077,,0.6 C,0,67077,,255,255,255 F,0,67077,67797,0,1 MX,0,67077,71744,405.8514,395.8514 MY,0,67077,71744,373.5515 F,0,71244,71744,1,0 MX,29,71324,71824,395.8514,400.8514
Sprite,Foreground,Centre,"sb\lyrics\9\0069.png",0,0 S,0,67077,,0.6 C,0,67077,,255,255,255 F,0,67077,67877,0,1 MX,0,67077,71744,419.0515,409.0515 MY,0,67077,71744,373.5515 F,0,71244,71744,1,0 MX,29,71324,71824,409.0515,414.0515
Sprite,Foreground,Centre,"sb\lyrics\9\006e.png",0,0 S,0,67077,,0.6 C,0,67077,,255,255,255 F,0,67077,67957,0,1 MX,0,67077,71744,432.8515,422.8515 MY,0,67077,71744,376.8515 F,0,71244,71744,1,0 MX,29,71324,71824,422.8515,427.8515
Sprite,Foreground,Centre,"sb\lyrics\9\0067.png",0,0 S,0,67077,,0.6 C,0,67077,,255,255,255 F,0,67077,68037,0,1 MX,0,67077,71744,447.8515,437.8515 MY,0,67077,71744,378.9515 F,0,71244,71744,1,0 MX,29,71324,71824,437.8515,442.8515
Sprite,Foreground,Centre,"sb\lyrics\9\0067.png",0,0 S,0,67077,,0.6 C,0,67077,,255,255,255 F,0,67077,68117,0,1 MX,0,67077,71744,473.0515,463.0515 MY,0,67077,71744,378.9515 F,0,71244,71744,1,0 MX,29,71324,71824,463.0515,468.0515
Sprite,Foreground,Centre,"sb\lyrics\9\006c.png",0,0 S,0,67077,,0.6 C,0,67077,,255,255,255 F,0,67077,68197,0,1 MX,0,67077,71744,486.2515,476.2515 MY,0,67077,71744,373.5515 F,0,71244,71744,1,0 MX,29,71324,71824,476.2515,481.2515
Sprite,Foreground,Centre,"sb\lyrics\9\0061.png",0,0 S,0,67077,,0.6 C,0,67077,,255,255,255 F,0,67077,68277,0,1 MX,0,67077,71744,499.1515,489.1515 MY,0,67077,71744,376.8515 F,0,71244,71744,1,0 MX,29,71324,71824,489.1515,494.1515
Sprite,Foreground,Centre,"sb\lyrics\9\0073.png",0,0 S,0,67077,,0.6 C,0,67077,,255,255,255 F,0,67077,68357,0,1 MX,0,67077,71744,513.2515,503.2515 MY,0,67077,71744,376.5515 F,0,71244,71744,1,0 MX,29,71324,71824,503.2515,508.2515
Sprite,Foreground,Centre,"sb\lyrics\9\0073.png",0,0 S,0,67077,,0.6 C,0,67077,,255,255,255 F,0,67077,68437,0,1 MX,0,67077,71744,527.0515,517.0515 MY,0,67077,71744,376.5515 F,0,71244,71744,1,0 MX,29,71324,71824,517.0515,522.0515
Sprite,Foreground,Centre,"sb\lyrics\9\0067.png",0,0 S,0,67077,,0.6 C,0,67077,,255,255,255 F,0,67077,68517,0,1 MX,0,67077,71744,551.0515,541.0515 MY,0,67077,71744,378.9515 F,0,71244,71744,1,0 MX,29,71324,71824,541.0515,546.0515
Sprite,Foreground,Centre,"sb\lyrics\9\0065.png",0,0 S,0,67077,,0.6 C,0,67077,,255,255,255 F,0,67077,68597,0,1 MX,0,67077,71744,566.3514,556.3514 MY,0,67077,71744,376.8515 F,0,71244,71744,1,0 MX,29,71324,71824,556.3514,561.3514
Sprite,Foreground,Centre,"sb\lyrics\9\0074.png",0,0 S,0,67077,,0.6 C,0,67077,,255,255,255 F,0,67077,68677,0,1 MX,0,67077,71744,580.1515,570.1515 MY,0,67077,71744,374.1515 F,0,71244,71744,1,0 MX,29,71324,71824,570.1515,575.1515
Sprite,Foreground,Centre,"sb\lyrics\9\0073.png",0,0 S,0,67077,,0.6 C,0,67077,,255,255,255 F,0,67077,68757,0,1 MX,0,67077,71744,594.2515,584.2515 MY,0,67077,71744,376.5515 F,0,71244,71744,1,0 MX,29,71324,71824,584.2515,589.2515
Sprite,Foreground,Centre,"sb\lyrics\9\0062.png",0,0 S,0,67077,,0.6 C,0,67077,,255,255,255 F,0,67077,68837,0,1 MX,0,67077,71744,618.8514,608.8514 MY,0,67077,71744,373.5515 F,0,71244,71744,1,0 MX,29,71324,71824,608.8514,613.8514
Sprite,Foreground,Centre,"sb\lyrics\9\0072.png",0,0 S,0,67077,,0.6 C,0,67077,,255,255,255 F,0,67077,68917,0,1 MX,0,67077,71744,633.5515,623.5515 MY,0,67077,71744,376.8515 F,0,71244,71744,1,0 MX,29,71324,71824,623.5515,628.5515
Sprite,Foreground,Centre,"sb\lyrics\9\006f.png",0,0 S,0,67077,,0.6 C,0,67077,,255,255,255 F,0,67077,68997,0,1 MX,0,67077,71744,647.3514,637.3514 MY,0,67077,71744,376.8515 F,0,71244,71744,1,0 MX,29,71324,71824,637.3514,642.3514
Sprite,Foreground,Centre,"sb\lyrics\9\006b.png",0,0 S,0,67077,,0.6 C,0,67077,,255,255,255 F,0,67077,69077,0,1 MX,0,67077,71744,662.6515,652.6515 MY,0,67077,71744,373.5515 F,0,71244,71744,1,0 MX,29,71324,71824,652.6515,657.6515
Sprite,Foreground,Centre,"sb\lyrics\9\0065.png",0,0 S,0,67077,,0.6 C,0,67077,,255,255,255 F,0,67077,69157,0,1 MX,0,67077,71744,677.9515,667.9515 MY,0,67077,71744,376.8515 F,0,71244,71744,1,0 MX,29,71324,71824,667.9515,672.9515
Sprite,Foreground,Centre,"sb\lyrics\10\004d.png",0,0 F,0,72410,,0,1 S,0,72410,,0.6 C,0,72410,,255,255,255 MX,0,72410,77077,244.1515,234.1515 MY,0,72410,77077,373.8515 F,0,76577,77077,1,0 MX,29,76657,77157,234.1515,239.1515
Sprite,Foreground,Centre,"sb\lyrics\10\0061.png",0,0 S,0,72410,,0.6 C,0,72410,,255,255,255 F,0,72410,72490,0,1 MX,0,72410,77077,260.6515,250.6515 MY,0,72410,77077,376.8515 F,0,76577,77077,1,0 MX,29,76657,77157,250.6515,255.6515
Sprite,Foreground,Centre,"sb\lyrics\10\006d.png",0,0 S,0,72410,,0.6 C,0,72410,,255,255,255 F,0,72410,72570,0,1 MX,0,72410,77077,276.8515,266.8515 MY,0,72410,77077,376.8515 F,0,76577,77077,1,0 MX,29,76657,77157,266.8515,271.8515
Sprite,Foreground,Centre,"sb\lyrics\10\0061.png",0,0 S,0,72410,,0.6 C,0,72410,,255,255,255 F,0,72410,72650,0,1 MX,0,72410,77077,293.0515,283.0515 MY,0,72410,77077,376.8515 F,0,76577,77077,1,0 MX,29,76657,77157,283.0515,288.0515
Sprite,Foreground,Centre,"sb\lyrics\10\0027.png",0,0 S,0,72410,,0.6 C,0,72410,,255,255,255 F,0,72410,72730,0,1 MX,0,72410,77077,306.2515,296.2515 MY,0,72410,77077,363.6515 F,0,76577,77077,1,0 MX,29,76657,77157,296.2515,301.2515
Sprite,Foreground,Centre,"sb\lyrics\10\0073.png",0,0 S,0,72410,,0.6 C,0,72410,,255,255,255 F,0,72410,72810,0,1 MX,0,72410,77077,319.1515,309.1515 MY,0,72410,77077,376.5515 F,0,76577,77077,1,0 MX,29,76657,77157,309.1515,314.1515
Sprite,Foreground,Centre,"sb\lyrics\10\0067.png",0,0 S,0,72410,,0.6 C,0,72410,,255,255,255 F,0,72410,72890,0,1 MX,0,72410,77077,343.1515,333.1515 MY,0,72410,77077,378.9515 F,0,76577,77077,1,0 MX,29,76657,77157,333.1515,338.1515
Sprite,Foreground,Centre,"sb\lyrics\10\006f.png",0,0 S,0,72410,,0.6 C,0,72410,,255,255,255 F,0,72410,72970,0,1 MX,0,72410,77077,358.4515,348.4515 MY,0,72410,77077,376.8515 F,0,76577,77077,1,0 MX,29,76657,77157,348.4515,353.4515
Sprite,Foreground,Centre,"sb\lyrics\10\006e.png",0,0 S,0,72410,,0.6 C,0,72410,,255,255,255 F,0,72410,73050,0,1 MX,0,72410,77077,373.1515,363.1515 MY,0,72410,77077,376.8515 F,0,76577,77077,1,0 MX,29,76657,77157,363.1515,368.1515
Sprite,Foreground,Centre,"sb\lyrics\10\006e.png",0,0 S,0,72410,,0.6 C,0,72410,,255,255,255 F,0,72410,73130,0,1 MX,0,72410,77077,388.7515,378.7515 MY,0,72410,77077,376.8515 F,0,76577,77077,1,0 MX,29,76657,77157,378.7515,383.7515
Sprite,Foreground,Centre,"sb\lyrics\10\0061.png",0,0 S,0,72410,,0.6 C,0,72410,,255,255,255 F,0,72410,73210,0,1 MX,0,72410,77077,404.0515,394.0515 MY,0,72410,77077,376.8515 F,0,76577,77077,1,0 MX,29,76657,77157,394.0515,399.0515
Sprite,Foreground,Centre,"sb\lyrics\10\0062.png",0,0 S,0,72410,,0.6 C,0,72410,,255,255,255 F,0,72410,73290,0,1 MX,0,72410,77077,428.9515,418.9515 MY,0,72410,77077,373.5515 F,0,76577,77077,1,0 MX,29,76657,77157,418.9515,423.9515
Sprite,Foreground,Centre,"sb\lyrics\10\0075.png",0,0 S,0,72410,,0.6 C,0,72410,,255,255,255 F,0,72410,73370,0,1 MX,0,72410,77077,444.2515,434.2515 MY,0,72410,77077,377.1515 F,0,76577,77077,1,0 MX,29,76657,77157,434.2515,439.2515
Sprite,Foreground,Centre,"sb\lyrics\10\0079.png",0,0 S,0,72410,,0.6 C,0,72410,,255,255,255 F,0,72410,73450,0,1 MX,0,72410,77077,458.6515,448.6515 MY,0,72410,77077,379.2515 F,0,76577,77077,1,0 MX,29,76657,77157,448.6515,453.6515
Sprite,Foreground,Centre,"sb\lyrics\10\0079.png",0,0 S,0,72410,,0.6 C,0,72410,,255,255,255 F,0,72410,73530,0,1 MX,0,72410,77077,482.6515,472.6515 MY,0,72410,77077,379.2515 F,0,76577,77077,1,0 MX,29,76657,77157,472.6515,477.6515
Sprite,Foreground,Centre,"sb\lyrics\10\006f.png",0,0 S,0,72410,,0.6 C,0,72410,,255,255,255 F,0,72410,73610,0,1 MX,0,72410,77077,497.0515,487.0515 MY,0,72410,77077,376.8515 F,0,76577,77077,1,0 MX,29,76657,77157,487.0515,492.0515
Sprite,Foreground,Centre,"sb\lyrics\10\0075.png",0,0 S,0,72410,,0.6 C,0,72410,,255,255,255 F,0,72410,73690,0,1 MX,0,72410,77077,511.4515,501.4515 MY,0,72410,77077,377.1515 F,0,76577,77077,1,0 MX,29,76657,77157,501.4515,506.4515
Sprite,Foreground,Centre,"sb\lyrics\10\0061.png",0,0 S,0,72410,,0.6 C,0,72410,,255,255,255 F,0,72410,73770,0,1 MX,0,72410,77077,536.6515,526.6515 MY,0,72410,77077,376.8515 F,0,76577,77077,1,0 MX,29,76657,77157,526.6515,531.6515
Sprite,Foreground,Centre,"sb\lyrics\10\0062.png",0,0 S,0,72410,,0.6 C,0,72410,,255,255,255 F,0,72410,73850,0,1 MX,0,72410,77077,561.5515,551.5515 MY,0,72410,77077,373.5515 F,0,76577,77077,1,0 MX,29,76657,77157,551.5515,556.5515
Sprite,Foreground,Centre,"sb\lyrics\10\0069.png",0,0 S,0,72410,,0.6 C,0,72410,,255,255,255 F,0,72410,73930,0,1 MX,0,72410,77077,574.7515,564.7515 MY,0,72410,77077,373.5515 F,0,76577,77077,1,0 MX,29,76657,77157,564.7515,569.7515
Sprite,Foreground,Centre,"sb\lyrics\10\006c.png",0,0 S,0,72410,,0.6 C,0,72410,,255,255,255 F,0,72410,74010,0,1 MX,0,72410,77077,586.1516,576.1516 MY,0,72410,77077,373.5515 F,0,76577,77077,1,0 MX,29,76657,77157,576.1516,581.1516
Sprite,Foreground,Centre,"sb\lyrics\10\006c.png",0,0 S,0,72410,,0.6 C,0,72410,,255,255,255 F,0,72410,74090,0,1 MX,0,72410,77077,596.9515,586.9515 MY,0,72410,77077,373.5515 F,0,76577,77077,1,0 MX,29,76657,77157,586.9515,591.9515
Sprite,Foreground,Centre,"sb\lyrics\10\0079.png",0,0 S,0,72410,,0.6 C,0,72410,,255,255,255 F,0,72410,74170,0,1 MX,0,72410,77077,609.2515,599.2515 MY,0,72410,77077,379.2515 F,0,76577,77077,1,0 MX,29,76657,77157,599.2515,604.2515
Sprite,Foreground,Centre,"sb\lyrics\10\002d.png",0,0 S,0,72410,,0.6 C,0,72410,,255,255,255 F,0,72410,74250,0,1 MX,0,72410,77077,624.2515,614.2515 MY,0,72410,77077,372.9515 F,0,76577,77077,1,0 MX,29,76657,77157,614.2515,619.2515
Sprite,Foreground,Centre,"sb\lyrics\10\0067.png",0,0 S,0,72410,,0.6 C,0,72410,,255,255,255 F,0,72410,74330,0,1 MX,0,72410,77077,639.5515,629.5515 MY,0,72410,77077,378.9515 F,0,76577,77077,1,0 MX,29,76657,77157,629.5515,634.5515
Sprite,Foreground,Centre,"sb\lyrics\10\006f.png",0,0 S,0,72410,,0.6 C,0,72410,,255,255,255 F,0,72410,74410,0,1 MX,0,72410,77077,654.8515,644.8515 MY,0,72410,77077,376.8515 F,0,76577,77077,1,0 MX,29,76657,77157,644.8515,649.8515
Sprite,Foreground,Centre,"sb\lyrics\10\0061.png",0,0 S,0,72410,,0.6 C,0,72410,,255,255,255 F,0,72410,74490,0,1 MX,0,72410,77077,669.2515,659.2515 MY,0,72410,77077,376.8515 F,0,76577,77077,1,0 MX,29,76657,77157,659.2515,664.2515
Sprite,Foreground,Centre,"sb\lyrics\10\0074.png",0,0 S,0,72410,,0.6 C,0,72410,,255,255,255 F,0,72410,74570,0,1 MX,0,72410,77077,683.0516,673.0516 MY,0,72410,77077,374.1515 F,0,76577,77077,1,0 MX,29,76657,77157,673.0516,678.0516
Sprite,Foreground,Centre,"sb\lyrics\10\002e.png",0,0 S,0,72410,,0.6 C,0,72410,,255,255,255 F,0,72410,74650,0,1 MX,0,72410,77077,695.9515,685.9515 MY,0,72410,77077,384.3515 F,0,76577,77077,1,0 MX,29,76657,77157,685.9515,690.9515
Sprite,Foreground,Centre,"sb\lyrics\11\0049.png",0,0 F,0,77744,,0,1 S,0,77744,,0.6 C,0,77744,,255,255,255 MX,0,77744,82410,281.3515,271.3515 MY,0,77744,82410,373.5515 F,0,81910,82410,1,0 MX,29,81990,82490,271.3515,276.3515
Sprite,Foreground,Centre,"sb\lyrics\11\0066.png",0,0 S,0,77744,,0.6 C,0,77744,,255,255,255 F,0,77744,77824,0,1 MX,0,77744,82410,295.1515,285.1515 MY,0,77744,82410,373.5515 F,0,81910,82410,1,0 MX,29,81990,82490,285.1515,290.1515
Sprite,Foreground,Centre,"sb\lyrics\11\0074.png",0,0 S,0,77744,,0.6 C,0,77744,,255,255,255 F,0,77744,77904,0,1 MX,0,77744,82410,319.4515,309.4515 MY,0,77744,82410,374.1515 F,0,81910,82410,1,0 MX,29,81990,82490,309.4515,314.4515
Sprite,Foreground,Centre,"sb\lyrics\11\0068.png",0,0 S,0,77744,,0.6 C,0,77744,,255,255,255 F,0,77744,77984,0,1 MX,0,77744,82410,334.1515,324.1515 MY,0,77744,82410,373.5515 F,0,81910,82410,1,0 MX,29,81990,82490,324.1515,329.1515
Sprite,Foreground,Centre,"sb\lyrics\11\0061.png",0,0 S,0,77744,,0.6 C,0,77744,,255,255,255 F,0,77744,78064,0,1 MX,0,77744,82410,350.0515,340.0515 MY,0,77744,82410,376.8515 F,0,81910,82410,1,0 MX,29,81990,82490,340.0515,345.0515
Sprite,Foreground,Centre,"sb\lyrics\11\0074.png",0,0 S,0,77744,,0.6 C,0,77744,,255,255,255 F,0,77744,78144,0,1 MX,0,77744,82410,363.8515,353.8515 MY,0,77744,82410,374.1515 F,0,81910,82410,1,0 MX,29,81990,82490,353.8515,358.8515
Sprite,Foreground,Centre,"sb\lyrics\11\0062.png",0,0 S,0,77744,,0.6 C,0,77744,,255,255,255 F,0,77744,78224,0,1 MX,0,77744,82410,388.7515,378.7515 MY,0,77744,82410,373.5515 F,0,81910,82410,1,0 MX,29,81990,82490,378.7515,383.7515
Sprite,Foreground,Centre,"sb\lyrics\11\0069.png",0,0 S,0,77744,,0.6 C,0,77744,,255,255,255 F,0,77744,78304,0,1 MX,0,77744,82410,401.9515,391.9515 MY,0,77744,82410,373.5515 F,0,81910,82410,1,0 MX,29,81990,82490,391.9515,396.9515
Sprite,Foreground,Centre,"sb\lyrics\11\006c.png",0,0 S,0,77744,,0.6 C,0,77744,,255,255,255 F,0,77744,78384,0,1 MX,0,77744,82410,413.3515,403.3515 MY,0,77744,82410,373.5515 F,0,81910,82410,1,0 MX,29,81990,82490,403.3515,408.3515
Sprite,Foreground,Centre,"sb\lyrics\11\006c.png",0,0 S,0,77744,,0.6 C,0,77744,,255,255,255 F,0,77744,78464,0,1 MX,0,77744,82410,424.1515,414.1515 MY,0,77744,82410,373.5515 F,0,81910,82410,1,0 MX,29,81990,82490,414.1515,419.1515
Sprite,Foreground,Centre,"sb\lyrics\11\0079.png",0,0 S,0,77744,,0.6 C,0,77744,,255,255,255 F,0,77744,78544,0,1 MX,0,77744,82410,436.4514,426.4514 MY,0,77744,82410,379.2515 F,0,81910,82410,1,0 MX,29,81990,82490,426.4514,431.4514
Sprite,Foreground,Centre,"sb\lyrics\11\002d.png",0,0 S,0,77744,,0.6 C,0,77744,,255,255,255 F,0,77744,78624,0,1 MX,0,77744,82410,451.4514,441.4514 MY,0,77744,82410,372.9515 F,0,81910,82410,1,0 MX,29,81990,82490,441.4514,446.4514
Sprite,Foreground,Centre,"sb\lyrics\11\0067.png",0,0 S,0,77744,,0.6 C,0,77744,,255,255,255 F,0,77744,78704,0,1 MX,0,77744,82410,466.7515,456.7515 MY,0,77744,82410,378.9515 F,0,81910,82410,1,0 MX,29,81990,82490,456.7515,461.7515
Sprite,Foreground,Centre,"sb\lyrics\11\006f.png",0,0 S,0,77744,,0.6 C,0,77744,,255,255,255 F,0,77744,78784,0,1 MX,0,77744,82410,482.0515,472.0515 MY,0,77744,82410,376.8515 F,0,81910,82410,1,0 MX,29,81990,82490,472.0515,477.0515
Sprite,Foreground,Centre,"sb\lyrics\11\0061.png",0,0 S,0,77744,,0.6 C,0,77744,,255,255,255 F,0,77744,78864,0,1 MX,0,77744,82410,496.4514,486.4514 MY,0,77744,82410,376.8515 F,0,81910,82410,1,0 MX,29,81990,82490,486.4514,491.4514
Sprite,Foreground,Centre,"sb\lyrics\11\0074.png",0,0 S,0,77744,,0.6 C,0,77744,,255,255,255 F,0,77744,78944,0,1 MX,0,77744,82410,510.2514,500.2514 MY,0,77744,82410,374.1515 F,0,81910,82410,1,0 MX,29,81990,82490,500.2514,505.2514
Sprite,Foreground,Centre,"sb\lyrics\11\0077.png",0,0 S,0,77744,,0.6 C,0,77744,,255,255,255 F,0,77744,79024,0,1 MX,0,77744,82410,535.7515,525.7515 MY,0,77744,82410,377.1515 F,0,81910,82410,1,0 MX,29,81990,82490,525.7515,530.7515
Sprite,Foreground,Centre,"sb\lyrics\11\006f.png",0,0 S,0,77744,,0.6 C,0,77744,,255,255,255 F,0,77744,79104,0,1 MX,0,77744,82410,551.6514,541.6514 MY,0,77744,82410,376.8515 F,0,81910,82410,1,0 MX,29,81990,82490,541.6514,546.6514
Sprite,Foreground,Centre,"sb\lyrics\11\006e.png",0,0 S,0,77744,,0.6 C,0,77744,,255,255,255 F,0,77744,79184,0,1 MX,0,77744,82410,566.3514,556.3514 MY,0,77744,82410,376.8515 F,0,81910,82410,1,0 MX,29,81990,82490,556.3514,561.3514
Sprite,Foreground,Centre,"sb\lyrics\11\0027.png",0,0 S,0,77744,,0.6 C,0,77744,,255,255,255 F,0,77744,79264,0,1 MX,0,77744,82410,580.4514,570.4514 MY,0,77744,82410,363.6515 F,0,81910,82410,1,0 MX,29,81990,82490,570.4514,575.4514
Sprite,Foreground,Centre,"sb\lyrics\11\0074.png",0,0 S,0,77744,,0.6 C,0,77744,,255,255,255 F,0,77744,79344,0,1 MX,0,77744,82410,593.0515,583.0515 MY,0,77744,82410,374.1515 F,0,81910,82410,1,0 MX,29,81990,82490,583.0515,588.0515
Sprite,Foreground,Centre,"sb\lyrics\11\0070.png",0,0 S,0,77744,,0.6 C,0,77744,,255,255,255 F,0,77744,79424,0,1 MX,0,77744,82410,617.9514,607.9514 MY,0,77744,82410,378.9515 F,0,81910,82410,1,0 MX,29,81990,82490,607.9514,612.9514
Sprite,Foreground,Centre,"sb\lyrics\11\0075.png",0,0 S,0,77744,,0.6 C,0,77744,,255,255,255 F,0,77744,79504,0,1 MX,0,77744,82410,632.6514,622.6514 MY,0,77744,82410,377.1515 F,0,81910,82410,1,0 MX,29,81990,82490,622.6514,627.6514
Sprite,Foreground,Centre,"sb\lyrics\11\006c.png",0,0 S,0,77744,,0.6 C,0,77744,,255,255,255 F,0,77744,79584,0,1 MX,0,77744,82410,645.5515,635.5515 MY,0,77744,82410,373.5515 F,0,81910,82410,1,0 MX,29,81990,82490,635.5515,640.5515
Sprite,Foreground,Centre,"sb\lyrics\11\006c.png",0,0 S,0,77744,,0.6 C,0,77744,,255,255,255 F,0,77744,79664,0,1 MX,0,77744,82410,656.3514,646.3514 MY,0,77744,82410,373.5515 F,0,81910,82410,1,0 MX,29,81990,82490,646.3514,651.3514
Sprite,Foreground,Centre,"sb\lyrics\12\004d.png",0,0 F,0,83077,,0,1 S,0,83077,,0.6 C,0,83077,,255,255,255 MX,0,83077,87744,231.8515,221.8515 MY,0,83077,87744,373.8515 F,0,87244,87744,1,0 MX,29,87324,87824,221.8515,226.8515
Sprite,Foreground,Centre,"sb\lyrics\12\0061.png",0,0 S,0,83077,,0.6 C,0,83077,,255,255,255 F,0,83077,83157,0,1 MX,0,83077,87744,248.3515,238.3515 MY,0,83077,87744,376.8515 F,0,87244,87744,1,0 MX,29,87324,87824,238.3515,243.3515
Sprite,Foreground,Centre,"sb\lyrics\12\006d.png",0,0 S,0,83077,,0.6 C,0,83077,,255,255,255 F,0,83077,83237,0,1 MX,0,83077,87744,264.5515,254.5515 MY,0,83077,87744,376.8515 F,0,87244,87744,1,0 MX,29,87324,87824,254.5515,259.5515
Sprite,Foreground,Centre,"sb\lyrics\12\0061.png",0,0 S,0,83077,,0.6 C,0,83077,,255,255,255 F,0,83077,83317,0,1 MX,0,83077,87744,280.7515,270.7515 MY,0,83077,87744,376.8515 F,0,87244,87744,1,0 MX,29,87324,87824,270.7515,275.7515
Sprite,Foreground,Centre,"sb\lyrics\12\0027.png",0,0 S,0,83077,,0.6 C,0,83077,,255,255,255 F,0,83077,83397,0,1 MX,0,83077,87744,293.9515,283.9515 MY,0,83077,87744,363.6515 F,0,87244,87744,1,0 MX,29,87324,87824,283.9515,288.9515
Sprite,Foreground,Centre,"sb\lyrics\12\0073.png",0,0 S,0,83077,,0.6 C,0,83077,,255,255,255 F,0,83077,83477,0,1 MX,0,83077,87744,306.8515,296.8515 MY,0,83077,87744,376.5515 F,0,87244,87744,1,0 MX,29,87324,87824,296.8515,301.8515
Sprite,Foreground,Centre,"sb\lyrics\12\0067.png",0,0 S,0,83077,,0.6 C,0,83077,,255,255,255 F,0,83077,83557,0,1 MX,0,83077,87744,330.8515,320.8515 MY,0,83077,87744,378.9515 F,0,87244,87744,1,0 MX,29,87324,87824,320.8515,325.8515
Sprite,Foreground,Centre,"sb\lyrics\12\006f.png",0,0 S,0,83077,,0.6 C,0,83077,,255,255,255 F,0,83077,83637,0,1 MX,0,83077,87744,346.1515,336.1515 MY,0,83077,87744,376.8515 F,0,87244,87744,1,0 MX,29,87324,87824,336.1515,341.1515
Sprite,Foreground,Centre,"sb\lyrics\12\006e.png",0,0 S,0,83077,,0.6 C,0,83077,,255,255,255 F,0,83077,83717,0,1 MX,0,83077,87744,360.8515,350.8515 MY,0,83077,87744,376.8515 F,0,87244,87744,1,0 MX,29,87324,87824,350.8515,355.8515
Sprite,Foreground,Centre,"sb\lyrics\12\006e.png",0,0 S,0,83077,,0.6 C,0,83077,,255,255,255 F,0,83077,83797,0,1 MX,0,83077,87744,376.4515,366.4515 MY,0,83077,87744,376.8515 F,0,87244,87744,1,0 MX,29,87324,87824,366.4515,371.4515
Sprite,Foreground,Centre,"sb\lyrics\12\0061.png",0,0 S,0,83077,,0.6 C,0,83077,,255,255,255 F,0,83077,83877,0,1 MX,0,83077,87744,391.7515,381.7515 MY,0,83077,87744,376.8515 F,0,87244,87744,1,0 MX,29,87324,87824,381.7515,386.7515
Sprite,Foreground,Centre,"sb\lyrics\12\0062.png",0,0 S,0,83077,,0.6 C,0,83077,,255,255,255 F,0,83077,83957,0,1 MX,0,83077,87744,416.6515,406.6515 MY,0,83077,87744,373.5515 F,0,87244,87744,1,0 MX,29,87324,87824,406.6515,411.6515
Sprite,Foreground,Centre,"sb\lyrics\12\0075.png",0,0 S,0,83077,,0.6 C,0,83077,,255,255,255 F,0,83077,84037,0,1 MX,0,83077,87744,431.9515,421.9515 MY,0,83077,87744,377.1515 F,0,87244,87744,1,0 MX,29,87324,87824,421.9515,426.9515
Sprite,Foreground,Centre,"sb\lyrics\12\0079.png",0,0 S,0,83077,,0.6 C,0,83077,,255,255,255 F,0,83077,84117,0,1 MX,0,83077,87744,446.3515,436.3515 MY,0,83077,87744,379.2515 F,0,87244,87744,1,0 MX,29,87324,87824,436.3515,441.3515
Sprite,Foreground,Centre,"sb\lyrics\12\0079.png",0,0 S,0,83077,,0.6 C,0,83077,,255,255,255 F,0,83077,84197,0,1 MX,0,83077,87744,470.3515,460.3515 MY,0,83077,87744,379.2515 F,0,87244,87744,1,0 MX,29,87324,87824,460.3515,465.3515
Sprite,Foreground,Centre,"sb\lyrics\12\006f.png",0,0 S,0,83077,,0.6 C,0,83077,,255,255,255 F,0,83077,84277,0,1 MX,0,83077,87744,484.7515,474.7515 MY,0,83077,87744,376.8515 F,0,87244,87744,1,0 MX,29,87324,87824,474.7515,479.7515
Sprite,Foreground,Centre,"sb\lyrics\12\0075.png",0,0 S,0,83077,,0.6 C,0,83077,,255,255,255 F,0,83077,84357,0,1 MX,0,83077,87744,499.1515,489.1515 MY,0,83077,87744,377.1515 F,0,87244,87744,1,0 MX,29,87324,87824,489.1515,494.1515
Sprite,Foreground,Centre,"sb\lyrics\12\0061.png",0,0 S,0,83077,,0.6 C,0,83077,,255,255,255 F,0,83077,84437,0,1 MX,0,83077,87744,524.3515,514.3515 MY,0,83077,87744,376.8515 F,0,87244,87744,1,0 MX,29,87324,87824,514.3515,519.3515
Sprite,Foreground,Centre,"sb\lyrics\12\0063.png",0,0 S,0,83077,,0.6 C,0,83077,,255,255,255 F,0,83077,84517,0,1 MX,0,83077,87744,548.9515,538.9515 MY,0,83077,87744,376.8515 F,0,87244,87744,1,0 MX,29,87324,87824,538.9515,543.9515
Sprite,Foreground,Centre,"sb\lyrics\12\0061.png",0,0 S,0,83077,,0.6 C,0,83077,,255,255,255 F,0,83077,84597,0,1 MX,0,83077,87744,562.7515,552.7515 MY,0,83077,87744,376.8515 F,0,87244,87744,1,0 MX,29,87324,87824,552.7515,557.7515
Sprite,Foreground,Centre,"sb\lyrics\12\0072.png",0,0 S,0,83077,,0.6 C,0,83077,,255,255,255 F,0,83077,84677,0,1 MX,0,83077,87744,576.5515,566.5515 MY,0,83077,87744,376.8515 F,0,87244,87744,1,0 MX,29,87324,87824,566.5515,571.5515
Sprite,Foreground,Centre,"sb\lyrics\12\0074.png",0,0 S,0,83077,,0.6 C,0,83077,,255,255,255 F,0,83077,84757,0,1 MX,0,83077,87744,589.7515,579.7515 MY,0,83077,87744,374.1515 F,0,87244,87744,1,0 MX,29,87324,87824,579.7515,584.7515
Sprite,Foreground,Centre,"sb\lyrics\12\0061.png",0,0 S,0,83077,,0.6 C,0,83077,,255,255,255 F,0,83077,84837,0,1 MX,0,83077,87744,614.3515,604.3515 MY,0,83077,87744,376.8515 F,0,87244,87744,1,0 MX,29,87324,87824,604.3515,609.3515
Sprite,Foreground,Centre,"sb\lyrics\12\006e.png",0,0 S,0,83077,,0.6 C,0,83077,,255,255,255 F,0,83077,84917,0,1 MX,0,83077,87744,629.0515,619.0515 MY,0,83077,87744,376.8515 F,0,87244,87744,1,0 MX,29,87324,87824,619.0515,624.0515
Sprite,Foreground,Centre,"sb\lyrics\12\0064.png",0,0 S,0,83077,,0.6 C,0,83077,,255,255,255 F,0,83077,84997,0,1 MX,0,83077,87744,644.3515,634.3515 MY,0,83077,87744,373.8515 F,0,87244,87744,1,0 MX,29,87324,87824,634.3515,639.3515
Sprite,Foreground,Centre,"sb\lyrics\12\0062.png",0,0 S,0,83077,,0.6 C,0,83077,,255,255,255 F,0,83077,85077,0,1 MX,0,83077,87744,669.8515,659.8515 MY,0,83077,87744,373.5515 F,0,87244,87744,1,0 MX,29,87324,87824,659.8515,664.8515
Sprite,Foreground,Centre,"sb\lyrics\12\0075.png",0,0 S,0,83077,,0.6 C,0,83077,,255,255,255 F,0,83077,85157,0,1 MX,0,83077,87744,685.1515,675.1515 MY,0,83077,87744,377.1515 F,0,87244,87744,1,0 MX,29,87324,87824,675.1515,680.1515
Sprite,Foreground,Centre,"sb\lyrics\12\006c.png",0,0 S,0,83077,,0.6 C,0,83077,,255,255,255 F,0,83077,85237,0,1 MX,0,83077,87744,698.0515,688.0515 MY,0,83077,87744,373.5515 F,0,87244,87744,1,0 MX,29,87324,87824,688.0515,693.0515
Sprite,Foreground,Centre,"sb\lyrics\12\006c.png",0,0 S,0,83077,,0.6 C,0,83077,,255,255,255 F,0,83077,85317,0,1 MX,0,83077,87744,708.8515,698.8515 MY,0,83077,87744,373.5515 F,0,87244,87744,1,0 MX,29,87324,87824,698.8515,703.8515
Sprite,Foreground,Centre,"sb\lyrics\13\0049.png",0,0 F,0,88410,,0,1 S,0,88410,,0.6 C,0,88410,,255,255,255 MX,0,88410,93077,268.1515,258.1515 MY,0,88410,93077,373.5515 F,0,92577,93077,1,0 MX,29,92657,93157,258.1515,263.1515
Sprite,Foreground,Centre,"sb\lyrics\13\0066.png",0,0 S,0,88410,,0.6 C,0,88410,,255,255,255 F,0,88410,88490,0,1 MX,0,88410,93077,281.9515,271.9515 MY,0,88410,93077,373.5515 F,0,92577,93077,1,0 MX,29,92657,93157,271.9515,276.9515
Sprite,Foreground,Centre,"sb\lyrics\13\0074.png",0,0 S,0,88410,,0.6 C,0,88410,,255,255,255 F,0,88410,88570,0,1 MX,0,88410,93077,306.2515,296.2515 MY,0,88410,93077,374.1515 F,0,92577,93077,1,0 MX,29,92657,93157,296.2515,301.2515
Sprite,Foreground,Centre,"sb\lyrics\13\0068.png",0,0 S,0,88410,,0.6 C,0,88410,,255,255,255 F,0,88410,88650,0,1 MX,0,88410,93077,320.9515,310.9515 MY,0,88410,93077,373.5515 F,0,92577,93077,1,0 MX,29,92657,93157,310.9515,315.9515
Sprite,Foreground,Centre,"sb\lyrics\13\0061.png",0,0 S,0,88410,,0.6 C,0,88410,,255,255,255 F,0,88410,88730,0,1 MX,0,88410,93077,336.8515,326.8515 MY,0,88410,93077,376.8515 F,0,92577,93077,1,0 MX,29,92657,93157,326.8515,331.8515
Sprite,Foreground,Centre,"sb\lyrics\13\0074.png",0,0 S,0,88410,,0.6 C,0,88410,,255,255,255 F,0,88410,88810,0,1 MX,0,88410,93077,350.6515,340.6515 MY,0,88410,93077,374.1515 F,0,92577,93077,1,0 MX,29,92657,93157,340.6515,345.6515
Sprite,Foreground,Centre,"sb\lyrics\13\0063.png",0,0 S,0,88410,,0.6 C,0,88410,,255,255,255 F,0,88410,88890,0,1 MX,0,88410,93077,375.2515,365.2515 MY,0,88410,93077,376.8515 F,0,92577,93077,1,0 MX,29,92657,93157,365.2515,370.2515
Sprite,Foreground,Centre,"sb\lyrics\13\0061.png",0,0 S,0,88410,,0.6 C,0,88410,,255,255,255 F,0,88410,88970,0,1 MX,0,88410,93077,389.0515,379.0515 MY,0,88410,93077,376.8515 F,0,92577,93077,1,0 MX,29,92657,93157,379.0515,384.0515
Sprite,Foreground,Centre,"sb\lyrics\13\0072.png",0,0 S,0,88410,,0.6 C,0,88410,,255,255,255 F,0,88410,89050,0,1 MX,0,88410,93077,402.8514,392.8514 MY,0,88410,93077,376.8515 F,0,92577,93077,1,0 MX,29,92657,93157,392.8514,397.8514
Sprite,Foreground,Centre,"sb\lyrics\13\0074.png",0,0 S,0,88410,,0.6 C,0,88410,,255,255,255 F,0,88410,89130,0,1 MX,0,88410,93077,416.0515,406.0515 MY,0,88410,93077,374.1515 F,0,92577,93077,1,0 MX,29,92657,93157,406.0515,411.0515
Sprite,Foreground,Centre,"sb\lyrics\13\0061.png",0,0 S,0,88410,,0.6 C,0,88410,,255,255,255 F,0,88410,89210,0,1 MX,0,88410,93077,440.6515,430.6515 MY,0,88410,93077,376.8515 F,0,92577,93077,1,0 MX,29,92657,93157,430.6515,435.6515
Sprite,Foreground,Centre,"sb\lyrics\13\006e.png",0,0 S,0,88410,,0.6 C,0,88410,,255,255,255 F,0,88410,89290,0,1 MX,0,88410,93077,455.3515,445.3515 MY,0,88410,93077,376.8515 F,0,92577,93077,1,0 MX,29,92657,93157,445.3515,450.3515
Sprite,Foreground,Centre,"sb\lyrics\13\0064.png",0,0 S,0,88410,,0.6 C,0,88410,,255,255,255 F,0,88410,89370,0,1 MX,0,88410,93077,470.6515,460.6515 MY,0,88410,93077,373.8515 F,0,92577,93077,1,0 MX,29,92657,93157,460.6515,465.6515
Sprite,Foreground,Centre,"sb\lyrics\13\0062.png",0,0 S,0,88410,,0.6 C,0,88410,,255,255,255 F,0,88410,89450,0,1 MX,0,88410,93077,496.1515,486.1515 MY,0,88410,93077,373.5515 F,0,92577,93077,1,0 MX,29,92657,93157,486.1515,491.1515
Sprite,Foreground,Centre,"sb\lyrics\13\0075.png",0,0 S,0,88410,,0.6 C,0,88410,,255,255,255 F,0,88410,89530,0,1 MX,0,88410,93077,511.4515,501.4515 MY,0,88410,93077,377.1515 F,0,92577,93077,1,0 MX,29,92657,93157,501.4515,506.4515
Sprite,Foreground,Centre,"sb\lyrics\13\006c.png",0,0 S,0,88410,,0.6 C,0,88410,,255,255,255 F,0,88410,89610,0,1 MX,0,88410,93077,524.3515,514.3515 MY,0,88410,93077,373.5515 F,0,92577,93077,1,0 MX,29,92657,93157,514.3515,519.3515
Sprite,Foreground,Centre,"sb\lyrics\13\006c.png",0,0 S,0,88410,,0.6 C,0,88410,,255,255,255 F,0,88410,89690,0,1 MX,0,88410,93077,535.1515,525.1515 MY,0,88410,93077,373.5515 F,0,92577,93077,1,0 MX,29,92657,93157,525.1515,530.1515
Sprite,Foreground,Centre,"sb\lyrics\13\0074.png",0,0 S,0,88410,,0.6 C,0,88410,,255,255,255 F,0,88410,89770,0,1 MX,0,88410,93077,557.6515,547.6515 MY,0,88410,93077,374.1515 F,0,92577,93077,1,0 MX,29,92657,93157,547.6515,552.6515
Sprite,Foreground,Centre,"sb\lyrics\13\0075.png",0,0 S,0,88410,,0.6 C,0,88410,,255,255,255 F,0,88410,89850,0,1 MX,0,88410,93077,572.0515,562.0515 MY,0,88410,93077,377.1515 F,0,92577,93077,1,0 MX,29,92657,93157,562.0515,567.0515
Sprite,Foreground,Centre,"sb\lyrics\13\0072.png",0,0 S,0,88410,,0.6 C,0,88410,,255,255,255 F,0,88410,89930,0,1 MX,0,88410,93077,586.4515,576.4515 MY,0,88410,93077,376.8515 F,0,92577,93077,1,0 MX,29,92657,93157,576.4515,581.4515
Sprite,Foreground,Centre,"sb\lyrics\13\006e.png",0,0 S,0,88410,,0.6 C,0,88410,,255,255,255 F,0,88410,90010,0,1 MX,0,88410,93077,600.5515,590.5515 MY,0,88410,93077,376.8515 F,0,92577,93077,1,0 MX,29,92657,93157,590.5515,595.5515
Sprite,Foreground,Centre,"sb\lyrics\13\006f.png",0,0 S,0,88410,,0.6 C,0,88410,,255,255,255 F,0,88410,90090,0,1 MX,0,88410,93077,626.0515,616.0515 MY,0,88410,93077,376.8515 F,0,92577,93077,1,0 MX,29,92657,93157,616.0515,621.0515
Sprite,Foreground,Centre,"sb\lyrics\13\0076.png",0,0 S,0,88410,,0.6 C,0,88410,,255,255,255 F,0,88410,90170,0,1 MX,0,88410,93077,639.8515,629.8515 MY,0,88410,93077,377.1515 F,0,92577,93077,1,0 MX,29,92657,93157,629.8515,634.8515
Sprite,Foreground,Centre,"sb\lyrics\13\0065.png",0,0 S,0,88410,,0.6 C,0,88410,,255,255,255 F,0,88410,90250,0,1 MX,0,88410,93077,654.8515,644.8515 MY,0,88410,93077,376.8515 F,0,92577,93077,1,0 MX,29,92657,93157,644.8515,649.8515
Sprite,Foreground,Centre,"sb\lyrics\13\0072.png",0,0 S,0,88410,,0.6 C,0,88410,,255,255,255 F,0,88410,90330,0,1 MX,0,88410,93077,668.6516,658.6516 MY,0,88410,93077,376.8515 F,0,92577,93077,1,0 MX,29,92657,93157,658.6516,663.6516
Sprite,Foreground,Centre,"sb\lyrics\14\004d.png",0,0 F,0,93744,,0,1 S,0,93744,,0.6 C,0,93744,,255,255,255 MX,0,93744,98410,210.5515,200.5515 MY,0,93744,98410,373.8515 F,0,97910,98410,1,0 MX,29,97990,98490,200.5515,205.5515
Sprite,Foreground,Centre,"sb\lyrics\14\0061.png",0,0 S,0,93744,,0.6 C,0,93744,,255,255,255 F,0,93744,93824,0,1 MX,0,93744,98410,227.0515,217.0515 MY,0,93744,98410,376.8515 F,0,97910,98410,1,0 MX,29,97990,98490,217.0515,222.0515
Sprite,Foreground,Centre,"sb\lyrics\14\006d.png",0,0 S,0,93744,,0.6 C,0,93744,,255,255,255 F,0,93744,93904,0,1 MX,0,93744,98410,243.2514,233.2514 MY,0,93744,98410,376.8515 F,0,97910,98410,1,0 MX,29,97990,98490,233.2514,238.2514
Sprite,Foreground,Centre,"sb\lyrics\14\0061.png",0,0 S,0,93744,,0.6 C,0,93744,,255,255,255 F,0,93744,93984,0,1 MX,0,93744,98410,259.4514,249.4514 MY,0,93744,98410,376.8515 F,0,97910,98410,1,0 MX,29,97990,98490,249.4514,254.4514
Sprite,Foreground,Centre,"sb\lyrics\14\0027.png",0,0 S,0,93744,,0.6 C,0,93744,,255,255,255 F,0,93744,94064,0,1 MX,0,93744,98410,272.6515,262.6515 MY,0,93744,98410,363.6515 F,0,97910,98410,1,0 MX,29,97990,98490,262.6515,267.6515
Sprite,Foreground,Centre,"sb\lyrics\14\0073.png",0,0 S,0,93744,,0.6 C,0,93744,,255,255,255 F,0,93744,94144,0,1 MX,0,93744,98410,285.5515,275.5515 MY,0,93744,98410,376.5515 F,0,97910,98410,1,0 MX,29,97990,98490,275.5515,280.5515
Sprite,Foreground,Centre,"sb\lyrics\14\0067.png",0,0 S,0,93744,,0.6 C,0,93744,,255,255,255 F,0,93744,94224,0,1 MX,0,93744,98410,309.5515,299.5515 MY,0,93744,98410,378.9515 F,0,97910,98410,1,0 MX,29,97990,98490,299.5515,304.5515
Sprite,Foreground,Centre,"sb\lyrics\14\006f.png",0,0 S,0,93744,,0.6 C,0,93744,,255,255,255 F,0,93744,94304,0,1 MX,0,93744,98410,324.8514,314.8514 MY,0,93744,98410,376.8515 F,0,97910,98410,1,0 MX,29,97990,98490,314.8514,319.8514
Sprite,Foreground,Centre,"sb\lyrics\14\006e.png",0,0 S,0,93744,,0.6 C,0,93744,,255,255,255 F,0,93744,94384,0,1 MX,0,93744,98410,339.5515,329.5515 MY,0,93744,98410,376.8515 F,0,97910,98410,1,0 MX,29,97990,98490,329.5515,334.5515
Sprite,Foreground,Centre,"sb\lyrics\14\006e.png",0,0 S,0,93744,,0.6 C,0,93744,,255,255,255 F,0,93744,94464,0,1 MX,0,93744,98410,355.1515,345.1515 MY,0,93744,98410,376.8515 F,0,97910,98410,1,0 MX,29,97990,98490,345.1515,350.1515
Sprite,Foreground,Centre,"sb\lyrics\14\0061.png",0,0 S,0,93744,,0.6 C,0,93744,,255,255,255 F,0,93744,94544,0,1 MX,0,93744,98410,370.4514,360.4514 MY,0,93744,98410,376.8515 F,0,97910,98410,1,0 MX,29,97990,98490,360.4514,365.4514
Sprite,Foreground,Centre,"sb\lyrics\14\0062.png",0,0 S,0,93744,,0.6 C,0,93744,,255,255,255 F,0,93744,94624,0,1 MX,0,93744,98410,395.3515,385.3515 MY,0,93744,98410,373.5515 F,0,97910,98410,1,0 MX,29,97990,98490,385.3515,390.3515
Sprite,Foreground,Centre,"sb\lyrics\14\0075.png",0,0 S,0,93744,,0.6 C,0,93744,,255,255,255 F,0,93744,94704,0,1 MX,0,93744,98410,410.6515,400.6515 MY,0,93744,98410,377.1515 F,0,97910,98410,1,0 MX,29,97990,98490,400.6515,405.6515
Sprite,Foreground,Centre,"sb\lyrics\14\0079.png",0,0 S,0,93744,,0.6 C,0,93744,,255,255,255 F,0,93744,94784,0,1 MX,0,93744,98410,425.0515,415.0515 MY,0,93744,98410,379.2515 F,0,97910,98410,1,0 MX,29,97990,98490,415.0515,420.0515
Sprite,Foreground,Centre,"sb\lyrics\14\0079.png",0,0 S,0,93744,,0.6 C,0,93744,,255,255,255 F,0,93744,94864,0,1 MX,0,93744,98410,449.0515,439.0515 MY,0,93744,98410,379.2515 F,0,97910,98410,1,0 MX,29,97990,98490,439.0515,444.0515
Sprite,Foreground,Centre,"sb\lyrics\14\006f.png",0,0 S,0,93744,,0.6 C,0,93744,,255,255,255 F,0,93744,94944,0,1 MX,0,93744,98410,463.4514,453.4514 MY,0,93744,98410,376.8515 F,0,97910,98410,1,0 MX,29,97990,98490,453.4514,458.4514
Sprite,Foreground,Centre,"sb\lyrics\14\0075.png",0,0 S,0,93744,,0.6 C,0,93744,,255,255,255 F,0,93744,95024,0,1 MX,0,93744,98410,477.8514,467.8514 MY,0,93744,98410,377.1515 F,0,97910,98410,1,0 MX,29,97990,98490,467.8514,472.8514
Sprite,Foreground,Centre,"sb\lyrics\14\0061.png",0,0 S,0,93744,,0.6 C,0,93744,,255,255,255 F,0,93744,95104,0,1 MX,0,93744,98410,503.0515,493.0515 MY,0,93744,98410,376.8515 F,0,97910,98410,1,0 MX,29,97990,98490,493.0515,498.0515
Sprite,Foreground,Centre,"sb\lyrics\14\0064.png",0,0 S,0,93744,,0.6 C,0,93744,,255,255,255 F,0,93744,95184,0,1 MX,0,93744,98410,527.6515,517.6515 MY,0,93744,98410,373.8515 F,0,97910,98410,1,0 MX,29,97990,98490,517.6515,522.6515
Sprite,Foreground,Centre,"sb\lyrics\14\006f.png",0,0 S,0,93744,,0.6 C,0,93744,,255,255,255 F,0,93744,95264,0,1 MX,0,93744,98410,542.6515,532.6515 MY,0,93744,98410,376.8515 F,0,97910,98410,1,0 MX,29,97990,98490,532.6515,537.6515
Sprite,Foreground,Centre,"sb\lyrics\14\0067.png",0,0 S,0,93744,,0.6 C,0,93744,,255,255,255 F,0,93744,95344,0,1 MX,0,93744,98410,556.7515,546.7515 MY,0,93744,98410,378.9515 F,0,97910,98410,1,0 MX,29,97990,98490,546.7515,551.7515
Sprite,Foreground,Centre,"sb\lyrics\14\006e.png",0,0 S,0,93744,,0.6 C,0,93744,,255,255,255 F,0,93744,95424,0,1 MX,0,93744,98410,582.5515,572.5515 MY,0,93744,98410,376.8515 F,0,97910,98410,1,0 MX,29,97990,98490,572.5515,577.5515
Sprite,Foreground,Centre,"sb\lyrics\14\0061.png",0,0 S,0,93744,,0.6 C,0,93744,,255,255,255 F,0,93744,95504,0,1 MX,0,93744,98410,597.8515,587.8515 MY,0,93744,98410,376.8515 F,0,97910,98410,1,0 MX,29,97990,98490,587.8515,592.8515
Sprite,Foreground,Centre,"sb\lyrics\14\006d.png",0,0 S,0,93744,,0.6 C,0,93744,,255,255,255 F,0,93744,95584,0,1 MX,0,93744,98410,614.0515,604.0515 MY,0,93744,98410,376.8515 F,0,97910,98410,1,0 MX,29,97990,98490,604.0515,609.0515
Sprite,Foreground,Centre,"sb\lyrics\14\0065.png",0,0 S,0,93744,,0.6 C,0,93744,,255,255,255 F,0,93744,95664,0,1 MX,0,93744,98410,630.2515,620.2515 MY,0,93744,98410,376.8515 F,0,97910,98410,1,0 MX,29,97990,98490,620.2515,625.2515
Sprite,Foreground,Centre,"sb\lyrics\14\0064.png",0,0 S,0,93744,,0.6 C,0,93744,,255,255,255 F,0,93744,95744,0,1 MX,0,93744,98410,644.6516,634.6516 MY,0,93744,98410,373.8515 F,0,97910,98410,1,0 MX,29,97990,98490,634.6516,639.6516
Sprite,Foreground,Centre,"sb\lyrics\14\0052.png",0,0 S,0,93744,,0.6 C,0,93744,,255,255,255 F,0,93744,95824,0,1 MX,0,93744,98410,671.0516,661.0516 MY,0,93744,98410,373.5515 F,0,97910,98410,1,0 MX,29,97990,98490,661.0516,666.0516
Sprite,Foreground,Centre,"sb\lyrics\14\006f.png",0,0 S,0,93744,,0.6 C,0,93744,,255,255,255 F,0,93744,95904,0,1 MX,0,93744,98410,686.6516,676.6516 MY,0,93744,98410,376.8515 F,0,97910,98410,1,0 MX,29,97990,98490,676.6516,681.6516
Sprite,Foreground,Centre,"sb\lyrics\14\0076.png",0,0 S,0,93744,,0.6 C,0,93744,,255,255,255 F,0,93744,95984,0,1 MX,0,93744,98410,700.4516,690.4516 MY,0,93744,98410,377.1515 F,0,97910,98410,1,0 MX,29,97990,98490,690.4516,695.4516
Sprite,Foreground,Centre,"sb\lyrics\14\0065.png",0,0 S,0,93744,,0.6 C,0,93744,,255,255,255 F,0,93744,96064,0,1 MX,0,93744,98410,715.4516,705.4516 MY,0,93744,98410,376.8515 F,0,97910,98410,1,0 MX,29,97990,98490,705.4516,710.4516
Sprite,Foreground,Centre,"sb\lyrics\14\0072.png",0,0 S,0,93744,,0.6 C,0,93744,,255,255,255 F,0,93744,96144,0,1 MX,0,93744,98410,729.2516,719.2516 MY,0,93744,98410,376.8515 F,0,97910,98410,1,0 MX,29,97990,98490,719.2516,724.2516
Sprite,Foreground,Centre,"sb\4.png",0,0 C,0,411,,255,253,149 F,0,411,611,0,0.3 M,0,411,3411,513.2117,480,513.2117,0 S,0,411,3411,0.5451976,0.5304068 P,0,411,60786,A F,0,3211,3411,0.3,0 F,0,3786,3986,0,0.3 M,0,3786,6786,480.2277,480,480.2277,0 S,0,3786,6786,0.4640446,0.324333 F,0,6586,6786,0.3,0 F,0,7161,7361,0,0.3 M,0,7161,10161,59.45607,480,59.45607,0 S,0,7161,10161,0.5634574,0.547627 F,0,9961,10161,0.3,0 F,0,10536,10736,0,0.3 M,0,10536,13536,300.1956,480,300.1956,0 S,0,10536,13536,0.4622386,0.3976502 F,0,13336,13536,0.3,0 F,0,13911,14111,0,0.3 M,0,13911,16911,472.4437,480,472.4437,0 S,0,13911,16911,0.3281934,0.3447292 F,0,16711,16911,0.3,0 F,0,17286,17486,0,0.3 M,0,17286,20286,316.6512,480,316.6512,0 S,0,17286,20286,0.5539246,0.4839474 F,0,20086,20286,0.3,0 F,0,20661,20861,0,0.3 M,0,20661,23661,331.0741,480,331.0741,0 S,0,20661,23661,0.3467296,0.5440958 F,0,23461,23661,0.3,0 F,0,24036,24236,0,0.3 M,0,24036,27036,-92.59311,480,-92.59311,0 S,0,24036,27036,0.4960556,0.3834988 F,0,26836,27036,0.3,0 F,0,27411,27611,0,0.3 M,0,27411,30411,116.4614,480,116.4614,0 S,0,27411,30411,0.3931089,0.3726408 F,0,30211,30411,0.3,0 F,0,30786,30986,0,0.3 M,0,30786,33786,-105.4417,480,-105.4417,0 S,0,30786,33786,0.595028,0.5885374 F,0,33586,33786,0.3,0 F,0,34161,34361,0,0.3 M,0,34161,37161,-30.39206,480,-30.39206,0 S,0,34161,37161,0.4871522,0.5971953 F,0,36961,37161,0.3,0 F,0,37536,37736,0,0.3 M,0,37536,40536,21.32354,480,21.32354,0 S,0,37536,40536,0.4984026,0.3615874 F,0,40336,40536,0.3,0 F,0,40911,41111,0,0.3 M,0,40911,43911,144.3511,480,144.3511,0 S,0,40911,43911,0.5519263,0.5469632 F,0,43711,43911,0.3,0 F,0,44286,44486,0,0.3 M,0,44286,47286,669.3235,480,669.3235,0 S,0,44286,47286,0.4558962,0.5586184 F,0,47086,47286,0.3,0 F,0,47661,47861,0,0.3 M,0,47661,50661,348.3621,480,348.3621,0 S,0,47661,50661,0.5985664,0.3477736 F,0,50461,50661,0.3,0 F,0,51036,51236,0,0.3 M,0,51036,54036,235.1884,480,235.1884,0 S,0,51036,54036,0.3133764,0.3840062 F,0,53836,54036,0.3,0 F,0,54411,54611,0,0.3 M,0,54411,57411,666.5483,480,666.5483,0 S,0,54411,57411,0.4228762,0.5446519 F,0,57211,57411,0.3,0 F,0,57786,57986,0,0.3 M,0,57786,60786,646.5936,480,646.5936,0 S,0,57786,60786,0.5102252,0.4012295 F,0,60586,60786,0.3,0
Sprite,Foreground,Centre,"sb\4.png",0,0 C,0,786,,255,253,149 F,0,786,986,0,0.3 M,0,786,3786,369.6696,480,369.6696,0 S,0,786,3786,0.3618099,0.4676654 P,0,786,61161,A F,0,3586,3786,0.3,0 F,0,4161,4361,0,0.3 M,0,4161,7161,52.80439,480,52.80439,0 S,0,4161,7161,0.4359981,0.3891516 F,0,6961,7161,0.3,0 F,0,7536,7736,0,0.3 M,0,7536,10536,521.0295,480,521.0295,0 S,0,7536,10536,0.5574658,0.5039247 F,0,10336,10536,0.3,0 F,0,10911,11111,0,0.3 M,0,10911,13911,466.0653,480,466.0653,0 S,0,10911,13911,0.4405193,0.5500491 F,0,13711,13911,0.3,0 F,0,14286,14486,0,0.3 M,0,14286,17286,-15.64549,480,-15.64549,0 S,0,14286,17286,0.4829611,0.5859128 F,0,17086,17286,0.3,0 F,0,17661,17861,0,0.3 M,0,17661,20661,-18.04851,480,-18.04851,0 S,0,17661,20661,0.5226987,0.4205628 F,0,20461,20661,0.3,0 F,0,21036,21236,0,0.3 M,0,21036,24036,441.7132,480,441.7132,0 S,0,21036,24036,0.472618,0.4658585 F,0,23836,24036,0.3,0 F,0,24411,24611,0,0.3 M,0,24411,27411,718.9612,480,718.9612,0 S,0,24411,27411,0.4763378,0.5316605 F,0,27211,27411,0.3,0 F,0,27786,27986,0,0.3 M,0,27786,30786,562.6006,480,562.6006,0 S,0,27786,30786,0.339918,0.4837511 F,0,30586,30786,0.3,0 F,0,31161,31361,0,0.3 M,0,31161,34161,27.20049,480,27.20049,0 S,0,31161,34161,0.5316771,0.3273827 F,0,33961,34161,0.3,0 F,0,34536,34736,0,0.3 M,0,34536,37536,638.6821,480,638.6821,0 S,0,34536,37536,0.4618632,0.3412918 F,0,37336,37536,0.3,0 F,0,37911,38111,0,0.3 M,0,37911,40911,349.8019,480,349.8019,0 S,0,37911,40911,0.452991,0.5319753 F,0,40711,40911,0.3,0 F,0,41286,41486,0,0.3 M,0,41286,44286,346.0637,480,346.0637,0 S,0,41286,44286,0.5854689,0.3606441 F,0,44086,44286,0.3,0 F,0,44661,44861,0,0.3 M,0,44661,47661,704.0154,480,704.0154,0 S,0,44661,47661,0.3812735,0.4490945 F,0,47461,47661,0.3,0 F,0,48036,48236,0,0.3 M,0,48036,51036,303.3788,480,303.3788,0 S,0,48036,51036,0.3191403,0.3456914 F,0,50836,51036,0.3,0 F,0,51411,51611,0,0.3 M,0,51411,54411,306.8246,480,306.8246,0 S,0,51411,54411,0.4070759,0.4822367 F,0,54211,54411,0.3,0 F,0,54786,54986,0,0.3 M,0,54786,57786,389.4103,480,389.4103,0 S,0,54786,57786,0.5254443,0.3702892 F,0,57586,57786,0.3,0 F,0,58161,58361,0,0.3 M,0,58161,61161,589.7882,480,589.7882,0 S,0,58161,61161,0.5819947,0.4556943 F,0,60961,61161,0.3,0
Sprite,Foreground,Centre,"sb\4.png",0,0 C,0,1161,,255,253,149 F,0,1161,1361,0,0.3 M,0,1161,4161,666.7471,480,666.7471,0 S,0,1161,4161,0.4326534,0.5932649 P,0,1161,61536,A F,0,3961,4161,0.3,0 F,0,4536,4736,0,0.3 M,0,4536,7536,737.2164,480,737.2164,0 S,0,4536,7536,0.4928092,0.5288891 F,0,7336,7536,0.3,0 F,0,7911,8111,0,0.3 M,0,7911,10911,426.6357,480,426.6357,0 S,0,7911,10911,0.365522,0.5686088 F,0,10711,10911,0.3,0 F,0,11286,11486,0,0.3 M,0,11286,14286,584.0601,480,584.0601,0 S,0,11286,14286,0.5380891,0.5293518 F,0,14086,14286,0.3,0 F,0,14661,14861,0,0.3 M,0,14661,17661,311.9939,480,311.9939,0 S,0,14661,17661,0.3444169,0.5032834 F,0,17461,17661,0.3,0 F,0,18036,18236,0,0.3 M,0,18036,21036,690.1173,480,690.1173,0 S,0,18036,21036,0.3392095,0.5098957 F,0,20836,21036,0.3,0 F,0,21411,21611,0,0.3 M,0,21411,24411,467.3058,480,467.3058,0 S,0,21411,24411,0.5983639,0.3904922 F,0,24211,24411,0.3,0 F,0,24786,24986,0,0.3 M,0,24786,27786,169.8386,480,169.8386,0 S,0,24786,27786,0.4261276,0.5924799 F,0,27586,27786,0.3,0 F,0,28161,28361,0,0.3 M,0,28161,31161,370.6338,480,370.6338,0 S,0,28161,31161,0.4966858,0.4023083 F,0,30961,31161,0.3,0 F,0,31536,31736,0,0.3 M,0,31536,34536,56.03913,480,56.03913,0 S,0,31536,34536,0.3187508,0.3330186 F,0,34336,34536,0.3,0 F,0,34911,35111,0,0.3 M,0,34911,37911,-105.2941,480,-105.2941,0 S,0,34911,37911,0.4672396,0.5016577 F,0,37711,37911,0.3,0 F,0,38286,38486,0,0.3 M,0,38286,41286,304.9214,480,304.9214,0 S,0,38286,41286,0.3303623,0.4315985 F,0,41086,41286,0.3,0 F,0,41661,41861,0,0.3 M,0,41661,44661,700.3605,480,700.3605,0 S,0,41661,44661,0.5555208,0.568837 F,0,44461,44661,0.3,0 F,0,45036,45236,0,0.3 M,0,45036,48036,172.6673,480,172.6673,0 S,0,45036,48036,0.3564064,0.378436 F,0,47836,48036,0.3,0 F,0,48411,48611,0,0.3 M,0,48411,51411,734.4031,480,734.4031,0 S,0,48411,51411,0.3109029,0.3996246 F,0,51211,51411,0.3,0 F,0,51786,51986,0,0.3 M,0,51786,54786,248.2564,480,248.2564,0 S,0,51786,54786,0.5382805,0.35784 F,0,54586,54786,0.3,0 F,0,55161,55361,0,0.3 M,0,55161,58161,681.7637,480,681.7637,0 S,0,55161,58161,0.4753682,0.5975265 F,0,57961,58161,0.3,0 F,0,58536,58736,0,0.3 M,0,58536,61536,50.38896,480,50.38896,0 S,0,58536,61536,0.453059,0.4154043 F,0,61336,61536,0.3,0
Sprite,Foreground,Centre,"sb\4.png",0,0 C,0,1536,,255,253,149 F,0,1536,1736,0,0.3 M,0,1536,4536,126.7436,480,126.7436,0 S,0,1536,4536,0.3875719,0.4401944 P,0,1536,61911,A F,0,4336,4536,0.3,0 F,0,4911,5111,0,0.3 M,0,4911,7911,-81.04327,480,-81.04327,0 S,0,4911,7911,0.4143014,0.4029426 F,0,7711,7911,0.3,0 F,0,8286,8486,0,0.3 M,0,8286,11286,658.5596,480,658.5596,0 S,0,8286,11286,0.325974,0.5515738 F,0,11086,11286,0.3,0 F,0,11661,11861,0,0.3 M,0,11661,14661,693.6595,480,693.6595,0 S,0,11661,14661,0.3884991,0.4568356 F,0,14461,14661,0.3,0 F,0,15036,15236,0,0.3 M,0,15036,18036,379.6619,480,379.6619,0 S,0,15036,18036,0.3676209,0.4854546 F,0,17836,18036,0.3,0 F,0,18411,18611,0,0.3 M,0,18411,21411,418.5589,480,418.5589,0 S,0,18411,21411,0.5491704,0.505538 F,0,21211,21411,0.3,0 F,0,21786,21986,0,0.3 M,0,21786,24786,-51.95656,480,-51.95656,0 S,0,21786,24786,0.4397109,0.4449222 F,0,24586,24786,0.3,0 F,0,25161,25361,0,0.3 M,0,25161,28161,649.6436,480,649.6436,0 S,0,25161,28161,0.5918662,0.3765523 F,0,27961,28161,0.3,0 F,0,28536,28736,0,0.3 M,0,28536,31536,-87.09219,480,-87.09219,0 S,0,28536,31536,0.3291858,0.5633731 F,0,31336,31536,0.3,0 F,0,31911,32111,0,0.3 M,0,31911,34911,518.8086,480,518.8086,0 S,0,31911,34911,0.3305772,0.5519482 F,0,34711,34911,0.3,0 F,0,35286,35486,0,0.3 M,0,35286,38286,216.868,480,216.868,0 S,0,35286,38286,0.5598503,0.3975087 F,0,38086,38286,0.3,0 F,0,38661,38861,0,0.3 M,0,38661,41661,-5.022889,480,-5.022889,0 S,0,38661,41661,0.5578899,0.468714 F,0,41461,41661,0.3,0 F,0,42036,42236,0,0.3 M,0,42036,45036,291.7335,480,291.7335,0 S,0,42036,45036,0.5533019,0.4068594 F,0,44836,45036,0.3,0 F,0,45411,45611,0,0.3 M,0,45411,48411,418.5953,480,418.5953,0 S,0,45411,48411,0.4766675,0.5724209 F,0,48211,48411,0.3,0 F,0,48786,48986,0,0.3 M,0,48786,51786,-77.91111,480,-77.91111,0 S,0,48786,51786,0.4551703,0.4720284 F,0,51586,51786,0.3,0 F,0,52161,52361,0,0.3 M,0,52161,55161,-19.7144,480,-19.7144,0 S,0,52161,55161,0.3404742,0.4575272 F,0,54961,55161,0.3,0 F,0,55536,55736,0,0.3 M,0,55536,58536,-62.53968,480,-62.53968,0 S,0,55536,58536,0.4648469,0.3480943 F,0,58336,58536,0.3,0 F,0,58911,59111,0,0.3 M,0,58911,61911,215.2088,480,215.2088,0 S,0,58911,61911,0.4562794,0.4150299 F,0,61711,61911,0.3,0
Sprite,Foreground,Centre,"sb\4.png",0,0 C,0,1911,,255,253,149 F,0,1911,2111,0,0.3 M,0,1911,4911,433.2909,480,433.2909,0 S,0,1911,4911,0.4408536,0.5946454 P,0,1911,62286,A F,0,4711,4911,0.3,0 F,0,5286,5486,0,0.3 M,0,5286,8286,710.6667,480,710.6667,0 S,0,5286,8286,0.4515388,0.5147917 F,0,8086,8286,0.3,0 F,0,8661,8861,0,0.3 M,0,8661,11661,38.30198,480,38.30198,0 S,0,8661,11661,0.4932346,0.5480443 F,0,11461,11661,0.3,0 F,0,12036,12236,0,0.3 M,0,12036,15036,459.5375,480,459.5375,0 S,0,12036,15036,0.3997767,0.3860167 F,0,14836,15036,0.3,0 F,0,15411,15611,0,0.3 M,0,15411,18411,-102.6598,480,-102.6598,0 S,0,15411,18411,0.4082817,0.5551455 F,0,18211,18411,0.3,0 F,0,18786,18986,0,0.3 M,0,18786,21786,379.5601,480,379.5601,0 S,0,18786,21786,0.3518303,0.3553598 F,0,21586,21786,0.3,0 F,0,22161,22361,0,0.3 M,0,22161,25161,77.72532,480,77.72532,0 S,0,22161,25161,0.3215069,0.3690722 F,0,24961,25161,0.3,0 F,0,25536,25736,0,0.3 M,0,25536,28536,5.954066,480,5.954066,0 S,0,25536,28536,0.569176,0.3534664 F,0,28336,28536,0.3,0 F,0,28911,29111,0,0.3 M,0,28911,31911,500.085,480,500.085,0 S,0,28911,31911,0.5676417,0.4953793 F,0,31711,31911,0.3,0 F,0,32286,32486,0,0.3 M,0,32286,35286,441.8408,480,441.8408,0 S,0,32286,35286,0.4718924,0.3724902 F,0,35086,35286,0.3,0 F,0,35661,35861,0,0.3 M,0,35661,38661,564.7862,480,564.7862,0 S,0,35661,38661,0.455988,0.5488909 F,0,38461,38661,0.3,0 F,0,39036,39236,0,0.3 M,0,39036,42036,492.6685,480,492.6685,0 S,0,39036,42036,0.492202,0.3046528 F,0,41836,42036,0.3,0 F,0,42411,42611,0,0.3 M,0,42411,45411,364.2183,480,364.2183,0 S,0,42411,45411,0.3912874,0.4256258 F,0,45211,45411,0.3,0 F,0,45786,45986,0,0.3 M,0,45786,48786,200.639,480,200.639,0 S,0,45786,48786,0.5270402,0.5366812 F,0,48586,48786,0.3,0 F,0,49161,49361,0,0.3 M,0,49161,52161,626.7705,480,626.7705,0 S,0,49161,52161,0.3672896,0.334881 F,0,51961,52161,0.3,0 F,0,52536,52736,0,0.3 M,0,52536,55536,538.4232,480,538.4232,0 S,0,52536,55536,0.412495,0.5161374 F,0,55336,55536,0.3,0 F,0,55911,56111,0,0.3 M,0,55911,58911,717.9403,480,717.9403,0 S,0,55911,58911,0.4329675,0.4290091 F,0,58711,58911,0.3,0 F,0,59286,59486,0,0.3 M,0,59286,62286,141.3374,480,141.3374,0 S,0,59286,62286,0.5496462,0.5371269 F,0,62086,62286,0.3,0
Sprite,Foreground,Centre,"sb\4.png",0,0 C,0,2286,,255,253,149 F,0,2286,2486,0,0.3 M,0,2286,5286,-81.06659,480,-81.06659,0 S,0,2286,5286,0.5587111,0.5986041 P,0,2286,62661,A F,0,5086,5286,0.3,0 F,0,5661,5861,0,0.3 M,0,5661,8661,-5.4101,480,-5.4101,0 S,0,5661,8661,0.3820354,0.5721294 F,0,8461,8661,0.3,0 F,0,9036,9236,0,0.3 M,0,9036,12036,80.18626,480,80.18626,0 S,0,9036,12036,0.5999918,0.4444097 F,0,11836,12036,0.3,0 F,0,12411,12611,0,0.3 M,0,12411,15411,593.801,480,593.801,0 S,0,12411,15411,0.3667554,0.3560615 F,0,15211,15411,0.3,0 F,0,15786,15986,0,0.3 M,0,15786,18786,-53.78861,480,-53.78861,0 S,0,15786,18786,0.3844942,0.5114928 F,0,18586,18786,0.3,0 F,0,19161,19361,0,0.3 M,0,19161,22161,413.1807,480,413.1807,0 S,0,19161,22161,0.3752245,0.5991344 F,0,21961,22161,0.3,0 F,0,22536,22736,0,0.3 M,0,22536,25536,21.81108,480,21.81108,0 S,0,22536,25536,0.43407,0.4353238 F,0,25336,25536,0.3,0 F,0,25911,26111,0,0.3 M,0,25911,28911,646.9897,480,646.9897,0 S,0,25911,28911,0.4633972,0.5355136 F,0,28711,28911,0.3,0 F,0,29286,29486,0,0.3 M,0,29286,32286,111.0327,480,111.0327,0 S,0,29286,32286,0.3794499,0.4422038 F,0,32086,32286,0.3,0 F,0,32661,32861,0,0.3 M,0,32661,35661,607.9631,480,607.9631,0 S,0,32661,35661,0.5578742,0.4342114 F,0,35461,35661,0.3,0 F,0,36036,36236,0,0.3 M,0,36036,39036,355.1867,480,355.1867,0 S,0,36036,39036,0.4567532,0.3488728 F,0,38836,39036,0.3,0 F,0,39411,39611,0,0.3 M,0,39411,42411,379.3031,480,379.3031,0 S,0,39411,42411,0.437387,0.5980239 F,0,42211,42411,0.3,0 F,0,42786,42986,0,0.3 M,0,42786,45786,226.8925,480,226.8925,0 S,0,42786,45786,0.4265373,0.4988633 F,0,45586,45786,0.3,0 F,0,46161,46361,0,0.3 M,0,46161,49161,-5.044554,480,-5.044554,0 S,0,46161,49161,0.3307621,0.4840851 F,0,48961,49161,0.3,0 F,0,49536,49736,0,0.3 M,0,49536,52536,27.33361,480,27.33361,0 S,0,49536,52536,0.5326571,0.5498698 F,0,52336,52536,0.3,0 F,0,52911,53111,0,0.3 M,0,52911,55911,283.1544,480,283.1544,0 S,0,52911,55911,0.3255971,0.4755919 F,0,55711,55911,0.3,0 F,0,56286,56486,0,0.3 M,0,56286,59286,681.6434,480,681.6434,0 S,0,56286,59286,0.3165274,0.4921829 F,0,59086,59286,0.3,0 F,0,59661,59861,0,0.3 M,0,59661,62661,515.3122,480,515.3122,0 S,0,59661,62661,0.4214382,0.4607502 F,0,62461,62661,0.3,0
Sprite,Foreground,Centre,"sb\4.png",0,0 C,0,2661,,255,253,149 F,0,2661,2861,0,0.3 M,0,2661,5661,471.3127,480,471.3127,0 S,0,2661,5661,0.3943775,0.5450724 P,0,2661,63036,A F,0,5461,5661,0.3,0 F,0,6036,6236,0,0.3 M,0,6036,9036,571.7298,480,571.7298,0 S,0,6036,9036,0.4011481,0.4371626 F,0,8836,9036,0.3,0 F,0,9411,9611,0,0.3 M,0,9411,12411,449.9833,480,449.9833,0 S,0,9411,12411,0.5159178,0.5428388 F,0,12211,12411,0.3,0 F,0,12786,12986,0,0.3 M,0,12786,15786,-48.4849,480,-48.4849,0 S,0,12786,15786,0.4873868,0.5079135 F,0,15586,15786,0.3,0 F,0,16161,16361,0,0.3 M,0,16161,19161,711.6276,480,711.6276,0 S,0,16161,19161,0.5966437,0.4161411 F,0,18961,19161,0.3,0 F,0,19536,19736,0,0.3 M,0,19536,22536,378.6608,480,378.6608,0 S,0,19536,22536,0.319031,0.3791051 F,0,22336,22536,0.3,0 F,0,22911,23111,0,0.3 M,0,22911,25911,-90.04867,480,-90.04867,0 S,0,22911,25911,0.4166514,0.5448135 F,0,25711,25911,0.3,0 F,0,26286,26486,0,0.3 M,0,26286,29286,331.9908,480,331.9908,0 S,0,26286,29286,0.405715,0.5975241 F,0,29086,29286,0.3,0 F,0,29661,29861,0,0.3 M,0,29661,32661,60.30273,480,60.30273,0 S,0,29661,32661,0.5662754,0.4474754 F,0,32461,32661,0.3,0 F,0,33036,33236,0,0.3 M,0,33036,36036,667.693,480,667.693,0 S,0,33036,36036,0.5409505,0.4380733 F,0,35836,36036,0.3,0 F,0,36411,36611,0,0.3 M,0,36411,39411,434.5943,480,434.5943,0 S,0,36411,39411,0.4659702,0.394383 F,0,39211,39411,0.3,0 F,0,39786,39986,0,0.3 M,0,39786,42786,-2.519628,480,-2.519628,0 S,0,39786,42786,0.3361499,0.3849625 F,0,42586,42786,0.3,0 F,0,43161,43361,0,0.3 M,0,43161,46161,405.852,480,405.852,0 S,0,43161,46161,0.5795992,0.5737683 F,0,45961,46161,0.3,0 F,0,46536,46736,0,0.3 M,0,46536,49536,437.1816,480,437.1816,0 S,0,46536,49536,0.4711694,0.5448625 F,0,49336,49536,0.3,0 F,0,49911,50111,0,0.3 M,0,49911,52911,537.6061,480,537.6061,0 S,0,49911,52911,0.3720889,0.3525589 F,0,52711,52911,0.3,0 F,0,53286,53486,0,0.3 M,0,53286,56286,-72.67857,480,-72.67857,0 S,0,53286,56286,0.5333997,0.4038798 F,0,56086,56286,0.3,0 F,0,56661,56861,0,0.3 M,0,56661,59661,155.8687,480,155.8687,0 S,0,56661,59661,0.599713,0.5595939 F,0,59461,59661,0.3,0 F,0,60036,60236,0,0.3 M,0,60036,63036,255.9429,480,255.9429,0 S,0,60036,63036,0.322265,0.4004322 F,0,62836,63036,0.3,0
Sprite,Foreground,Centre,"sb\4.png",0,0 C,0,3036,,255,253,149 F,0,3036,3236,0,0.3 M,0,3036,6036,617.2362,480,617.2362,0 S,0,3036,6036,0.5975707,0.3097876 P,0,3036,63411,A F,0,5836,6036,0.3,0 F,0,6411,6611,0,0.3 M,0,6411,9411,18.38858,480,18.38858,0 S,0,6411,9411,0.3663944,0.423022 F,0,9211,9411,0.3,0 F,0,9786,9986,0,0.3 M,0,9786,12786,-20.80117,480,-20.80117,0 S,0,9786,12786,0.5187282,0.5155352 F,0,12586,12786,0.3,0 F,0,13161,13361,0,0.3 M,0,13161,16161,431.3568,480,431.3568,0 S,0,13161,16161,0.5782912,0.3664026 F,0,15961,16161,0.3,0 F,0,16536,16736,0,0.3 M,0,16536,19536,339.4201,480,339.4201,0 S,0,16536,19536,0.3840976,0.4519728 F,0,19336,19536,0.3,0 F,0,19911,20111,0,0.3 M,0,19911,22911,612.5463,480,612.5463,0 S,0,19911,22911,0.4704258,0.493797 F,0,22711,22911,0.3,0 F,0,23286,23486,0,0.3 M,0,23286,26286,66.02398,480,66.02398,0 S,0,23286,26286,0.5740888,0.3088731 F,0,26086,26286,0.3,0 F,0,26661,26861,0,0.3 M,0,26661,29661,-78.43963,480,-78.43963,0 S,0,26661,29661,0.5075182,0.3363558 F,0,29461,29661,0.3,0 F,0,30036,30236,0,0.3 M,0,30036,33036,437.7014,480,437.7014,0 S,0,30036,33036,0.3959137,0.4106916 F,0,32836,33036,0.3,0 F,0,33411,33611,0,0.3 M,0,33411,36411,183.7722,480,183.7722,0 S,0,33411,36411,0.5334406,0.4280683 F,0,36211,36411,0.3,0 F,0,36786,36986,0,0.3 M,0,36786,39786,106.4578,480,106.4578,0 S,0,36786,39786,0.5401891,0.4380395 F,0,39586,39786,0.3,0 F,0,40161,40361,0,0.3 M,0,40161,43161,431.5392,480,431.5392,0 S,0,40161,43161,0.5397841,0.3766874 F,0,42961,43161,0.3,0 F,0,43536,43736,0,0.3 M,0,43536,46536,148.4321,480,148.4321,0 S,0,43536,46536,0.5041527,0.402802 F,0,46336,46536,0.3,0 F,0,46911,47111,0,0.3 M,0,46911,49911,631.2453,480,631.2453,0 S,0,46911,49911,0.3718899,0.4132468 F,0,49711,49911,0.3,0 F,0,50286,50486,0,0.3 M,0,50286,53286,-1.425423,480,-1.425423,0 S,0,50286,53286,0.3539145,0.4733905 F,0,53086,53286,0.3,0 F,0,53661,53861,0,0.3 M,0,53661,56661,490.7473,480,490.7473,0 S,0,53661,56661,0.5121469,0.4392329 F,0,56461,56661,0.3,0 F,0,57036,57236,0,0.3 M,0,57036,60036,281.3469,480,281.3469,0 S,0,57036,60036,0.5000305,0.3283174 F,0,59836,60036,0.3,0 F,0,60411,60611,0,0.3 M,0,60411,63411,675.4651,480,675.4651,0 S,0,60411,63411,0.5329405,0.4956196 F,0,63211,63411,0.3,0
Sprite,Foreground,Centre,"sb\4.png",0,0 C,0,3411,,255,253,149 F,0,3411,3611,0,0.3 M,0,3411,6411,490.7505,480,490.7505,0 S,0,3411,6411,0.4578852,0.5802056 P,0,3411,63786,A F,0,6211,6411,0.3,0 F,0,6786,6986,0,0.3 M,0,6786,9786,506.7927,480,506.7927,0 S,0,6786,9786,0.4859491,0.4463904 F,0,9586,9786,0.3,0 F,0,10161,10361,0,0.3 M,0,10161,13161,0.2002701,480,0.2002701,0 S,0,10161,13161,0.5715529,0.3567371 F,0,12961,13161,0.3,0 F,0,13536,13736,0,0.3 M,0,13536,16536,686.1163,480,686.1163,0 S,0,13536,16536,0.3199565,0.5700313 F,0,16336,16536,0.3,0 F,0,16911,17111,0,0.3 M,0,16911,19911,346.9685,480,346.9685,0 S,0,16911,19911,0.3171025,0.3841661 F,0,19711,19911,0.3,0 F,0,20286,20486,0,0.3 M,0,20286,23286,333.9767,480,333.9767,0 S,0,20286,23286,0.5910382,0.3233128 F,0,23086,23286,0.3,0 F,0,23661,23861,0,0.3 M,0,23661,26661,328.08,480,328.08,0 S,0,23661,26661,0.5888669,0.5980715 F,0,26461,26661,0.3,0 F,0,27036,27236,0,0.3 M,0,27036,30036,59.45379,480,59.45379,0 S,0,27036,30036,0.448955,0.4743868 F,0,29836,30036,0.3,0 F,0,30411,30611,0,0.3 M,0,30411,33411,101.8301,480,101.8301,0 S,0,30411,33411,0.5986262,0.4831519 F,0,33211,33411,0.3,0 F,0,33786,33986,0,0.3 M,0,33786,36786,445.6862,480,445.6862,0 S,0,33786,36786,0.5997018,0.4826797 F,0,36586,36786,0.3,0 F,0,37161,37361,0,0.3 M,0,37161,40161,680.0471,480,680.0471,0 S,0,37161,40161,0.4012191,0.3576757 F,0,39961,40161,0.3,0 F,0,40536,40736,0,0.3 M,0,40536,43536,118.4433,480,118.4433,0 S,0,40536,43536,0.3038964,0.4337316 F,0,43336,43536,0.3,0 F,0,43911,44111,0,0.3 M,0,43911,46911,291.5776,480,291.5776,0 S,0,43911,46911,0.5397775,0.3650692 F,0,46711,46911,0.3,0 F,0,47286,47486,0,0.3 M,0,47286,50286,399.2059,480,399.2059,0 S,0,47286,50286,0.4990368,0.3242972 F,0,50086,50286,0.3,0 F,0,50661,50861,0,0.3 M,0,50661,53661,515.6141,480,515.6141,0 S,0,50661,53661,0.5488511,0.3686082 F,0,53461,53661,0.3,0 F,0,54036,54236,0,0.3 M,0,54036,57036,358.0798,480,358.0798,0 S,0,54036,57036,0.5513816,0.4269479 F,0,56836,57036,0.3,0 F,0,57411,57611,0,0.3 M,0,57411,60411,740.7336,480,740.7336,0 S,0,57411,60411,0.5066602,0.3154514 F,0,60211,60411,0.3,0 F,0,60786,60986,0,0.3 M,0,60786,63786,596.2688,480,596.2688,0 S,0,60786,63786,0.3710343,0.5516687 F,0,63586,63786,0.3,0
Sprite,Foreground,Centre,"sb\4.png",0,0 C,0,61161,,255,253,149 F,0,61161,61361,0,0.3 M,0,61161,64161,369.4012,480,369.4012,0 S,0,61161,64161,0.4353167,0.5228457 P,0,61161,108036,A F,0,63961,64161,0.3,0 F,0,64536,64736,0,0.3 M,0,64536,67536,505.0878,480,505.0878,0 S,0,64536,67536,0.5898578,0.5772847 F,0,67336,67536,0.3,0 F,0,67911,68111,0,0.3 M,0,67911,70911,466.8935,480,466.8935,0 S,0,67911,70911,0.4448871,0.5175059 F,0,70711,70911,0.3,0 F,0,71286,71486,0,0.3 M,0,71286,74286,168.0818,480,168.0818,0 S,0,71286,74286,0.3944954,0.3285919 F,0,74086,74286,0.3,0 F,0,74661,74861,0,0.3 M,0,74661,77661,158.3806,480,158.3806,0 S,0,74661,77661,0.3888265,0.394404 F,0,77461,77661,0.3,0 F,0,78036,78236,0,0.3 M,0,78036,81036,714.2087,480,714.2087,0 S,0,78036,81036,0.3554387,0.5361377 F,0,80836,81036,0.3,0 F,0,81411,81611,0,0.3 M,0,81411,84411,376.7609,480,376.7609,0 S,0,81411,84411,0.3131017,0.4908453 F,0,84211,84411,0.3,0 F,0,84786,84986,0,0.3 M,0,84786,87786,-94.13783,480,-94.13783,0 S,0,84786,87786,0.3277088,0.3177648 F,0,87586,87786,0.3,0 F,0,88161,88361,0,0.3 M,0,88161,91161,584.3658,480,584.3658,0 S,0,88161,91161,0.37499,0.3802363 F,0,90961,91161,0.3,0 F,0,91536,91736,0,0.3 M,0,91536,94536,726.0267,480,726.0267,0 S,0,91536,94536,0.500429,0.4392907 F,0,94336,94536,0.3,0 F,0,94911,95111,0,0.3 M,0,94911,97911,-2.022895,480,-2.022895,0 S,0,94911,97911,0.3577935,0.5218243 F,0,97711,97911,0.3,0 F,0,98286,98486,0,0.3 M,0,98286,101286,114.1288,480,114.1288,0 S,0,98286,101286,0.5044747,0.4326913 F,0,101086,101286,0.3,0 F,0,101661,101861,0,0.3 M,0,101661,104661,169.1387,480,169.1387,0 S,0,101661,104661,0.563141,0.5375624 F,0,104461,104661,0.3,0 F,0,105036,105236,0,0.3 M,0,105036,108036,608.4404,480,608.4404,0 S,0,105036,108036,0.5212291,0.3599705 F,0,107836,108036,0.3,0
Sprite,Foreground,Centre,"sb\4.png",0,0 C,0,61536,,255,253,149 F,0,61536,61736,0,0.3 M,0,61536,64536,508.8323,480,508.8323,0 S,0,61536,64536,0.4765843,0.3187841 P,0,61536,108411,A F,0,64336,64536,0.3,0 F,0,64911,65111,0,0.3 M,0,64911,67911,478.3029,480,478.3029,0 S,0,64911,67911,0.5977234,0.5109603 F,0,67711,67911,0.3,0 F,0,68286,68486,0,0.3 M,0,68286,71286,303.6414,480,303.6414,0 S,0,68286,71286,0.3487674,0.3062832 F,0,71086,71286,0.3,0 F,0,71661,71861,0,0.3 M,0,71661,74661,485.6679,480,485.6679,0 S,0,71661,74661,0.4702384,0.4278265 F,0,74461,74661,0.3,0 F,0,75036,75236,0,0.3 M,0,75036,78036,-44.34795,480,-44.34795,0 S,0,75036,78036,0.4162543,0.4590982 F,0,77836,78036,0.3,0 F,0,78411,78611,0,0.3 M,0,78411,81411,429.2327,480,429.2327,0 S,0,78411,81411,0.406109,0.3154199 F,0,81211,81411,0.3,0 F,0,81786,81986,0,0.3 M,0,81786,84786,-27.16098,480,-27.16098,0 S,0,81786,84786,0.4581387,0.3657269 F,0,84586,84786,0.3,0 F,0,85161,85361,0,0.3 M,0,85161,88161,575.3732,480,575.3732,0 S,0,85161,88161,0.4208933,0.4229341 F,0,87961,88161,0.3,0 F,0,88536,88736,0,0.3 M,0,88536,91536,501.484,480,501.484,0 S,0,88536,91536,0.4661534,0.5054465 F,0,91336,91536,0.3,0 F,0,91911,92111,0,0.3 M,0,91911,94911,-7.459544,480,-7.459544,0 S,0,91911,94911,0.3269834,0.4941046 F,0,94711,94911,0.3,0 F,0,95286,95486,0,0.3 M,0,95286,98286,420.895,480,420.895,0 S,0,95286,98286,0.3520171,0.5351726 F,0,98086,98286,0.3,0 F,0,98661,98861,0,0.3 M,0,98661,101661,-105.649,480,-105.649,0 S,0,98661,101661,0.4864492,0.5778704 F,0,101461,101661,0.3,0 F,0,102036,102236,0,0.3 M,0,102036,105036,23.63305,480,23.63305,0 S,0,102036,105036,0.4592462,0.3209973 F,0,104836,105036,0.3,0 F,0,105411,105611,0,0.3 M,0,105411,108411,299.6104,480,299.6104,0 S,0,105411,108411,0.4022618,0.4177666 F,0,108211,108411,0.3,0
Sprite,Foreground,Centre,"sb\4.png",0,0 C,0,61911,,255,253,149 F,0,61911,62111,0,0.3 M,0,61911,64911,49.10522,480,49.10522,0 S,0,61911,64911,0.3123549,0.565143 P,0,61911,108786,A F,0,64711,64911,0.3,0 F,0,65286,65486,0,0.3 M,0,65286,68286,473.7927,480,473.7927,0 S,0,65286,68286,0.4879348,0.3177424 F,0,68086,68286,0.3,0 F,0,68661,68861,0,0.3 M,0,68661,71661,275.5605,480,275.5605,0 S,0,68661,71661,0.4398188,0.3224971 F,0,71461,71661,0.3,0 F,0,72036,72236,0,0.3 M,0,72036,75036,305.8541,480,305.8541,0 S,0,72036,75036,0.3024236,0.3430477 F,0,74836,75036,0.3,0 F,0,75411,75611,0,0.3 M,0,75411,78411,95.33955,480,95.33955,0 S,0,75411,78411,0.337756,0.3453234 F,0,78211,78411,0.3,0 F,0,78786,78986,0,0.3 M,0,78786,81786,572.8888,480,572.8888,0 S,0,78786,81786,0.3518057,0.5135971 F,0,81586,81786,0.3,0 F,0,82161,82361,0,0.3 M,0,82161,85161,677.0718,480,677.0718,0 S,0,82161,85161,0.3825986,0.5823172 F,0,84961,85161,0.3,0 F,0,85536,85736,0,0.3 M,0,85536,88536,85.84046,480,85.84046,0 S,0,85536,88536,0.3688974,0.338704 F,0,88336,88536,0.3,0 F,0,88911,89111,0,0.3 M,0,88911,91911,27.86413,480,27.86413,0 S,0,88911,91911,0.5709167,0.3548898 F,0,91711,91911,0.3,0 F,0,92286,92486,0,0.3 M,0,92286,95286,660.7019,480,660.7019,0 S,0,92286,95286,0.424874,0.5939074 F,0,95086,95286,0.3,0 F,0,95661,95861,0,0.3 M,0,95661,98661,60.67875,480,60.67875,0 S,0,95661,98661,0.3547438,0.3704877 F,0,98461,98661,0.3,0 F,0,99036,99236,0,0.3 M,0,99036,102036,580.9881,480,580.9881,0 S,0,99036,102036,0.5328073,0.3670805 F,0,101836,102036,0.3,0 F,0,102411,102611,0,0.3 M,0,102411,105411,133.504,480,133.504,0 S,0,102411,105411,0.5812237,0.4502691 F,0,105211,105411,0.3,0 F,0,105786,105986,0,0.3 M,0,105786,108786,114.2654,480,114.2654,0 S,0,105786,108786,0.4446777,0.5696663 F,0,108586,108786,0.3,0
Sprite,Foreground,Centre,"sb\4.png",0,0 C,0,62286,,255,253,149 F,0,62286,62486,0,0.3 M,0,62286,65286,451.7922,480,451.7922,0 S,0,62286,65286,0.370845,0.4828523 P,0,62286,109161,A F,0,65086,65286,0.3,0 F,0,65661,65861,0,0.3 M,0,65661,68661,441.1502,480,441.1502,0 S,0,65661,68661,0.4968535,0.579695 F,0,68461,68661,0.3,0 F,0,69036,69236,0,0.3 M,0,69036,72036,712.4366,480,712.4366,0 S,0,69036,72036,0.5906871,0.3731216 F,0,71836,72036,0.3,0 F,0,72411,72611,0,0.3 M,0,72411,75411,178.3399,480,178.3399,0 S,0,72411,75411,0.3483052,0.4480861 F,0,75211,75411,0.3,0 F,0,75786,75986,0,0.3 M,0,75786,78786,729.6501,480,729.6501,0 S,0,75786,78786,0.3796611,0.4204487 F,0,78586,78786,0.3,0 F,0,79161,79361,0,0.3 M,0,79161,82161,600.8058,480,600.8058,0 S,0,79161,82161,0.3782276,0.5320508 F,0,81961,82161,0.3,0 F,0,82536,82736,0,0.3 M,0,82536,85536,203.8152,480,203.8152,0 S,0,82536,85536,0.405533,0.5735521 F,0,85336,85536,0.3,0 F,0,85911,86111,0,0.3 M,0,85911,88911,-42.23317,480,-42.23317,0 S,0,85911,88911,0.5205972,0.5200889 F,0,88711,88911,0.3,0 F,0,89286,89486,0,0.3 M,0,89286,92286,646.0927,480,646.0927,0 S,0,89286,92286,0.4694761,0.5846397 F,0,92086,92286,0.3,0 F,0,92661,92861,0,0.3 M,0,92661,95661,628.7713,480,628.7713,0 S,0,92661,95661,0.4089986,0.3544438 F,0,95461,95661,0.3,0 F,0,96036,96236,0,0.3 M,0,96036,99036,506.7387,480,506.7387,0 S,0,96036,99036,0.5295851,0.4424927 F,0,98836,99036,0.3,0 F,0,99411,99611,0,0.3 M,0,99411,102411,98.1964,480,98.1964,0 S,0,99411,102411,0.3730245,0.3569816 F,0,102211,102411,0.3,0 F,0,102786,102986,0,0.3 M,0,102786,105786,569.9272,480,569.9272,0 S,0,102786,105786,0.5151245,0.3431358 F,0,105586,105786,0.3,0 F,0,106161,106361,0,0.3 M,0,106161,109161,261.6949,480,261.6949,0 S,0,106161,109161,0.3261932,0.5137782 F,0,108961,109161,0.3,0
Sprite,Foreground,Centre,"sb\4.png",0,0 C,0,62661,,255,253,149 F,0,62661,62861,0,0.3 M,0,62661,65661,440.6989,480,440.6989,0 S,0,62661,65661,0.5345028,0.5799084 P,0,62661,109536,A F,0,65461,65661,0.3,0 F,0,66036,66236,0,0.3 M,0,66036,69036,166.9798,480,166.9798,0 S,0,66036,69036,0.3324001,0.5372913 F,0,68836,69036,0.3,0 F,0,69411,69611,0,0.3 M,0,69411,72411,666.9857,480,666.9857,0 S,0,69411,72411,0.5883746,0.346568 F,0,72211,72411,0.3,0 F,0,72786,72986,0,0.3 M,0,72786,75786,671.3124,480,671.3124,0 S,0,72786,75786,0.5618569,0.4925813 F,0,75586,75786,0.3,0 F,0,76161,76361,0,0.3 M,0,76161,79161,591.2731,480,591.2731,0 S,0,76161,79161,0.4268612,0.5859509 F,0,78961,79161,0.3,0 F,0,79536,79736,0,0.3 M,0,79536,82536,715.6523,480,715.6523,0 S,0,79536,82536,0.5023324,0.5241009 F,0,82336,82536,0.3,0 F,0,82911,83111,0,0.3 M,0,82911,85911,191.9819,480,191.9819,0 S,0,82911,85911,0.3064582,0.3750555 F,0,85711,85911,0.3,0 F,0,86286,86486,0,0.3 M,0,86286,89286,366.4688,480,366.4688,0 S,0,86286,89286,0.3135529,0.4197337 F,0,89086,89286,0.3,0 F,0,89661,89861,0,0.3 M,0,89661,92661,321.7593,480,321.7593,0 S,0,89661,92661,0.3372862,0.5375608 F,0,92461,92661,0.3,0 F,0,93036,93236,0,0.3 M,0,93036,96036,-65.31787,480,-65.31787,0 S,0,93036,96036,0.4189478,0.3426362 F,0,95836,96036,0.3,0 F,0,96411,96611,0,0.3 M,0,96411,99411,150.7232,480,150.7232,0 S,0,96411,99411,0.4809335,0.5124123 F,0,99211,99411,0.3,0 F,0,99786,99986,0,0.3 M,0,99786,102786,232.5253,480,232.5253,0 S,0,99786,102786,0.5557389,0.364204 F,0,102586,102786,0.3,0 F,0,103161,103361,0,0.3 M,0,103161,106161,361.6249,480,361.6249,0 S,0,103161,106161,0.4488531,0.5481262 F,0,105961,106161,0.3,0 F,0,106536,106736,0,0.3 M,0,106536,109536,-4.564863,480,-4.564863,0 S,0,106536,109536,0.334785,0.5745152 F,0,109336,109536,0.3,0
Sprite,Foreground,Centre,"sb\4.png",0,0 C,0,63036,,255,253,149 F,0,63036,63236,0,0.3 M,0,63036,66036,-68.27174,480,-68.27174,0 S,0,63036,66036,0.4638529,0.460248 P,0,63036,106536,A F,0,65836,66036,0.3,0 F,0,66411,66611,0,0.3 M,0,66411,69411,667.2474,480,667.2474,0 S,0,66411,69411,0.3223138,0.3505932 F,0,69211,69411,0.3,0 F,0,69786,69986,0,0.3 M,0,69786,72786,639.2994,480,639.2994,0 S,0,69786,72786,0.4210461,0.5669994 F,0,72586,72786,0.3,0 F,0,73161,73361,0,0.3 M,0,73161,76161,504.4476,480,504.4476,0 S,0,73161,76161,0.5841256,0.3316267 F,0,75961,76161,0.3,0 F,0,76536,76736,0,0.3 M,0,76536,79536,-96.97899,480,-96.97899,0 S,0,76536,79536,0.4619296,0.3727409 F,0,79336,79536,0.3,0 F,0,79911,80111,0,0.3 M,0,79911,82911,312.1942,480,312.1942,0 S,0,79911,82911,0.520889,0.5044644 F,0,82711,82911,0.3,0 F,0,83286,83486,0,0.3 M,0,83286,86286,98.96722,480,98.96722,0 S,0,83286,86286,0.3548765,0.383702 F,0,86086,86286,0.3,0 F,0,86661,86861,0,0.3 M,0,86661,89661,581.2775,480,581.2775,0 S,0,86661,89661,0.3380723,0.415356 F,0,89461,89661,0.3,0 F,0,90036,90236,0,0.3 M,0,90036,93036,-3.519274,480,-3.519274,0 S,0,90036,93036,0.349602,0.4342793 F,0,92836,93036,0.3,0 F,0,93411,93611,0,0.3 M,0,93411,96411,77.58904,480,77.58904,0 S,0,93411,96411,0.5772312,0.4685962 F,0,96211,96411,0.3,0 F,0,96786,96986,0,0.3 M,0,96786,99786,586.6002,480,586.6002,0 S,0,96786,99786,0.3778839,0.5406033 F,0,99586,99786,0.3,0 F,0,100161,100361,0,0.3 M,0,100161,103161,667.716,480,667.716,0 S,0,100161,103161,0.4492448,0.3476461 F,0,102961,103161,0.3,0 F,0,103536,103736,0,0.3 M,0,103536,106536,306.7111,480,306.7111,0 S,0,103536,106536,0.4715704,0.3048594 F,0,106336,106536,0.3,0
Sprite,Foreground,Centre,"sb\4.png",0,0 C,0,63411,,255,253,149 F,0,63411,63611,0,0.3 M,0,63411,66411,112.6289,480,112.6289,0 S,0,63411,66411,0.3051047,0.3500668 P,0,63411,106911,A F,0,66211,66411,0.3,0 F,0,66786,66986,0,0.3 M,0,66786,69786,684.0828,480,684.0828,0 S,0,66786,69786,0.5350974,0.3877622 F,0,69586,69786,0.3,0 F,0,70161,70361,0,0.3 M,0,70161,73161,406.9742,480,406.9742,0 S,0,70161,73161,0.5809072,0.5727046 F,0,72961,73161,0.3,0 F,0,73536,73736,0,0.3 M,0,73536,76536,682.8693,480,682.8693,0 S,0,73536,76536,0.306006,0.5467229 F,0,76336,76536,0.3,0 F,0,76911,77111,0,0.3 M,0,76911,79911,231.5064,480,231.5064,0 S,0,76911,79911,0.5071412,0.3190503 F,0,79711,79911,0.3,0 F,0,80286,80486,0,0.3 M,0,80286,83286,494.1535,480,494.1535,0 S,0,80286,83286,0.3321766,0.4791448 F,0,83086,83286,0.3,0 F,0,83661,83861,0,0.3 M,0,83661,86661,293.4977,480,293.4977,0 S,0,83661,86661,0.4299253,0.3048088 F,0,86461,86661,0.3,0 F,0,87036,87236,0,0.3 M,0,87036,90036,550.3304,480,550.3304,0 S,0,87036,90036,0.4061493,0.3257184 F,0,89836,90036,0.3,0 F,0,90411,90611,0,0.3 M,0,90411,93411,358.7519,480,358.7519,0 S,0,90411,93411,0.5743662,0.4163724 F,0,93211,93411,0.3,0 F,0,93786,93986,0,0.3 M,0,93786,96786,265.1059,480,265.1059,0 S,0,93786,96786,0.3802943,0.368863 F,0,96586,96786,0.3,0 F,0,97161,97361,0,0.3 M,0,97161,100161,120.265,480,120.265,0 S,0,97161,100161,0.4489706,0.4554184 F,0,99961,100161,0.3,0 F,0,100536,100736,0,0.3 M,0,100536,103536,-32.69202,480,-32.69202,0 S,0,100536,103536,0.3401813,0.4993608 F,0,103336,103536,0.3,0 F,0,103911,104111,0,0.3 M,0,103911,106911,415.71,480,415.71,0 S,0,103911,106911,0.5605643,0.4932317 F,0,106711,106911,0.3,0
Sprite,Foreground,Centre,"sb\4.png",0,0 C,0,63786,,255,253,149 F,0,63786,63986,0,0.3 M,0,63786,66786,-43.04406,480,-43.04406,0 S,0,63786,66786,0.5178108,0.3785923 P,0,63786,107286,A F,0,66586,66786,0.3,0 F,0,67161,67361,0,0.3 M,0,67161,70161,236.091,480,236.091,0 S,0,67161,70161,0.5612659,0.3690875 F,0,69961,70161,0.3,0 F,0,70536,70736,0,0.3 M,0,70536,73536,214.0341,480,214.0341,0 S,0,70536,73536,0.3504831,0.495497 F,0,73336,73536,0.3,0 F,0,73911,74111,0,0.3 M,0,73911,76911,10.26618,480,10.26618,0 S,0,73911,76911,0.4583577,0.4402197 F,0,76711,76911,0.3,0 F,0,77286,77486,0,0.3 M,0,77286,80286,121.0844,480,121.0844,0 S,0,77286,80286,0.4979812,0.3663575 F,0,80086,80286,0.3,0 F,0,80661,80861,0,0.3 M,0,80661,83661,635.3309,480,635.3309,0 S,0,80661,83661,0.3376739,0.5964281 F,0,83461,83661,0.3,0 F,0,84036,84236,0,0.3 M,0,84036,87036,163.2893,480,163.2893,0 S,0,84036,87036,0.5328654,0.5770921 F,0,86836,87036,0.3,0 F,0,87411,87611,0,0.3 M,0,87411,90411,189.3076,480,189.3076,0 S,0,87411,90411,0.4884181,0.5827974 F,0,90211,90411,0.3,0 F,0,90786,90986,0,0.3 M,0,90786,93786,419.847,480,419.847,0 S,0,90786,93786,0.4531657,0.4947931 F,0,93586,93786,0.3,0 F,0,94161,94361,0,0.3 M,0,94161,97161,143.9554,480,143.9554,0 S,0,94161,97161,0.3677378,0.4388161 F,0,96961,97161,0.3,0 F,0,97536,97736,0,0.3 M,0,97536,100536,102.9024,480,102.9024,0 S,0,97536,100536,0.4202311,0.4759345 F,0,100336,100536,0.3,0 F,0,100911,101111,0,0.3 M,0,100911,103911,338.3633,480,338.3633,0 S,0,100911,103911,0.4445042,0.5898539 F,0,103711,103911,0.3,0 F,0,104286,104486,0,0.3 M,0,104286,107286,152.657,480,152.657,0 S,0,104286,107286,0.4015877,0.5709863 F,0,107086,107286,0.3,0
Sprite,Foreground,Centre,"sb\4.png",0,0 C,0,64161,,255,253,149 F,0,64161,64361,0,0.3 M,0,64161,67161,370.0078,480,370.0078,0 S,0,64161,67161,0.4703012,0.4843951 P,0,64161,107661,A F,0,66961,67161,0.3,0 F,0,67536,67736,0,0.3 M,0,67536,70536,-6.309083,480,-6.309083,0 S,0,67536,70536,0.4698969,0.3659296 F,0,70336,70536,0.3,0 F,0,70911,71111,0,0.3 M,0,70911,73911,-27.296,480,-27.296,0 S,0,70911,73911,0.4896692,0.5352037 F,0,73711,73911,0.3,0 F,0,74286,74486,0,0.3 M,0,74286,77286,183.6109,480,183.6109,0 S,0,74286,77286,0.4548185,0.4889897 F,0,77086,77286,0.3,0 F,0,77661,77861,0,0.3 M,0,77661,80661,359.4839,480,359.4839,0 S,0,77661,80661,0.3505274,0.4836631 F,0,80461,80661,0.3,0 F,0,81036,81236,0,0.3 M,0,81036,84036,85.08968,480,85.08968,0 S,0,81036,84036,0.5831749,0.5476773 F,0,83836,84036,0.3,0 F,0,84411,84611,0,0.3 M,0,84411,87411,353.8556,480,353.8556,0 S,0,84411,87411,0.5526922,0.3183508 F,0,87211,87411,0.3,0 F,0,87786,87986,0,0.3 M,0,87786,90786,498.5604,480,498.5604,0 S,0,87786,90786,0.5267888,0.4532496 F,0,90586,90786,0.3,0 F,0,91161,91361,0,0.3 M,0,91161,94161,353.4088,480,353.4088,0 S,0,91161,94161,0.5309808,0.4465429 F,0,93961,94161,0.3,0 F,0,94536,94736,0,0.3 M,0,94536,97536,315.7816,480,315.7816,0 S,0,94536,97536,0.3491131,0.5524226 F,0,97336,97536,0.3,0 F,0,97911,98111,0,0.3 M,0,97911,100911,-32.42604,480,-32.42604,0 S,0,97911,100911,0.3310197,0.4506865 F,0,100711,100911,0.3,0 F,0,101286,101486,0,0.3 M,0,101286,104286,457.2457,480,457.2457,0 S,0,101286,104286,0.3686827,0.5001425 F,0,104086,104286,0.3,0 F,0,104661,104861,0,0.3 M,0,104661,107661,258.1941,480,258.1941,0 S,0,104661,107661,0.3000934,0.5908384 F,0,107461,107661,0.3,0
Sprite,Foreground,Centre,"sb\vig.png",320,240 F,0,-1000,,0.6 S,0,0,,0.444444 F,0,120000,,0
//Storyboard Layer 4 (Overlay)
//Storyboard Sound Samples
Sample,47077,0,"C6S.wav",50
Sample,79077,0,"C6S.wav",40
Sample,92411,0,"C6S.wav",40
Sample,96411,0,"F4S.wav",40

[TimingPoints]
411,666.666666666667,4,3,1,25,1,0

[HitObjects]
64,192,411,128,0,1077:0:0:0:20:A4S.wav
192,192,1077,128,0,1744:0:0:0:50:C6S.wav
64,192,1744,1,0,0:0:0:50:A6S.wav
320,192,1744,128,0,2411:0:0:0:0:
448,192,2411,128,0,3077:0:0:0:50:A#6S_Bb6S.wav
192,192,3077,128,0,4411:0:0:0:50:A6S.wav
320,192,3077,1,0,0:0:0:0:
64,192,3744,128,0,4411:0:0:0:20:F5S.wav
320,192,4411,128,0,5744:0:0:0:50:G6S.wav
448,192,4411,128,0,5744:0:0:0:0:
192,192,5744,128,0,6411:0:0:0:20:C5S.wav
64,192,6411,128,0,7077:0:0:0:50:C6S.wav
448,192,6411,1,0,0:0:0:0:
320,192,7077,128,0,7744:0:0:0:50:G6S.wav
448,192,7744,128,0,8411:0:0:0:50:A6S.wav
64,192,8411,128,0,9744:0:0:0:50:C6S.wav
192,192,8411,128,0,9744:0:0:0:50:F5S.wav
448,192,9744,128,0,11077:0:0:0:50:F6S.wav
320,192,10411,128,0,11077:0:0:0:20:C5S.wav
64,192,11077,128,0,13077:0:0:0:20:F4S.wav
192,192,13744,1,0,0:0:0:40:A3S.wav
320,192,14077,1,0,0:0:0:40:F4S.wav
448,192,14411,128,0,15077:0:0:0:40:G4S.wav
64,192,14744,128,0,15077:0:0:0:40:C5S.wav
192,192,15077,128,0,16411:0:0:0:50:C6S.wav
320,192,15077,128,0,15744:0:0:0:40:A5S.wav
448,192,15744,128,0,16411:0:0:0:0:
64,192,16411,1,0,0:0:0:40:A#3S_Bb3S.wav
192,192,16744,1,0,0:0:0:40:F4S.wav
320,192,17077,128,0,17744:0:0:0:40:G4S.wav
64,192,17411,128,0,17744:0:0:0:40:C5S.wav
192,192,17744,128,0,18411:0:0:0:50:C6S.wav
448,192,17744,128,0,18411:0:0:0:0:
64,192,19077,1,0,0:0:0:40:C4S.wav
64,192,19411,1,0,0:0:0:40:F4S.wav
320,192,19744,128,0,20411:0:0:0:40:G4S.wav
448,192,20077,128,0,20411:0:0:0:40:C5S.wav
64,192,20411,128,0,21744:0:0:0:20:C6S.wav
192,192,20411,128,0,21077:0:0:0:0:
320,192,21077,1,0,0:0:0:0:
448,192,21411,1,0,0:0:0:0:
192,192,21744,1,0,0:0:0:40:D4S.wav
320,192,22077,1,0,0:0:0:40:F4S.wav
64,192,22411,128,0,23077:0:0:0:40:G4S.wav
192,192,22744,128,0,23077:0:0:0:40:C5S.wav
320,192,23077,128,0,23744:0:0:0:50:C6S.wav
448,192,23077,128,0,23744:0:0:0:0:
192,192,24411,1,0,0:0:0:40:A3S.wav
320,192,24744,1,0,0:0:0:40:F4S.wav
448,192,25077,128,0,25744:0:0:0:40:G4S.wav
64,192,25411,128,0,25744:0:0:0:40:C5S.wav
192,192,25744,128,0,27077:0:0:0:40:F4S.wav
320,192,25744,128,0,26411:0:0:0:20:C6S.wav
448,192,26411,128,0,27077:0:0:0:0:
64,192,27077,1,0,0:0:0:40:A#3S_Bb3S.wav
192,192,27411,1,0,0:0:0:40:F4S.wav
320,192,27744,128,0,28411:0:0:0:40:G4S.wav
448,192,28077,128,0,28411:0:0:0:40:C5S.wav
64,192,28411,128,0,29077:0:0:0:40:F5S.wav
192,192,28411,128,0,29077:0:0:0:50:C6S.wav
192,192,29744,1,0,0:0:0:40:C4S.wav
448,192,29744,1,0,0:0:0:50:C6S.wav
448,192,30077,1,0,0:0:0:0:
64,192,30411,128,0,31077:0:0:0:0:
192,192,30744,128,0,31077:0:0:0:0:
320,192,31077,128,0,31744:0:0:0:40:E5S.wav
448,192,31077,128,0,32411:0:0:0:0:
64,192,31744,1,0,0:0:0:0:
192,192,32077,1,0,0:0:0:0:
64,192,32411,128,0,33077:0:0:0:40:F3S.wav
320,192,32411,128,0,33077:0:0:0:50:G5S.wav
192,192,33077,128,0,33411:0:0:0:50:F5S.wav
448,192,33077,128,0,33411:0:0:0:0:
192,192,33744,128,0,34744:0:0:0:50:F5S.wav
448,192,33744,128,0,34744:0:0:0:0:
64,192,35077,128,0,35744:0:0:0:40:A#3S_Bb3S.wav
448,192,35077,128,0,37077:0:0:0:40:C6S.wav
192,192,35744,1,0,0:0:0:0:
192,192,36077,1,0,0:0:0:0:
192,192,36411,128,0,37077:0:0:0:0:
320,192,37077,128,0,37744:0:0:0:0:
64,192,37744,128,0,40411:0:0:0:40:F5S.wav
448,192,37744,128,0,38411:0:0:0:40:A3S.wav
320,192,38411,1,0,0:0:0:0:
320,192,38744,1,0,0:0:0:0:
320,192,39077,128,0,39744:0:0:0:0:
192,192,39744,128,0,40411:0:0:0:0:
320,192,40411,128,0,41077:0:0:0:40:G3S.wav
448,192,40411,128,0,42411:0:0:0:40:F5S.wav
64,192,41077,1,0,0:0:0:0:
64,192,41411,1,0,0:0:0:0:
64,192,41744,128,0,42077:0:0:0:0:
192,192,42077,128,0,42411:0:0:0:0:
320,192,42411,128,0,43077:0:0:0:0:
64,192,42744,128,0,43077:0:0:0:0:
192,192,43077,128,0,43744:0:0:0:40:F5S.wav
448,192,43077,128,0,44411:0:0:0:40:C4S.wav
64,192,43744,128,0,44411:0:0:0:0:
192,192,44411,128,0,45744:0:0:0:40:C3S.wav
320,192,44411,128,0,44744:0:0:0:0:
448,192,44744,128,0,45077:0:0:0:0:
64,192,45077,128,0,45744:0:0:0:0:
320,192,45744,1,0,0:0:0:40:A#3S_Bb3S.wav
448,192,45744,128,0,47077:0:0:0:0:
192,192,46077,1,0,0:0:0:40:F4S.wav
64,192,46411,1,0,0:0:0:40:G4S.wav
64,192,46744,1,0,0:0:0:40:C5S.wav
64,192,47077,128,0,48411:0:0:0:40:F5S.wav
320,192,47077,128,0,47744:0:0:0:40:G5S.wav
192,192,47744,128,0,48411:0:0:0:0:
320,192,48411,128,0,49744:0:0:0:40:A3S.wav
448,192,48411,1,0,0:0:0:0:
64,192,48744,1,0,0:0:0:40:F4S.wav
192,192,49077,1,0,0:0:0:40:G4S.wav
448,192,49411,1,0,0:0:0:40:C5S.wav
64,192,49744,128,0,51077:0:0:0:40:A5S.wav
192,192,49744,128,0,50411:0:0:0:0:
448,192,50411,128,0,51077:0:0:0:0:
192,192,51077,128,0,52411:0:0:0:40:G3S.wav
320,192,51077,1,0,0:0:0:0:
448,192,51411,1,0,0:0:0:40:F4S.wav
64,192,51744,1,0,0:0:0:40:G4S.wav
320,192,52077,1,0,0:0:0:40:A#4S_Bb4S.wav
64,192,52411,1,0,0:0:0:40:A5S.wav
448,192,52411,128,0,53077:0:0:0:0:
320,192,52744,128,0,53077:0:0:0:0:
64,192,53077,128,0,53744:0:0:0:0:
192,192,53411,128,0,53744:0:0:0:0:
320,192,53744,128,0,55744:0:0:0:40:C4S.wav
448,192,53744,128,0,55744:0:0:0:40:F5S.wav
64,192,56202,1,0,0:0:0:0:
192,192,56411,128,0,57077:0:0:0:20:C6S.wav
448,192,56411,1,0,0:0:0:0:
320,192,57077,128,0,57411:0:0:0:0:
320,192,57744,128,0,58411:0:0:0:0:
448,192,58411,128,0,59077:0:0:0:0:
64,192,59077,128,0,59744:0:0:0:40:A#5S_Bb5S.wav
192,192,59077,1,0,0:0:0:40:D6S.wav
192,192,59744,128,0,60077:0:0:0:0:
192,192,60411,128,0,61077:0:0:0:0:
64,192,61744,1,0,0:0:0:40:C6S.wav
320,192,61744,1,0,0:0:0:40:E5S.wav
320,192,62077,1,0,0:0:0:0:
192,192,62411,1,0,0:0:0:0:
192,192,62744,1,0,0:0:0:0:
448,192,63077,128,0,63744:0:0:0:0:
64,192,63744,128,0,64411:0:0:0:0:
320,192,64077,128,0,64411:0:0:0:0:
192,192,64411,128,0,65077:0:0:0:40:C6S.wav
448,192,64411,1,0,0:0:0:40:D5S.wav
64,192,65077,128,0,65411:0:0:0:0:
64,192,65744,128,0,66411:0:0:0:0:
192,192,66855,1,0,0:0:0:0:
320,192,67077,128,0,67744:0:0:0:40:C6S.wav
448,192,67077,1,0,0:0:0:40:A4S.wav
448,192,67744,128,0,68077:0:0:0:0:
448,192,68411,128,0,69077:0:0:0:0:
192,192,69077,128,0,69744:0:0:0:0:
64,192,69744,1,0,0:0:0:40:A#4S_Bb4S.wav
320,192,69744,128,0,70411:0:0:0:40:F6S.wav
64,192,70411,128,0,70744:0:0:0:0:
64,192,71077,128,0,71744:0:0:0:0:
64,192,72411,1,0,0:0:0:40:F6S.wav
320,192,72411,1,0,0:0:0:40:G6S.wav
64,192,72744,1,0,0:0:0:0:
448,192,73077,1,0,0:0:0:0:
448,192,73411,1,0,0:0:0:0:
192,192,73744,128,0,74411:0:0:0:0:
320,192,74411,128,0,75077:0:0:0:0:
448,192,74744,128,0,75077:0:0:0:0:
64,192,75077,128,0,75411:0:0:0:0:
64,192,75744,128,0,76077:0:0:0:0:
192,192,76411,128,0,77077:0:0:0:0:
64,192,76744,128,0,77077:0:0:0:0:
448,192,77077,128,0,77744:0:0:0:0:
320,192,77411,128,0,77744:0:0:0:0:
64,192,77744,128,0,78411:0:0:0:40:F3S.wav
192,192,77744,1,0,0:0:0:0:
320,192,78077,1,0,0:0:0:40:C4S.wav
448,192,78411,128,0,79077:0:0:0:40:F4S.wav
192,192,78744,128,0,79077:0:0:0:40:C5S.wav
64,192,79077,128,0,80411:0:0:0:40:F5S.wav
320,192,79077,128,0,79744:0:0:0:40:G5S.wav
192,192,79744,128,0,80411:0:0:0:0:
320,192,80411,1,0,0:0:0:40:G3S.wav
448,192,80411,128,0,81077:0:0:0:0:
64,192,80744,1,0,0:0:0:40:D4S.wav
192,192,81077,128,0,81744:0:0:0:40:F4S.wav
320,192,81411,128,0,81744:0:0:0:40:A#4S_Bb4S.wav
64,192,81744,128,0,83077:0:0:0:40:D5S.wav
448,192,81744,128,0,82411:0:0:0:0:
192,192,82411,128,0,83077:0:0:0:40:F5S.wav
320,192,83077,128,0,83744:0:0:0:40:C4S.wav
448,192,83077,1,0,0:0:0:0:
448,192,83411,1,0,0:0:0:40:G4S.wav
192,192,83744,128,0,84411:0:0:0:40:A#4S_Bb4S.wav
448,192,84077,128,0,84411:0:0:0:40:D5S.wav
64,192,84411,128,0,85744:0:0:0:40:E5S.wav
320,192,84411,128,0,85077:0:0:0:0:
192,192,85077,128,0,85411:0:0:0:0:
448,192,85411,128,0,85744:0:0:0:0:
192,192,85744,128,0,87077:0:0:0:40:F3S.wav
320,192,85744,128,0,86411:0:0:0:40:G5S.wav
64,192,86411,128,0,86744:0:0:0:40:F5S.wav
64,192,87077,128,0,87744:0:0:0:40:F4S.wav
320,192,87077,128,0,87744:0:0:0:40:F5S.wav
192,192,87744,128,0,88411:0:0:0:40:G3S.wav
448,192,87744,128,0,88411:0:0:0:0:
64,192,88411,1,0,0:0:0:40:A3S.wav
320,192,88411,128,0,89077:0:0:0:0:
192,192,88744,1,0,0:0:0:40:F4S.wav
448,192,89077,128,0,89744:0:0:0:40:G4S.wav
64,192,89411,128,0,89744:0:0:0:40:C5S.wav
192,192,89744,128,0,90411:0:0:0:40:F5S.wav
320,192,89744,128,0,91077:0:0:0:40:C6S.wav
64,192,90411,128,0,91077:0:0:0:0:
192,192,91077,1,0,0:0:0:40:A#3S_Bb3S.wav
448,192,91077,128,0,91744:0:0:0:0:
320,192,91411,1,0,0:0:0:40:F4S.wav
64,192,91744,128,0,92411:0:0:0:40:G4S.wav
192,192,92077,128,0,92411:0:0:0:40:C5S.wav
320,192,92411,128,0,93077:0:0:0:40:G5S.wav
448,192,92411,1,0,0:0:0:40:F5S.wav
448,192,92744,128,0,93077:0:0:0:0:
192,192,93077,128,0,93744:0:0:0:0:
64,192,93744,1,0,0:0:0:40:C4S.wav
448,192,93744,128,0,94411:0:0:0:0:
64,192,94077,1,0,0:0:0:0:
320,192,94411,128,0,95077:0:0:0:0:
192,192,94744,128,0,95077:0:0:0:0:
64,192,95077,128,0,95744:0:0:0:0:
320,192,95744,128,0,96077:0:0:0:0:
448,192,96077,128,0,96411:0:0:0:0:
192,192,96411,128,0,97077:0:0:0:40:C5S.wav
64,192,97077,128,0,97411:0:0:0:0:
448,192,97744,1,0,0:0:0:0:
448,192,98077,128,0,99077:0:0:0:0:
64,192,99077,128,0,99411:0:0:0:40:A#3S_Bb3S.wav
192,192,99411,128,0,99744:0:0:0:40:F4S.wav
320,192,99744,128,0,100077:0:0:0:40:A#4S_Bb4S.wav
448,192,100077,128,0,100411:0:0:0:40:C5S.wav
192,192,100411,128,0,100744:0:0:0:40:F5S.wav
320,192,100744,128,0,101077:0:0:0:40:C5S.wav
64,192,101077,128,0,101411:0:0:0:40:F5S.wav
192,192,101411,128,0,101744:0:0:0:40:A#5S_Bb5S.wav
320,192,101744,128,0,104077:0:0:0:50:F6S.wav
448,192,101744,128,0,104077:0:0:0:0:
64,192,104411,128,0,109744:0:0:0:40:A4S.wav
448,192,104411,128,0,109744:0:0:0:0:
