osu file format v14

[General]
AudioFilename: Julianna Mauriello - Bing Bang.mp3
AudioLeadIn: 0
PreviewTime: 77128
Countdown: 0
SampleSet: Normal
StackLeniency: 0.3
Mode: 1
LetterboxInBreaks: 0
WidescreenStoryboard: 0

[Editor]
Bookmarks: 170,113005
DistanceSpacing: 1.4
BeatDivisor: 4
GridSize: 32
TimelineZoom: 1.3

[Metadata]
Title:Bing Bang
TitleUnicode:Bing Bang
Artist:Julianna Mauriello
ArtistUnicode:Julianna Mauriello
Creator:Gero
Version:Oni
Source:Lazy Town
Tags:
BeatmapID:1774954
BeatmapSetID:848781

[Difficulty]
HPDrainRate:5
CircleSize:4
OverallDifficulty:5
ApproachRate:10
SliderMultiplier:1.39999991989136
SliderTickRate:2

[Events]
//Background and Video events
0,0,"BG.jpg",0,0
//Break Periods
//Storyboard Layer 0 (Background)
//Storyboard Layer 1 (Fail)
//Storyboard Layer 2 (Pass)
//Storyboard Layer 3 (Foreground)
//Storyboard Sound Samples

[TimingPoints]
170,447.761194029851,4,1,0,100,1,0
75058,-99.009900990099,4,1,0,100,0,0
75170,-98.0392156862745,4,1,0,100,0,0
75281,-97.0873786407767,4,1,0,100,0,0
75393,-96.1538461538461,4,1,0,100,0,0
75505,-95.2380952380952,4,1,0,100,0,0
75617,-94.3396226415094,4,1,0,100,0,0
75729,-93.4579439252336,4,1,0,100,0,0
75841,-92.5925925925926,4,1,0,100,0,0
75953,-91.743119266055,4,1,0,100,0,0
76065,-90.9090909090909,4,1,0,100,0,0
76177,-90.0900900900901,4,1,0,100,0,0
76289,-89.2857142857143,4,1,0,100,0,0
76401,-88.4955752212389,4,1,0,100,0,0
76513,-87.719298245614,4,1,0,100,0,0
76625,-86.9565217391304,4,1,0,100,0,0
76737,-86.2068965517241,4,1,0,100,0,0
76849,-85.4700854700855,4,1,0,100,0,0
76961,-84.7457627118644,4,1,0,100,0,0
77072,-84.0336134453781,4,1,0,100,0,0
77184,-83.3333333333333,4,1,0,100,0,1
103714,-84.0336134453781,4,1,0,100,0,1
103826,-84.7457627118644,4,1,0,100,0,1
103938,-85.4700854700855,4,1,0,100,0,1
104050,-86.2068965517241,4,1,0,100,0,1
104162,-86.9565217391304,4,1,0,100,0,1
104274,-87.719298245614,4,1,0,100,0,1
104386,-88.4955752212389,4,1,0,100,0,1
104498,-89.2857142857143,4,1,0,100,0,1
104610,-90.0900900900901,4,1,0,100,0,1
104722,-90.9090909090909,4,1,0,100,0,1
104834,-91.743119266055,4,1,0,100,0,1
104946,-92.5925925925926,4,1,0,100,0,1
105058,-93.4579439252336,4,1,0,100,0,1
105170,-94.3396226415094,4,1,0,100,0,1
105281,-95.2380952380952,4,1,0,100,0,1
105393,-96.1538461538461,4,1,0,100,0,1
105505,-97.0873786407767,4,1,0,100,0,1
105617,-98.0392156862745,4,1,0,100,0,1
105729,-99.009900990099,4,1,0,100,0,1
105841,-100,4,1,0,100,0,0

[Colours]
Combo1 : 233,97,219
Combo2 : 181,21,221

[HitObjects]
256,192,170,5,0,0:0:0:0:
256,192,505,1,0,0:0:0:0:
256,192,617,1,8,0:0:0:0:
256,192,841,1,0,0:0:0:0:
256,192,953,1,8,0:0:0:0:
256,192,1065,1,0,0:0:0:0:
256,192,1289,1,0,0:0:0:0:
256,192,1513,1,8,0:0:0:0:
256,192,1737,1,8,0:0:0:0:
256,192,1961,1,0,0:0:0:0:
256,192,2296,1,0,0:0:0:0:
256,192,2408,1,8,0:0:0:0:
256,192,2632,1,0,0:0:0:0:
256,192,2744,1,8,0:0:0:0:
256,192,2856,1,0,0:0:0:0:
256,192,3080,1,0,0:0:0:0:
256,192,3192,1,0,0:0:0:0:
256,192,3304,1,8,0:0:0:0:
256,192,3528,1,8,0:0:0:0:
256,192,3752,1,4,0:0:0:0:
256,192,4087,1,0,0:0:0:0:
256,192,4199,1,8,0:0:0:0:
256,192,4423,1,0,0:0:0:0:
256,192,4535,1,8,0:0:0:0:
256,192,4647,1,0,0:0:0:0:
256,192,4871,1,0,0:0:0:0:
256,192,5095,1,8,0:0:0:0:
256,192,5319,1,8,0:0:0:0:
256,192,5431,1,8,0:0:0:0:
256,192,5543,1,0,0:0:0:0:
256,192,5878,1,0,0:0:0:0:
256,192,5990,1,8,0:0:0:0:
256,192,6214,1,0,0:0:0:0:
256,192,6326,1,8,0:0:0:0:
256,192,6438,1,0,0:0:0:0:
256,192,6662,1,0,0:0:0:0:
256,192,6886,1,8,0:0:0:0:
256,192,7110,1,8,0:0:0:0:
256,192,7222,1,8,0:0:0:0:
256,192,7334,1,0,0:0:0:0:
256,192,7670,1,0,0:0:0:0:
256,192,7781,1,8,0:0:0:0:
256,192,8005,1,0,0:0:0:0:
256,192,8117,1,8,0:0:0:0:
256,192,8229,1,0,0:0:0:0:
256,192,8453,1,0,0:0:0:0:
256,192,8565,1,0,0:0:0:0:
256,192,8677,1,8,0:0:0:0:
256,192,8901,1,8,0:0:0:0:
256,192,9125,1,0,0:0:0:0:
256,192,9461,1,0,0:0:0:0:
256,192,9572,1,8,0:0:0:0:
256,192,9796,1,0,0:0:0:0:
256,192,9908,1,8,0:0:0:0:
256,192,10020,1,0,0:0:0:0:
256,192,10244,1,0,0:0:0:0:
256,192,10356,1,0,0:0:0:0:
256,192,10468,1,8,0:0:0:0:
256,192,10692,1,8,0:0:0:0:
256,192,10916,1,4,0:0:0:0:
256,192,11140,1,0,0:0:0:0:
256,192,11252,1,0,0:0:0:0:
256,192,11364,1,8,0:0:0:0:
256,192,11587,1,0,0:0:0:0:
256,192,11811,1,0,0:0:0:0:
256,192,11923,1,8,0:0:0:0:
256,192,12035,1,0,0:0:0:0:
256,192,12147,1,0,0:0:0:0:
256,192,12259,1,8,0:0:0:0:
256,192,12483,1,0,0:0:0:0:
256,192,12707,1,0,0:0:0:0:
256,192,12931,1,8,0:0:0:0:
256,192,13043,1,8,0:0:0:0:
256,192,13155,1,0,0:0:0:0:
256,192,13378,1,8,0:0:0:0:
256,192,13602,1,0,0:0:0:0:
256,192,13714,1,0,0:0:0:0:
256,192,13826,1,8,0:0:0:0:
256,192,13938,1,8,0:0:0:0:
256,192,14050,1,0,0:0:0:0:
256,192,14274,1,8,0:0:0:0:
256,192,14498,1,4,0:0:0:0:
256,192,14834,1,8,0:0:0:0:
256,192,14946,1,0,0:0:0:0:
256,192,15170,1,8,0:0:0:0:
256,192,15281,1,8,0:0:0:0:
256,192,15393,1,0,0:0:0:0:
256,192,15617,1,0,0:0:0:0:
256,192,15841,1,8,0:0:0:0:
256,192,16065,1,8,0:0:0:0:
256,192,16289,1,0,0:0:0:0:
256,192,16625,1,8,0:0:0:0:
256,192,16737,1,0,0:0:0:0:
256,192,16961,1,8,0:0:0:0:
256,192,17072,1,8,0:0:0:0:
256,192,17184,1,0,0:0:0:0:
256,192,17408,1,0,0:0:0:0:
256,192,17520,1,8,0:0:0:0:
256,192,17632,1,0,0:0:0:0:
256,192,17856,1,8,0:0:0:0:
256,192,18080,1,4,0:0:0:0:
256,192,18304,1,0,0:0:0:0:
256,192,18416,1,0,0:0:0:0:
256,192,18528,1,8,0:0:0:0:
256,192,18752,1,0,0:0:0:0:
256,192,18975,1,0,0:0:0:0:
256,192,19087,1,8,0:0:0:0:
256,192,19199,1,0,0:0:0:0:
256,192,19311,1,0,0:0:0:0:
256,192,19423,1,8,0:0:0:0:
256,192,19647,1,0,0:0:0:0:
256,192,19759,1,8,0:0:0:0:
256,192,19871,1,0,0:0:0:0:
256,192,20095,1,8,0:0:0:0:
256,192,20207,1,8,0:0:0:0:
256,192,20319,1,0,0:0:0:0:
256,192,20543,1,8,0:0:0:0:
256,192,20767,1,0,0:0:0:0:
256,192,20878,1,0,0:0:0:0:
256,192,20990,1,8,0:0:0:0:
256,192,21102,1,8,0:0:0:0:
256,192,21214,1,0,0:0:0:0:
256,192,21438,1,8,0:0:0:0:
256,192,21662,1,4,0:0:0:0:
256,192,21998,1,8,0:0:0:0:
256,192,22110,1,0,0:0:0:0:
256,192,22334,1,8,0:0:0:0:
256,192,22446,1,8,0:0:0:0:
256,192,22558,1,0,0:0:0:0:
256,192,22781,1,0,0:0:0:0:
256,192,23005,1,8,0:0:0:0:
256,192,23229,1,8,0:0:0:0:
256,192,23453,1,0,0:0:0:0:
256,192,23789,1,8,0:0:0:0:
256,192,23901,1,0,0:0:0:0:
256,192,24125,1,8,0:0:0:0:
256,192,24237,1,8,0:0:0:0:
256,192,24349,1,0,0:0:0:0:
256,192,24572,1,0,0:0:0:0:
256,192,24684,1,8,0:0:0:0:
256,192,24796,1,0,0:0:0:0:
256,192,25020,1,8,0:0:0:0:
256,192,25244,1,4,0:0:0:0:
256,192,25468,1,8,0:0:0:0:
256,192,25692,1,0,0:0:0:0:
256,192,25804,1,8,0:0:0:0:
256,192,26028,1,8,0:0:0:0:
256,192,26140,1,0,0:0:0:0:
256,192,26364,1,8,0:0:0:0:
256,192,26475,1,8,0:0:0:0:
256,192,26587,1,0,0:0:0:0:
256,192,26811,1,8,0:0:0:0:
256,192,27035,1,0,0:0:0:0:
256,192,27371,1,8,0:0:0:0:
256,192,27483,1,0,0:0:0:0:
256,192,27707,1,8,0:0:0:0:
256,192,27819,1,8,0:0:0:0:
256,192,27931,1,0,0:0:0:0:
256,192,28155,1,8,0:0:0:0:
256,192,28378,1,0,0:0:0:0:
256,192,28490,1,0,0:0:0:0:
256,192,28602,1,8,0:0:0:0:
256,192,28826,1,0,0:0:0:0:
256,192,29162,1,8,0:0:0:0:
256,192,29274,1,0,0:0:0:0:
256,192,29498,1,8,0:0:0:0:
256,192,29722,1,0,0:0:0:0:
256,192,29946,1,8,0:0:0:0:
256,192,30058,1,8,0:0:0:0:
256,192,30170,1,0,0:0:0:0:
256,192,30393,1,8,0:0:0:0:
256,192,30841,1,8,0:0:0:0:
256,192,31065,1,0,0:0:0:0:
256,192,31289,1,8,0:0:0:0:
256,192,31401,1,8,0:0:0:0:
256,192,31513,1,0,0:0:0:0:
256,192,31737,1,8,0:0:0:0:
256,192,31961,1,0,0:0:0:0:
256,192,32072,1,0,0:0:0:0:
256,192,32184,1,8,0:0:0:0:
256,192,32408,1,4,0:0:0:0:
256,192,32632,1,8,0:0:0:0:
256,192,32744,1,8,0:0:0:0:
256,192,32856,1,0,0:0:0:0:
256,192,33080,1,8,0:0:0:0:
256,192,33304,1,0,0:0:0:0:
256,192,33416,1,0,0:0:0:0:
256,192,33528,1,8,0:0:0:0:
256,192,33640,1,8,0:0:0:0:
256,192,33752,1,0,0:0:0:0:
256,192,33975,1,8,0:0:0:0:
256,192,34199,1,0,0:0:0:0:
256,192,34423,1,8,0:0:0:0:
256,192,34535,1,8,0:0:0:0:
256,192,34647,1,0,0:0:0:0:
256,192,34871,1,0,0:0:0:0:
256,192,34983,1,8,0:0:0:0:
256,192,35095,1,0,0:0:0:0:
256,192,35207,1,0,0:0:0:0:
256,192,35319,1,8,0:0:0:0:
256,192,35543,1,0,0:0:0:0:
256,192,35767,1,8,0:0:0:0:
256,192,35878,1,8,0:0:0:0:
256,192,35990,1,0,0:0:0:0:
256,192,36214,1,0,0:0:0:0:
256,192,36326,1,8,0:0:0:0:
256,192,36438,1,0,0:0:0:0:
256,192,36662,1,8,0:0:0:0:
256,192,36774,1,8,0:0:0:0:
256,192,36886,1,0,0:0:0:0:
256,192,37110,1,0,0:0:0:0:
256,192,37222,1,8,0:0:0:0:
256,192,37446,1,0,0:0:0:0:
256,192,37558,1,8,0:0:0:0:
256,192,37781,1,0,0:0:0:0:
256,192,38005,1,8,0:0:0:0:
256,192,38117,1,8,0:0:0:0:
256,192,38229,1,0,0:0:0:0:
256,192,38453,1,0,0:0:0:0:
256,192,38565,1,8,0:0:0:0:
256,192,38677,1,0,0:0:0:0:
256,192,38901,1,0,0:0:0:0:
256,192,39013,1,8,0:0:0:0:
256,192,39237,1,0,0:0:0:0:
256,192,39349,1,8,0:0:0:0:
256,192,39572,1,4,0:0:0:0:
256,192,39796,1,8,0:0:0:0:
256,192,39908,1,8,0:0:0:0:
256,192,40020,1,0,0:0:0:0:
256,192,40244,1,8,0:0:0:0:
256,192,40468,1,0,0:0:0:0:
256,192,40580,1,0,0:0:0:0:
256,192,40692,1,8,0:0:0:0:
256,192,40804,1,8,0:0:0:0:
256,192,40916,1,0,0:0:0:0:
256,192,41140,1,8,0:0:0:0:
256,192,41364,1,0,0:0:0:0:
256,192,41587,1,8,0:0:0:0:
256,192,41699,1,8,0:0:0:0:
256,192,41811,1,0,0:0:0:0:
256,192,42035,1,0,0:0:0:0:
256,192,42147,1,8,0:0:0:0:
256,192,42259,1,0,0:0:0:0:
256,192,42371,1,0,0:0:0:0:
256,192,42483,1,8,0:0:0:0:
256,192,42707,1,0,0:0:0:0:
256,192,42931,1,8,0:0:0:0:
256,192,43043,1,8,0:0:0:0:
256,192,43155,1,0,0:0:0:0:
256,192,43378,1,0,0:0:0:0:
256,192,43490,1,8,0:0:0:0:
256,192,43602,1,0,0:0:0:0:
256,192,43826,1,8,0:0:0:0:
256,192,43938,1,8,0:0:0:0:
256,192,44050,1,0,0:0:0:0:
256,192,44274,1,0,0:0:0:0:
256,192,44386,1,8,0:0:0:0:
256,192,44610,1,0,0:0:0:0:
256,192,44722,1,8,0:0:0:0:
256,192,44946,1,0,0:0:0:0:
256,192,45170,1,8,0:0:0:0:
256,192,45281,1,8,0:0:0:0:
256,192,45393,1,0,0:0:0:0:
256,192,45617,1,0,0:0:0:0:
256,192,45729,1,8,0:0:0:0:
256,192,45841,1,0,0:0:0:0:
256,192,46065,1,0,0:0:0:0:
256,192,46177,1,8,0:0:0:0:
256,192,46401,1,0,0:0:0:0:
256,192,46513,1,8,0:0:0:0:
256,192,46737,1,4,0:0:0:0:
256,192,46961,1,0,0:0:0:0:
256,192,47072,1,0,0:0:0:0:
256,192,47184,1,8,0:0:0:0:
256,192,47408,1,0,0:0:0:0:
256,192,47520,1,8,0:0:0:0:
256,192,47632,1,0,0:0:0:0:
256,192,47856,1,8,0:0:0:0:
256,192,48080,1,0,0:0:0:0:
256,192,48192,1,0,0:0:0:0:
256,192,48304,1,8,0:0:0:0:
256,192,48416,1,8,0:0:0:0:
256,192,48528,1,0,0:0:0:0:
256,192,48752,1,0,0:0:0:0:
256,192,48864,1,0,0:0:0:0:
256,192,48975,1,8,0:0:0:0:
256,192,49199,1,0,0:0:0:0:
256,192,49311,1,8,0:0:0:0:
256,192,49423,1,0,0:0:0:0:
256,192,49647,1,8,0:0:0:0:
256,192,49871,1,0,0:0:0:0:
256,192,49983,1,0,0:0:0:0:
256,192,50095,1,8,0:0:0:0:
256,192,50207,1,8,0:0:0:0:
256,192,50319,1,0,0:0:0:0:
256,192,50543,1,0,0:0:0:0:
256,192,50655,1,0,0:0:0:0:
256,192,50767,1,8,0:0:0:0:
256,192,50990,1,0,0:0:0:0:
256,192,51102,1,8,0:0:0:0:
256,192,51214,1,0,0:0:0:0:
256,192,51438,1,0,0:0:0:0:
256,192,51550,1,0,0:0:0:0:
256,192,51662,1,8,0:0:0:0:
256,192,51886,1,8,0:0:0:0:
256,192,52110,1,0,0:0:0:0:
256,192,52334,1,0,0:0:0:0:
256,192,52446,1,0,0:0:0:0:
256,192,52558,1,8,0:0:0:0:
256,192,52781,1,0,0:0:0:0:
256,192,52893,1,8,0:0:0:0:
256,192,53005,1,0,0:0:0:0:
256,192,53229,1,0,0:0:0:0:
256,192,53341,1,0,0:0:0:0:
256,192,53453,1,8,0:0:0:0:
256,192,53677,1,8,0:0:0:0:
256,192,53901,1,4,0:0:0:0:
256,192,54125,1,0,0:0:0:0:
256,192,54237,1,0,0:0:0:0:
256,192,54349,1,8,0:0:0:0:
256,192,54572,1,0,0:0:0:0:
256,192,54796,1,0,0:0:0:0:
256,192,54908,1,8,0:0:0:0:
256,192,55020,1,0,0:0:0:0:
256,192,55132,1,0,0:0:0:0:
256,192,55244,1,8,0:0:0:0:
256,192,55468,1,0,0:0:0:0:
256,192,55692,1,0,0:0:0:0:
256,192,55916,1,8,0:0:0:0:
256,192,56028,1,8,0:0:0:0:
256,192,56140,1,0,0:0:0:0:
256,192,56364,1,8,0:0:0:0:
256,192,56587,1,0,0:0:0:0:
256,192,56699,1,0,0:0:0:0:
256,192,56811,1,8,0:0:0:0:
256,192,56923,1,8,0:0:0:0:
256,192,57035,1,0,0:0:0:0:
256,192,57259,1,8,0:0:0:0:
256,192,57483,1,4,0:0:0:0:
256,192,57819,1,8,0:0:0:0:
256,192,57931,1,0,0:0:0:0:
256,192,58155,1,8,0:0:0:0:
256,192,58267,1,8,0:0:0:0:
256,192,58378,1,0,0:0:0:0:
256,192,58602,1,0,0:0:0:0:
256,192,58826,1,8,0:0:0:0:
256,192,59050,1,8,0:0:0:0:
256,192,59274,1,0,0:0:0:0:
256,192,59610,1,8,0:0:0:0:
256,192,59722,1,0,0:0:0:0:
256,192,59946,1,8,0:0:0:0:
256,192,60058,1,8,0:0:0:0:
256,192,60170,1,0,0:0:0:0:
256,192,60393,1,0,0:0:0:0:
256,192,60505,1,8,0:0:0:0:
256,192,60617,1,0,0:0:0:0:
256,192,60841,1,8,0:0:0:0:
256,192,61065,1,4,0:0:0:0:
256,192,61289,1,0,0:0:0:0:
256,192,61401,1,0,0:0:0:0:
256,192,61513,1,8,0:0:0:0:
256,192,61737,1,0,0:0:0:0:
256,192,61961,1,0,0:0:0:0:
256,192,62072,1,8,0:0:0:0:
256,192,62184,1,0,0:0:0:0:
256,192,62296,1,0,0:0:0:0:
256,192,62408,1,8,0:0:0:0:
256,192,62632,1,0,0:0:0:0:
256,192,62744,1,8,0:0:0:0:
256,192,62856,1,0,0:0:0:0:
256,192,63080,1,8,0:0:0:0:
256,192,63192,1,8,0:0:0:0:
256,192,63304,1,0,0:0:0:0:
256,192,63528,1,8,0:0:0:0:
256,192,63752,1,0,0:0:0:0:
256,192,63864,1,0,0:0:0:0:
256,192,63975,1,8,0:0:0:0:
256,192,64087,1,8,0:0:0:0:
256,192,64199,1,0,0:0:0:0:
256,192,64423,1,8,0:0:0:0:
256,192,64647,1,4,0:0:0:0:
256,192,64983,1,8,0:0:0:0:
256,192,65095,1,0,0:0:0:0:
256,192,65319,1,8,0:0:0:0:
256,192,65431,1,8,0:0:0:0:
256,192,65543,1,0,0:0:0:0:
256,192,65767,1,0,0:0:0:0:
256,192,65990,1,8,0:0:0:0:
256,192,66214,1,8,0:0:0:0:
256,192,66438,1,0,0:0:0:0:
256,192,66774,1,8,0:0:0:0:
256,192,66886,1,0,0:0:0:0:
256,192,67110,1,8,0:0:0:0:
256,192,67222,1,8,0:0:0:0:
256,192,67334,1,0,0:0:0:0:
256,192,67558,1,0,0:0:0:0:
256,192,67670,1,8,0:0:0:0:
256,192,67781,1,0,0:0:0:0:
256,192,68005,1,8,0:0:0:0:
256,192,68229,1,4,0:0:0:0:
256,192,68453,1,8,0:0:0:0:
256,192,68677,1,0,0:0:0:0:
256,192,68789,1,8,0:0:0:0:
256,192,69013,1,8,0:0:0:0:
256,192,69125,1,0,0:0:0:0:
256,192,69349,1,8,0:0:0:0:
256,192,69461,1,8,0:0:0:0:
256,192,69572,1,0,0:0:0:0:
256,192,69796,1,8,0:0:0:0:
256,192,70020,1,0,0:0:0:0:
256,192,70356,1,8,0:0:0:0:
256,192,70468,1,0,0:0:0:0:
256,192,70692,1,8,0:0:0:0:
256,192,70804,1,8,0:0:0:0:
256,192,70916,1,0,0:0:0:0:
256,192,71140,1,8,0:0:0:0:
256,192,71364,1,0,0:0:0:0:
256,192,71475,1,0,0:0:0:0:
256,192,71587,1,8,0:0:0:0:
256,192,71811,1,0,0:0:0:0:
256,192,72147,1,8,0:0:0:0:
256,192,72259,1,0,0:0:0:0:
256,192,72483,1,8,0:0:0:0:
256,192,72707,1,0,0:0:0:0:
256,192,72931,1,8,0:0:0:0:
256,192,73043,1,8,0:0:0:0:
256,192,73155,1,0,0:0:0:0:
256,192,73378,1,8,0:0:0:0:
256,192,73826,1,12,0:0:0:0:
256,192,74050,1,4,0:0:0:0:
256,192,74498,1,12,0:0:0:0:
256,192,74946,1,12,0:0:0:0:
256,192,75617,1,4,0:0:0:0:
256,192,75841,1,4,0:0:0:0:
256,192,76289,1,4,0:0:0:0:
256,192,76513,1,12,0:0:0:0:
256,192,76737,1,4,0:0:0:0:
256,192,76961,1,12,0:0:0:0:
256,192,77184,1,4,0:0:0:0:
256,192,77408,1,8,0:0:0:0:
256,192,77520,1,8,0:0:0:0:
256,192,77632,1,0,0:0:0:0:
256,192,77856,1,8,0:0:0:0:
256,192,78080,1,0,0:0:0:0:
256,192,78192,1,0,0:0:0:0:
256,192,78304,1,8,0:0:0:0:
256,192,78416,1,8,0:0:0:0:
256,192,78528,1,0,0:0:0:0:
256,192,78752,1,8,0:0:0:0:
256,192,78975,1,0,0:0:0:0:
256,192,79199,1,8,0:0:0:0:
256,192,79311,1,8,0:0:0:0:
256,192,79423,1,0,0:0:0:0:
256,192,79647,1,0,0:0:0:0:
256,192,79759,1,8,0:0:0:0:
256,192,79871,1,0,0:0:0:0:
256,192,79983,1,0,0:0:0:0:
256,192,80095,1,8,0:0:0:0:
256,192,80319,1,0,0:0:0:0:
256,192,80543,1,8,0:0:0:0:
256,192,80655,1,8,0:0:0:0:
256,192,80767,1,0,0:0:0:0:
256,192,80990,1,0,0:0:0:0:
256,192,81102,1,8,0:0:0:0:
256,192,81214,1,0,0:0:0:0:
256,192,81438,1,8,0:0:0:0:
256,192,81550,1,8,0:0:0:0:
256,192,81662,1,0,0:0:0:0:
256,192,81886,1,0,0:0:0:0:
256,192,81998,1,8,0:0:0:0:
256,192,82222,1,0,0:0:0:0:
256,192,82334,1,8,0:0:0:0:
256,192,82558,1,0,0:0:0:0:
256,192,82781,1,8,0:0:0:0:
256,192,82893,1,8,0:0:0:0:
256,192,83005,1,0,0:0:0:0:
256,192,83229,1,0,0:0:0:0:
256,192,83341,1,8,0:0:0:0:
256,192,83453,1,0,0:0:0:0:
256,192,83677,1,0,0:0:0:0:
256,192,83789,1,8,0:0:0:0:
256,192,84013,1,0,0:0:0:0:
256,192,84125,1,8,0:0:0:0:
256,192,84349,1,4,0:0:0:0:
256,192,84572,1,8,0:0:0:0:
256,192,84684,1,8,0:0:0:0:
256,192,84796,1,0,0:0:0:0:
256,192,85020,1,8,0:0:0:0:
256,192,85244,1,0,0:0:0:0:
256,192,85356,1,0,0:0:0:0:
256,192,85468,1,8,0:0:0:0:
256,192,85580,1,8,0:0:0:0:
256,192,85692,1,0,0:0:0:0:
256,192,85916,1,8,0:0:0:0:
256,192,86140,1,0,0:0:0:0:
256,192,86364,1,8,0:0:0:0:
256,192,86475,1,8,0:0:0:0:
256,192,86587,1,0,0:0:0:0:
256,192,86811,1,0,0:0:0:0:
256,192,86923,1,8,0:0:0:0:
256,192,87035,1,0,0:0:0:0:
256,192,87147,1,0,0:0:0:0:
256,192,87259,1,8,0:0:0:0:
256,192,87483,1,0,0:0:0:0:
256,192,87707,1,8,0:0:0:0:
256,192,87819,1,8,0:0:0:0:
256,192,87931,1,0,0:0:0:0:
256,192,88155,1,0,0:0:0:0:
256,192,88267,1,8,0:0:0:0:
256,192,88378,1,0,0:0:0:0:
256,192,88602,1,8,0:0:0:0:
256,192,88714,1,8,0:0:0:0:
256,192,88826,1,0,0:0:0:0:
256,192,89050,1,0,0:0:0:0:
256,192,89162,1,8,0:0:0:0:
256,192,89386,1,0,0:0:0:0:
256,192,89498,1,8,0:0:0:0:
256,192,89722,1,0,0:0:0:0:
256,192,89946,1,8,0:0:0:0:
256,192,90058,1,8,0:0:0:0:
256,192,90170,1,0,0:0:0:0:
256,192,90393,1,0,0:0:0:0:
256,192,90505,1,8,0:0:0:0:
256,192,90617,1,0,0:0:0:0:
256,192,90841,1,0,0:0:0:0:
256,192,90953,1,8,0:0:0:0:
256,192,91177,1,0,0:0:0:0:
256,192,91289,1,8,0:0:0:0:
256,192,91513,1,4,0:0:0:0:
256,192,91737,1,8,0:0:0:0:
256,192,91849,1,8,0:0:0:0:
256,192,91961,1,0,0:0:0:0:
256,192,92184,1,8,0:0:0:0:
256,192,92408,1,0,0:0:0:0:
256,192,92520,1,0,0:0:0:0:
256,192,92632,1,8,0:0:0:0:
256,192,92744,1,8,0:0:0:0:
256,192,92856,1,0,0:0:0:0:
256,192,93080,1,8,0:0:0:0:
256,192,93304,1,0,0:0:0:0:
256,192,93528,1,8,0:0:0:0:
256,192,93640,1,8,0:0:0:0:
256,192,93752,1,0,0:0:0:0:
256,192,93975,1,0,0:0:0:0:
256,192,94087,1,8,0:0:0:0:
256,192,94199,1,0,0:0:0:0:
256,192,94311,1,0,0:0:0:0:
256,192,94423,1,8,0:0:0:0:
256,192,94647,1,0,0:0:0:0:
256,192,94871,1,8,0:0:0:0:
256,192,94983,1,8,0:0:0:0:
256,192,95095,1,0,0:0:0:0:
256,192,95319,1,0,0:0:0:0:
256,192,95431,1,8,0:0:0:0:
256,192,95543,1,0,0:0:0:0:
256,192,95767,1,8,0:0:0:0:
256,192,95878,1,8,0:0:0:0:
256,192,95990,1,0,0:0:0:0:
256,192,96214,1,0,0:0:0:0:
256,192,96326,1,8,0:0:0:0:
256,192,96550,1,0,0:0:0:0:
256,192,96662,1,8,0:0:0:0:
256,192,96886,1,0,0:0:0:0:
256,192,97110,1,8,0:0:0:0:
256,192,97222,1,8,0:0:0:0:
256,192,97334,1,0,0:0:0:0:
256,192,97558,1,0,0:0:0:0:
256,192,97670,1,8,0:0:0:0:
256,192,97781,1,0,0:0:0:0:
256,192,98005,1,0,0:0:0:0:
256,192,98117,1,8,0:0:0:0:
256,192,98341,1,0,0:0:0:0:
256,192,98453,1,8,0:0:0:0:
256,192,98677,1,4,0:0:0:0:
256,192,98901,1,8,0:0:0:0:
256,192,99013,1,8,0:0:0:0:
256,192,99125,1,0,0:0:0:0:
256,192,99349,1,8,0:0:0:0:
256,192,99572,1,0,0:0:0:0:
256,192,99684,1,0,0:0:0:0:
256,192,99796,1,8,0:0:0:0:
256,192,99908,1,8,0:0:0:0:
256,192,100020,1,0,0:0:0:0:
256,192,100244,1,8,0:0:0:0:
256,192,100468,1,0,0:0:0:0:
256,192,100692,1,8,0:0:0:0:
256,192,100804,1,8,0:0:0:0:
256,192,100916,1,0,0:0:0:0:
256,192,101140,1,0,0:0:0:0:
256,192,101252,1,8,0:0:0:0:
256,192,101364,1,0,0:0:0:0:
256,192,101475,1,0,0:0:0:0:
256,192,101587,1,8,0:0:0:0:
256,192,101811,1,0,0:0:0:0:
256,192,102035,1,8,0:0:0:0:
256,192,102147,1,8,0:0:0:0:
256,192,102259,1,0,0:0:0:0:
256,192,102483,1,0,0:0:0:0:
256,192,102595,1,8,0:0:0:0:
256,192,102707,1,0,0:0:0:0:
256,192,102931,1,8,0:0:0:0:
256,192,103043,1,8,0:0:0:0:
256,192,103155,1,0,0:0:0:0:
256,192,103378,1,0,0:0:0:0:
256,192,103490,1,8,0:0:0:0:
256,192,103714,1,0,0:0:0:0:
256,192,103826,1,8,0:0:0:0:
256,192,104050,1,0,0:0:0:0:
256,192,104274,1,8,0:0:0:0:
256,192,104386,1,8,0:0:0:0:
256,192,104498,1,0,0:0:0:0:
256,192,104722,1,0,0:0:0:0:
256,192,104834,1,8,0:0:0:0:
256,192,104946,1,0,0:0:0:0:
256,192,105170,1,0,0:0:0:0:
256,192,105281,1,8,0:0:0:0:
256,192,105505,1,0,0:0:0:0:
256,192,105617,1,8,0:0:0:0:
256,192,105841,1,4,0:0:0:0:
256,192,106065,1,0,0:0:0:0:
256,192,106177,1,0,0:0:0:0:
256,192,106289,1,8,0:0:0:0:
256,192,106513,1,0,0:0:0:0:
256,192,106625,1,8,0:0:0:0:
256,192,106737,1,0,0:0:0:0:
256,192,106961,1,8,0:0:0:0:
256,192,107184,1,0,0:0:0:0:
256,192,107296,1,0,0:0:0:0:
256,192,107408,1,8,0:0:0:0:
256,192,107520,1,8,0:0:0:0:
256,192,107632,1,0,0:0:0:0:
256,192,107856,1,0,0:0:0:0:
256,192,107968,1,0,0:0:0:0:
256,192,108080,1,8,0:0:0:0:
256,192,108304,1,0,0:0:0:0:
256,192,108416,1,8,0:0:0:0:
256,192,108528,1,0,0:0:0:0:
256,192,108752,1,8,0:0:0:0:
256,192,108975,1,0,0:0:0:0:
256,192,109087,1,0,0:0:0:0:
256,192,109199,1,8,0:0:0:0:
256,192,109311,1,8,0:0:0:0:
256,192,109423,1,0,0:0:0:0:
256,192,109647,1,0,0:0:0:0:
256,192,109759,1,0,0:0:0:0:
256,192,109871,1,8,0:0:0:0:
256,192,110095,1,0,0:0:0:0:
256,192,110207,1,8,0:0:0:0:
256,192,110319,1,0,0:0:0:0:
256,192,110543,1,0,0:0:0:0:
256,192,110655,1,0,0:0:0:0:
256,192,110767,1,8,0:0:0:0:
256,192,110990,1,8,0:0:0:0:
256,192,111214,1,0,0:0:0:0:
256,192,111550,1,0,0:0:0:0:
256,192,111662,1,8,0:0:0:0:
256,192,111886,1,0,0:0:0:0:
256,192,111998,1,8,0:0:0:0:
256,192,112110,1,0,0:0:0:0:
256,192,112334,1,0,0:0:0:0:
256,192,112446,1,0,0:0:0:0:
256,192,112558,1,8,0:0:0:0:
256,192,112670,1,0,0:0:0:0:
256,192,112781,1,8,0:0:0:0:
256,192,113005,1,4,0:0:0:0:
