osu file format v14

[General]
AudioFilename: audio.mp3
AudioLeadIn: 0
PreviewTime: 65984
Countdown: 0
SampleSet: Soft
StackLeniency: 0.7
Mode: 0
LetterboxInBreaks: 0
EpilepsyWarning: 1
WidescreenStoryboard: 1

[Editor]
Bookmarks: 93484,120150
DistanceSpacing: 1
BeatDivisor: 8
GridSize: 32
TimelineZoom: 2.5

[Metadata]
Title:You Might Get Lost (Cut Ver.)
TitleUnicode:You Might Get Lost (Cut Ver.)
Artist:Julian Calor
ArtistUnicode:Julian Calor
Creator:Hantrik
Version:Journey
Source:
Tags:psytrance monstercat uncaged grissaryath electronic instrumental english
BeatmapID:2455847
BeatmapSetID:1177530

[Difficulty]
HPDrainRate:4.8
CircleSize:4.1
OverallDifficulty:8.6
ApproachRate:9
SliderMultiplier:1.4
SliderTickRate:1

[Events]
//Background and Video events
0,0,"bg.jpg",0,0
//Break Periods
//Storyboard Layer 0 (Background)
//Storyboard Layer 1 (Fail)
//Storyboard Layer 2 (Pass)
//Storyboard Layer 3 (Foreground)
//Storyboard Layer 4 (Overlay)
//Storyboard Sound Samples

[TimingPoints]
-1516,416.666666666667,4,2,1,40,1,0
150,-333.333333333333,4,2,1,40,0,0
567,-333.333333333333,4,2,1,5,0,0
775,-333.333333333333,4,2,1,40,0,0
984,-333.333333333333,4,2,1,5,0,0
1192,-333.333333333333,4,2,1,40,0,0
1400,-333.333333333333,4,2,1,5,0,0
1609,-333.333333333333,4,2,1,40,0,0
3275,-333.333333333333,4,2,1,5,0,0
3484,-333.333333333333,4,2,1,40,0,0
3900,-333.333333333333,4,2,1,5,0,0
4109,-333.333333333333,4,2,1,40,0,0
4317,-333.333333333333,4,2,1,5,0,0
4525,-333.333333333333,4,2,1,40,0,0
4734,-333.333333333333,4,2,1,5,0,0
4942,-333.333333333333,4,2,1,40,0,0
6609,-333.333333333333,4,2,1,5,0,0
6817,-333.333333333333,4,2,1,40,0,0
7234,-333.333333333333,4,2,1,5,0,0
7442,-333.333333333333,4,2,1,40,0,0
7650,-333.333333333333,4,2,1,5,0,0
7859,-333.333333333333,4,2,1,40,0,0
8067,-333.333333333333,4,2,1,5,0,0
8275,-333.333333333333,4,2,1,40,0,0
9942,-333.333333333333,4,2,1,5,0,0
10150,-333.333333333333,4,2,1,40,0,0
10567,-333.333333333333,4,2,1,5,0,0
10775,-333.333333333333,4,2,1,40,0,0
10984,-333.333333333333,4,2,1,5,0,0
11192,-333.333333333333,4,2,1,40,0,0
11400,-333.333333333333,4,2,1,5,0,0
11609,-333.333333333333,4,2,1,40,0,0
13275,-333.333333333333,4,2,1,5,0,0
13483,-100,4,2,1,45,0,0
13900,-100,4,2,1,5,0,0
14109,-100,4,2,1,45,0,0
14941,-250,4,2,1,45,0,0
15567,-250,4,2,1,5,0,0
15775,-100,4,2,1,45,0,0
16816,-250,4,2,1,45,0,0
17234,-250,4,2,1,5,0,0
17441,-100,4,2,1,45,0,0
18275,-250,4,2,1,45,0,0
18900,-250,4,2,1,5,0,0
19109,-250,4,2,1,45,0,0
19733,-100,4,2,1,45,0,0
20150,-250,4,2,1,45,0,0
20567,-250,4,2,1,5,0,0
20775,-100,4,2,1,45,0,0
21608,-250,4,2,1,45,0,0
22234,-250,4,2,1,5,0,0
22442,-250,4,2,1,45,0,0
23483,-250,4,2,1,45,0,0
23900,-250,4,2,1,5,0,0
24109,-250,4,2,1,45,0,0
24941,-250,4,2,1,45,0,0
25567,-250,4,2,1,5,0,0
25775,-250,4,2,1,45,0,0
26817,-125,4,2,2,45,0,0
30150,-111.111111111111,4,2,2,45,0,0
33484,-111.111111111111,4,2,2,50,0,0
36817,-99.9999999999999,4,2,2,55,0,0
38484,-66.6666666666667,4,2,3,65,0,0
38796,-66.6666666666667,4,2,3,5,0,0
38900,-76.9230769230769,4,2,3,65,0,0
39213,-76.9230769230769,4,2,3,5,0,0
39317,-90.9090909090909,4,2,3,65,0,0
39629,-90.9090909090909,4,2,3,5,0,0
39734,-250,4,2,4,65,0,0
40046,-250,4,2,4,5,0,0
40150,-66.6666666666667,4,2,5,75,0,0
51817,-76.9230769230769,4,2,5,65,0,0
53484,-66.6666666666667,4,2,5,80,0,0
63379,-76.9230769230769,4,2,5,80,0,0
63484,-76.9230769230769,4,2,5,65,0,0
65984,-90.9090909090909,4,2,5,65,0,0
66400,-200,4,2,5,65,0,0
66817,-62.5,4,2,5,80,0,1
78484,-76.9230769230769,4,2,5,70,0,0
80150,-62.5,4,2,5,80,0,1
90150,-66.6666666666667,4,2,5,75,0,1
91817,-66.6666666666667,4,2,5,70,0,0
92025,-71.4285714285714,4,2,5,70,0,0
93484,-76.9230769230769,4,2,5,60,0,0
100151,-90.9090909090909,4,2,5,55,0,0
103484,-111.111111111111,4,2,5,50,0,0
106817,-333.333333333332,4,2,1,50,0,0
107963,-333.333333333332,4,2,1,5,0,0
108067,-333.333333333332,4,2,1,50,0,0
110046,-333.333333333332,4,2,1,5,0,0
110150,-333.333333333332,4,2,1,50,0,0
111504,-333.333333333332,4,2,1,5,0,0
111609,-333.333333333332,4,2,1,50,0,0
113379,-333.333333333332,4,2,1,5,0,0
113484,-333.333333333332,4,2,1,50,0,0
114629,-333.333333333332,4,2,1,5,0,0
114734,-333.333333333332,4,2,1,50,0,0
115671,-333.333333333332,4,2,1,5,0,0
115775,-333.333333333332,4,2,1,50,0,0
117338,-333.333333333332,4,2,1,5,0,0
117442,-333.333333333332,4,2,1,50,0,0
118484,-333.333333333332,4,2,1,5,0,0
118588,-333.333333333332,4,2,1,50,0,0
119421,-333.333333333332,4,2,1,45,0,0
119525,-333.333333333332,4,2,1,41,0,0
119629,-333.333333333332,4,2,1,36,0,0
119734,-333.333333333332,4,2,1,32,0,0
119838,-333.333333333332,4,2,1,27,0,0
119942,-333.333333333332,4,2,1,23,0,0
120046,-333.333333333332,4,2,1,18,0,0
120150,-333.333333333332,4,2,1,15,0,0

[Colours]
Combo1 : 192,192,192
Combo2 : 253,204,130
Combo3 : 231,158,78

[HitObjects]
446,65,150,6,0,P|441:87|438:115,1,41.9999987182618,6|0,0:0|0:0,0:0:0:0:
330,45,775,2,0,P|332:58|333:70,1,20.9999993591309,2|0,0:0|0:0,0:0:0:0:
464,55,1191,2,0,P|461:68|460:80,1,20.9999993591309,2|0,0:0|0:0,0:0:0:0:
348,157,1608,2,0,P|322:106|220:103,1,167.999994873047,2|0,0:0|0:0,0:0:0:0:
133,191,3483,6,0,P|128:172|125:149,1,41.9999987182618,6|0,0:0|0:0,0:0:0:0:
33,63,4108,2,0,P|31:75|29:84,1,20.9999993591309,2|0,0:0|0:0,0:0:0:0:
114,204,4525,2,0,P|111:194|110:183,1,20.9999993591309,2|0,0:0|0:0,0:0:0:0:
170,41,4941,2,0,B|218:49|219:102|219:102|260:65|297:88,1,167.999994873047,2|0,0:0|0:0,0:0:0:0:
377,170,6816,6,0,P|396:166|419:158,1,41.9999987182618,6|0,0:0|0:0,0:0:0:0:
308,259,7441,2,0,P|297:255|287:253,1,20.9999993591309,2|0,0:0|0:0,0:0:0:0:
382,150,7858,2,0,P|392:147|403:144,1,20.9999993591309,2|0,0:0|0:0,0:0:0:0:
480,289,8275,2,0,B|504:281|511:252|505:213|458:208|419:218|397:245,1,167.999994873047,2|0,0:0|0:0,0:0:0:0:
295,327,10150,6,0,P|295:304|298:280,1,41.9999987182618,6|0,0:0|0:0,0:0:0:0:
184,209,10775,2,0,P|185:220|185:229,1,20.9999993591309,2|0,0:0|0:0,0:0:0:0:
277,337,11191,2,0,P|277:327|278:316,1,20.9999993591309,2|0,0:0|0:0,0:0:0:0:
260,179,11608,2,0,P|238:140|126:148,1,167.999994873047,2|0,0:0|0:0,0:0:0:0:
21,365,13483,6,0,P|31:310|113:305,1,140,6|0,1:2|0:0,0:0:0:0:
162,369,14108,1,2,0:0:0:0:
242,291,14525,1,2,0:0:0:0:
167,207,14941,2,0,P|172:169|181:115,1,84,2|0,0:0|0:0,0:0:0:0:
121,47,15775,1,2,0:0:0:0:
121,47,15983,1,2,0:0:0:0:
31,115,16400,1,2,0:0:0:0:
94,206,16816,6,0,P|99:234|103:266,1,56,2|0,0:0|0:0,0:0:0:0:
174,328,17441,1,2,0:0:0:0:
253,248,17858,1,2,0:0:0:0:
344,313,18275,2,0,P|386:299|391:259,1,84,2|0,0:0|0:0,0:0:0:0:
346,175,19108,1,2,0:0:0:0:
346,175,19316,1,2,0:0:0:0:
419,90,19733,1,2,0:0:0:0:
330,21,20150,6,0,P|300:30|270:37,1,56,2|0,0:0|0:0,0:0:0:0:
206,106,20775,1,2,0:0:0:0:
122,31,21191,1,2,0:0:0:0:
28,92,21608,2,0,B|15:111|9:125|9:125|16:150|21:176,1,84,2|0,0:0|0:0,0:0:0:0:
94,241,22441,1,2,0:0:0:0:
94,241,22650,1,2,0:0:0:0:
30,332,23066,1,2,0:0:0:0:
134,373,23483,6,0,P|161:361|189:350,1,56,2|0,0:0|0:0,0:0:0:0:
235,268,24108,1,2,0:0:0:0:
335,318,24525,1,2,0:0:0:0:
420,245,24941,2,0,B|431:226|440:216|440:216|436:190|428:163,1,84,2|0,0:0|0:0,0:0:0:0:
356,106,25775,1,2,0:0:0:0:
356,106,25984,1,2,0:0:0:0:
267,173,26400,1,2,0:0:0:0:
166,58,26817,6,0,P|132:62|99:109,1,84,6|2,1:2|0:0,0:0:0:0:
27,88,27234,2,0,P|61:94|81:121,1,56,2|2,1:2|0:0,0:0:0:0:
115,204,27650,2,0,P|106:236|98:274,1,56,0|0,1:0|0:0,0:0:0:0:
158,343,28067,1,2,1:2:0:0:
230,285,28275,1,2,0:0:0:0:
297,353,28484,6,0,B|345:342|324:319|376:309,1,84,2|2,1:2|0:0,0:0:0:0:
427,352,28900,2,0,P|403:314|401:278,1,56,2|2,1:2|0:0,0:0:0:0:
385,209,29317,2,0,P|391:181|401:139,1,56,0|0,1:0|0:0,0:0:0:0:
462,71,29734,1,2,1:2:0:0:
380,21,29942,1,2,0:0:0:0:
309,82,30150,6,0,P|264:67|217:53,1,94.499997116089,2|2,1:2|0:0,0:0:0:0:
146,52,30567,2,0,P|178:40|208:32,1,62.9999980773926,2|2,1:2|0:0,0:0:0:0:
85,122,30984,2,0,P|58:79|62:55,1,62.9999980773926,0|0,1:0|0:0,0:0:0:0:
193,133,31400,1,2,1:2:0:0:
138,217,31609,1,2,0:0:0:0:
232,283,31817,6,0,P|189:289|176:338,1,94.499997116089,2|2,1:2|0:0,0:0:0:0:
95,300,32234,2,0,P|129:306|138:339,1,62.9999980773926,2|2,1:2|0:0,0:0:0:0:
51,217,32650,2,0,P|16:223|7:256,1,62.9999980773926,0|0,1:0|0:0,0:0:0:0:
85,122,33067,1,2,1:2:0:0:
172,189,33275,2,0,P|183:185|192:181,3,15.7499995193482,10|0|0|0,0:0|0:0|0:0|0:0,0:0:0:0:
226,119,33484,6,0,P|244:125|266:131,3,31.4999990386963,10|8|8|10,1:2|0:0|1:0|0:0,0:0:0:0:
271,201,33900,2,0,P|286:195|301:191,3,31.4999990386963,10|8|10|8,1:2|0:0|1:2|0:0,0:0:0:0:
304,73,34317,2,0,P|323:80|344:85,3,31.4999990386963,8|10|8|8,1:0|0:0|1:0|0:0,0:0:0:0:
356,244,34734,2,0,P|371:237|386:234,3,31.4999990386963,10|8|10|8,1:2|0:0|1:2|0:0,0:0:0:0:
215,300,35150,5,10,1:2:0:0:
196,274,35254,1,8,0:0:0:0:
193,243,35358,1,8,1:0:0:0:
206,215,35462,1,10,0:0:0:0:
223,188,35567,5,10,1:2:0:0:
241,162,35671,1,8,0:0:0:0:
244,131,35775,1,10,1:2:0:0:
231,103,35879,1,8,0:0:0:0:
207,81,35984,5,8,1:0:0:0:
175,78,36088,1,10,0:0:0:0:
147,91,36192,1,8,1:0:0:0:
129,116,36296,1,8,0:0:0:0:
124,147,36400,5,10,1:2:0:0:
137,176,36504,1,8,0:0:0:0:
162,193,36608,1,10,1:2:0:0:
193,197,36712,1,8,0:0:0:0:
290,159,36817,6,0,P|311:152|333:149,3,35,8|8|8|8,0:0|0:0|0:0|0:0,0:0:0:0:
416,73,37234,2,0,P|395:69|373:63,3,35,8|8|8|8,0:0|0:0|0:0|0:0,0:0:0:0:
267,23,37650,6,0,P|247:26|232:30,1,35,8|8,0:0|0:0,0:0:0:0:
122,75,37859,2,0,P|140:81|157:84,1,35,8|8,0:0|0:0,0:0:0:0:
312,143,38067,2,0,P|295:136|277:132,1,35,8|8,0:0|0:0,0:0:0:0:
87,179,38275,2,0,P|106:174|122:168,1,35,8|8,0:0|0:0,0:0:0:0:
256,299,38484,6,0,P|272:233|192:220,1,157.500006008148,4|0,0:0|0:0,0:0:0:0:
103,281,38900,2,0,P|164:295|176:227,1,136.499993751526,4|0,0:0|0:0,0:0:0:0:
139,134,39317,2,0,P|125:188|183:200,1,115.50000352478,4|0,0:0|0:0,0:0:0:0:
253,82,39734,2,0,P|239:59|216:53,1,42,4|0,0:0|0:0,0:0:0:0:
198,43,40150,6,0,B|261:38|231:4|306:-2,1,105.000004005432,6|0,1:2|0:0,0:0:0:0:
382,117,40463,1,0,0:0:0:0:
382,117,40567,2,0,P|345:90|323:85,1,52.5000020027161,0|0,1:0|0:0,0:0:0:0:
492,19,40775,2,0,P|482:71|475:130,1,105.000004005432,2|0,0:0|1:0,0:0:0:0:
416,222,41088,1,0,0:0:0:0:
416,222,41192,2,0,P|426:277|433:333,1,105.000004005432,2|0,0:0|1:0,0:0:0:0:
265,243,41504,5,0,0:0:0:0:
265,243,41609,2,0,P|242:183|317:192,1,157.500006008148,2|0,0:0|0:0,0:0:0:0:
345,300,42025,1,0,0:0:0:0:
349,316,42129,1,0,0:0:0:0:
344,330,42234,2,0,P|317:345|291:350,1,52.5000020027161,0|0,1:0|0:0,0:0:0:0:
158,222,42442,2,0,P|164:248|181:273,1,52.5000020027161,2|0,0:0|0:0,0:0:0:0:
32,354,42650,2,0,P|61:298|101:309,1,105.000004005432,2|0,1:2|0:0,0:0:0:0:
209,364,42963,1,0,0:0:0:0:
209,364,43067,2,0,P|220:293|236:237,1,105.000004005432,2|0,1:2|0:0,0:0:0:0:
142,129,43379,5,0,0:0:0:0:
142,129,43484,2,0,P|88:152|75:209,1,105.000004005432,2|0,1:2|0:0,0:0:0:0:
214,47,43796,1,0,0:0:0:0:
214,47,43900,2,0,P|175:30|137:35,1,52.5000020027161,0|0,1:0|0:0,0:0:0:0:
260,176,44109,2,0,B|291:181|315:186|315:186|333:171|357:138,1,105.000004005432,2|0,0:0|1:0,0:0:0:0:
488,254,44421,1,0,0:0:0:0:
488,254,44525,2,0,B|469:235|455:217|455:217|431:219|400:227,1,105.000004005432,2|0,0:0|1:0,0:0:0:0:
288,321,44838,5,0,0:0:0:0:
288,321,44942,2,0,B|320:305|328:273|321:249|292:216|257:213|226:228,1,157.500006008148,2|0,0:0|0:0,0:0:0:0:
48,266,45359,1,0,0:0:0:0:
43,248,45463,1,0,0:0:0:0:
52,231,45567,2,0,P|74:207|102:205,1,52.5000020027161,0|0,1:0|0:0,0:0:0:0:
250,146,45775,2,0,P|217:146|197:165,1,52.5000020027161,2|0,0:0|0:0,0:0:0:0:
145,289,45984,2,0,P|130:217|127:161,1,105.000004005432,2|0,1:2|0:0,0:0:0:0:
149,40,46296,1,0,0:0:0:0:
149,40,46400,2,0,P|210:34|223:94,1,105.000004005432,2|0,1:2|0:0,0:0:0:0:
23,192,46713,5,0,0:0:0:0:
23,192,46817,2,0,P|16:142|2:67,1,105.000004005432,2|0,1:2|0:0,0:0:0:0:
178,158,47129,1,0,0:0:0:0:
178,158,47234,2,0,P|173:188|168:228,1,52.5000020027161,0|0,1:0|0:0,0:0:0:0:
69,351,47442,2,0,P|122:298|162:320,1,105.000004005432,2|0,0:0|1:0,0:0:0:0:
280,355,47754,1,0,0:0:0:0:
280,355,47859,2,0,P|272:305|268:228,1,105.000004005432,2|0,0:0|1:0,0:0:0:0:
283,134,48171,5,0,0:0:0:0:
283,134,48275,2,0,B|249:104|258:73|272:45|316:33|360:66,1,157.500006008148,2|0,0:0|0:0,0:0:0:0:
446,156,48692,1,0,0:0:0:0:
455,171,48796,1,0,0:0:0:0:
455,194,48900,2,0,P|444:230|442:265,1,52.5000020027161,0|0,1:0|0:0,0:0:0:0:
270,257,49109,2,0,P|297:234|332:228,1,52.5000020027161,2|0,0:0|0:0,0:0:0:0:
428,353,49317,2,0,P|394:309|344:327,1,105.000004005432,2|0,1:2|0:0,0:0:0:0:
209,371,49629,1,0,0:0:0:0:
209,371,49734,2,0,P|162:323|151:268,1,105.000004005432,2|0,1:2|0:0,0:0:0:0:
85,157,50046,5,0,0:0:0:0:
85,157,50150,2,0,P|42:200|32:263,1,105.000004005432,2|0,1:2|0:0,0:0:0:0:
230,240,50463,1,0,0:0:0:0:
230,240,50567,2,0,P|234:207|228:177,1,52.5000020027161,0|0,1:0|0:0,0:0:0:0:
155,68,50775,2,0,P|208:51|268:35,1,105.000004005432,2|0,0:0|1:0,0:0:0:0:
385,100,51088,1,0,0:0:0:0:
385,100,51192,2,0,P|437:116|485:129,1,105.000004005432,2|0,0:0|1:0,0:0:0:0:
412,266,51504,1,0,0:0:0:0:
412,266,51609,2,0,P|382:273|343:279,1,52.5000020027161,2|0,0:0|0:0,0:0:0:0:
212,262,51817,6,0,P|237:240|257:235,3,45.4999979171754,0|0|0|0,1:0|0:0|0:0|0:0,0:0:0:0:
321,156,52234,2,0,P|296:134|276:129,3,45.4999979171754,0|0|2|0,1:0|0:0|0:0|0:0,0:0:0:0:
141,138,52650,2,0,P|139:78|205:92,1,136.499993751526,2|0,1:2|0:0,0:0:0:0:
88,212,53067,2,0,P|66:183|60:149,1,45.4999979171754,2|0,1:2|0:0,0:0:0:0:
83,298,53275,2,0,P|48:286|23:262,1,45.4999979171754,0|0,0:0|0:0,0:0:0:0:
201,375,53484,6,0,B|208:352|216:335|216:335|208:305|196:274,1,105.000004005432,6|0,1:2|0:0,0:0:0:0:
311,225,53796,1,0,0:0:0:0:
311,225,53900,2,0,P|307:254|305:285,1,52.5000020027161,8|0,0:0|0:0,0:0:0:0:
214,150,54109,2,0,P|256:109|306:110,1,105.000004005432,2|0,0:0|1:0,0:0:0:0:
481,236,54421,1,0,0:0:0:0:
481,236,54525,2,0,P|437:226|420:165,1,105.000004005432,2|8,0:0|0:0,0:0:0:0:
412,18,54838,5,0,0:0:0:0:
412,18,54942,2,0,P|408:76|319:49,1,157.500006008148,2|0,0:0|0:0,0:0:0:0:
146,59,55359,2,0,P|166:39|193:28,1,52.5000020027161,2|0,0:0|0:0,0:0:0:0:
296,170,55567,2,0,P|281:145|260:127,1,52.5000020027161,8|0,0:0|0:0,0:0:0:0:
122,59,55775,2,0,P|142:39|168:27,1,52.5000020027161,2|0,0:0|0:0,0:0:0:0:
85,241,55984,2,0,P|41:205|48:137,1,105.000004005432,2|0,1:2|0:0,0:0:0:0:
191,259,56296,1,0,0:0:0:0:
191,259,56400,2,0,P|185:308|180:370,1,105.000004005432,10|0,0:0|0:0,0:0:0:0:
346,221,56713,5,0,0:0:0:0:
346,221,56817,2,0,B|289:195|319:174|256:155,1,105.000004005432,2|0,1:2|0:0,0:0:0:0:
443,119,57129,1,0,0:0:0:0:
443,119,57234,2,0,P|448:94|459:52,1,52.5000020027161,8|0,0:0|0:0,0:0:0:0:
503,250,57442,2,0,P|451:267|446:324,1,105.000004005432,2|0,0:0|1:0,0:0:0:0:
292,376,57754,1,0,0:0:0:0:
292,376,57859,2,0,P|303:320|306:260,1,105.000004005432,2|8,0:0|0:0,0:0:0:0:
310,120,58171,5,0,0:0:0:0:
310,120,58275,2,0,B|346:102|394:115|382:164|410:188|462:179,1,157.500006008148,2|0,0:0|0:0,0:0:0:0:
239,222,58692,2,0,P|219:204|207:181,1,52.5000020027161,2|0,0:0|0:0,0:0:0:0:
110,79,58900,2,0,P|90:96|78:119,1,52.5000020027161,8|0,0:0|0:0,0:0:0:0:
228,243,59109,2,0,P|208:225|196:202,1,52.5000020027161,2|0,0:0|0:0,0:0:0:0:
0,259,59317,2,0,P|41:204|83:214,1,105.000004005432,2|0,1:2|0:0,0:0:0:0:
191,339,59629,1,0,0:0:0:0:
191,339,59734,2,0,P|247:323|313:310,1,105.000004005432,10|0,0:0|0:0,0:0:0:0:
382,170,60046,5,0,0:0:0:0:
382,170,60150,2,0,P|321:168|305:218,1,105.000004005432,2|0,1:2|0:0,0:0:0:0:
502,287,60463,1,0,0:0:0:0:
502,287,60567,2,0,P|505:260|513:214,1,52.5000020027161,8|0,0:0|0:0,0:0:0:0:
346,384,60775,2,0,P|340:334|331:263,1,105.000004005432,2|0,0:0|1:0,0:0:0:0:
202,189,61088,1,0,0:0:0:0:
202,189,61192,2,0,B|173:195|148:203|148:203|131:186|110:158,1,105.000004005432,2|8,0:0|0:0,0:0:0:0:
40,316,61504,5,0,0:0:0:0:
40,316,61609,2,0,B|83:316|101:360|101:360|120:318|183:322,1,157.500006008148,2|0,0:0|0:0,0:0:0:0:
311,247,62025,2,0,P|287:273|279:299,1,52.5000020027161,2|0,0:0|0:0,0:0:0:0:
446,364,62234,2,0,P|425:326|394:313,1,52.5000020027161,8|0,0:0|0:0,0:0:0:0:
302,226,62442,2,0,P|278:252|270:278,1,52.5000020027161,2|0,0:0|0:0,0:0:0:0:
465,191,62650,2,0,P|452:134|395:120,1,105.000004005432,2|0,1:2|0:0,0:0:0:0:
234,155,62963,1,0,0:0:0:0:
234,155,63067,2,0,P|186:144|111:124,1,105.000004005432,10|0,0:0|0:0,0:0:0:0:
59,249,63379,5,0,0:0:0:0:
59,249,63484,2,0,P|86:235|126:220,1,45.4999979171754,2|0,0:0|0:0,0:0:0:0:
218,248,63692,1,0,0:0:0:0:
152,326,63900,1,0,0:0:0:0:
265,345,64109,2,0,P|320:304|316:255,1,90.9999958343508,2|0,0:0|0:0,0:0:0:0:
298,159,64421,1,0,0:0:0:0:
298,159,64525,2,0,P|361:184|370:232,1,90.9999958343508,2|8,0:0|0:0,0:0:0:0:
166,120,64838,5,0,0:0:0:0:
166,120,64942,2,0,B|194:134|233:124|223:84|246:65|288:72,1,136.499993751526,2|0,0:0|0:0,0:0:0:0:
70,222,65359,1,2,0:0:0:0:
50,216,65463,1,0,0:0:0:0:
33,202,65567,2,0,P|22:141|39:93,1,90.9999958343508,8|2,0:0|0:0,0:0:0:0:
178,42,65879,1,0,0:0:0:0:
178,42,65984,2,0,P|189:90|180:130,1,77.0000023498536,2|0,0:0|0:0,0:0:0:0:
5,130,66400,2,0,P|3:108|10:88,1,35,10|0,0:0|0:0,0:0:0:0:
165,214,66817,6,0,P|222:198|280:185,1,112,6|0,1:2|0:0,0:0:0:0:
105,336,67129,1,0,0:0:0:0:
86,356,67234,2,0,P|56:345|24:337,1,56,8|0,0:0|0:0,0:0:0:0:
251,384,67442,2,0,B|242:358|232:331|232:331|241:311|261:283,1,112,2|0,0:0|1:0,0:0:0:0:
433,231,67754,1,0,0:0:0:0:
462,248,67859,2,0,B|475:272|488:294|488:294|481:320|468:352,1,112,2|8,0:0|0:0,0:0:0:0:
321,123,68171,5,0,0:0:0:0:
297,147,68275,2,0,B|259:132|251:96|264:64|304:43|348:65,1,168,2|0,0:0|0:0,0:0:0:0:
283,246,68692,2,0,P|246:229|225:200,1,56,2|0,0:0|0:0,0:0:0:0:
448,111,68900,2,0,P|454:139|458:175,1,56,8|0,0:0|0:0,0:0:0:0:
269,266,69109,2,0,P|232:249|211:220,1,56,2|0,0:0|0:0,0:0:0:0:
511,300,69317,2,0,P|458:259|407:279,1,112,2|0,1:2|0:0,0:0:0:0:
286,365,69629,1,0,0:0:0:0:
253,374,69734,2,0,P|213:321|186:244,1,112,10|0,0:0|0:0,0:0:0:0:
140,116,70046,5,0,0:0:0:0:
115,93,70150,2,0,P|60:103|39:152,1,112,2|0,1:2|0:0,0:0:0:0:
93,317,70463,1,0,0:0:0:0:
117,334,70567,2,0,P|149:315|163:283,1,56,8|0,0:0|0:0,0:0:0:0:
248,179,70775,2,0,P|308:166|383:155,1,112,2|0,0:0|1:0,0:0:0:0:
485,54,71088,1,0,0:0:0:0:
466,32,71192,2,0,P|413:26|338:16,1,112,2|8,0:0|0:0,0:0:0:0:
154,19,71504,5,0,0:0:0:0:
133,41,71609,2,0,B|135:90|169:113|169:113|139:143|146:194,1,168,2|0,0:0|0:0,0:0:0:0:
322,292,72025,2,0,P|305:246|281:229,1,56,2|0,0:0|0:0,0:0:0:0:
94,267,72234,2,0,P|124:285|154:291,1,56,8|0,0:0|0:0,0:0:0:0:
345,298,72442,2,0,P|328:252|304:235,1,56,2|0,0:0|0:0,0:0:0:0:
119,160,72650,2,0,P|169:129|220:119,1,112,2|0,1:2|0:0,0:0:0:0:
374,159,72963,1,0,0:0:0:0:
393,186,73067,2,0,P|444:216|496:227,1,112,10|0,0:0|0:0,0:0:0:0:
297,327,73379,5,0,0:0:0:0:
269,347,73484,2,0,P|246:289|245:235,1,112,2|0,1:2|0:0,0:0:0:0:
129,132,73796,1,0,0:0:0:0:
105,144,73900,2,0,P|93:173|93:200,1,56,8|0,0:0|0:0,0:0:0:0:
271,71,74109,2,0,P|224:20|167:14,1,112,2|0,0:0|1:0,0:0:0:0:
15,101,74421,1,0,0:0:0:0:
41,121,74525,2,0,P|62:177|63:229,1,112,2|8,0:0|0:0,0:0:0:0:
41,350,74838,5,0,0:0:0:0:
11,340,74942,2,0,P|11:275|87:305,1,168,2|0,0:0|0:0,0:0:0:0:
228,362,75359,2,0,P|239:319|235:292,1,56,2|0,0:0|0:0,0:0:0:0:
99,189,75567,2,0,P|126:207|141:230,1,56,8|0,0:0|0:0,0:0:0:0:
246,374,75775,2,0,P|257:331|253:304,1,56,2|0,0:0|0:0,0:0:0:0:
290,177,75984,2,0,P|347:165|404:154,1,112,2|0,1:2|0:0,0:0:0:0:
211,28,76296,1,0,0:0:0:0:
184,43,76400,2,0,B|171:62|160:75|160:75|165:105|177:147,1,112,10|0,0:0|0:0,0:0:0:0:
423,30,76713,5,0,0:0:0:0:
394,14,76817,2,0,P|339:36|350:87,1,112,2|0,1:2|0:0,0:0:0:0:
480,228,77129,1,0,0:0:0:0:
508,210,77234,2,0,P|515:176|510:146,1,56,8|0,0:0|0:0,0:0:0:0:
356,216,77442,2,0,P|302:200|233:183,1,112,2|0,0:0|1:0,0:0:0:0:
102,294,77754,1,0,0:0:0:0:
115,323,77859,2,0,B|146:334|170:345|170:345|188:328|208:308,1,112,2|8,0:0|0:0,0:0:0:0:
43,162,78171,1,0,0:0:0:0:
21,187,78275,2,0,P|17:219|14:245,1,56,2|0,0:0|0:0,0:0:0:0:
123,69,78484,6,0,P|147:63|181:57,3,45.4999979171754,0|0|2|0,1:0|0:0|0:0|0:0,0:0:0:0:
234,152,78900,2,0,P|257:158|278:161,3,45.4999979171754,8|0|2|0,0:0|0:0|0:0|0:0,0:0:0:0:
406,43,79317,2,0,P|360:25|356:93,1,136.499993751526,2|0,1:2|0:0,0:0:0:0:
434,170,79734,2,0,P|421:225|406:303,1,136.499993751526,10|0,0:0|0:0,0:0:0:0:
170,283,80150,6,0,P|233:244|271:246,1,112,6|0,0:0|0:0,0:0:0:0:
419,374,80463,1,0,0:0:0:0:
389,361,80567,2,0,P|388:325|393:292,1,56,8|0,0:0|0:0,0:0:0:0:
499,209,80775,2,0,P|443:159|405:155,1,112,2|0,0:0|1:0,0:0:0:0:
232,157,81088,1,0,0:0:0:0:
215,122,81192,2,0,P|260:63|297:52,1,112,2|8,0:0|0:0,0:0:0:0:
217,250,81505,5,0,0:0:0:0:
195,275,81609,2,0,B|159:293|111:280|123:231|95:207|43:216,1,168,2|0,0:0|0:0,0:0:0:0:
221,356,82025,2,0,P|258:338|277:312,1,56,2|0,0:0|0:0,0:0:0:0:
350,165,82234,2,0,P|332:196|328:236,1,56,8|0,0:0|0:0,0:0:0:0:
223,377,82442,2,0,P|260:359|279:333,1,56,2|0,0:0|0:0,0:0:0:0:
209,109,82650,2,0,P|233:172|240:225,1,112,2|0,1:2|0:0,0:0:0:0:
26,242,82963,1,0,0:0:0:0:
18,205,83067,2,0,P|54:153|112:144,1,112,10|0,0:0|0:0,0:0:0:0:
213,18,83379,5,0,0:0:0:0:
246,29,83484,2,0,P|290:79|314:127,1,112,2|0,1:2|0:0,0:0:0:0:
434,198,83796,1,0,0:0:0:0:
427,161,83900,2,0,P|442:133|469:107,1,56,8|0,0:0|0:0,0:0:0:0:
329,315,84109,2,0,B|303:291|286:272|286:272|261:276|220:288,1,112,2|0,0:0|1:0,0:0:0:0:
42,326,84421,1,0,0:0:0:0:
72,304,84525,2,0,P|73:252|80:166,1,112,2|8,0:0|0:0,0:0:0:0:
184,28,84838,5,0,0:0:0:0:
150,40,84942,2,0,P|134:97|221:84,1,168,2|0,0:0|0:0,0:0:0:0:
61,24,85359,2,0,P|50:58|51:91,1,56,2|0,0:0|0:0,0:0:0:0:
163,225,85567,2,0,P|115:207|95:178,1,56,8|0,0:0|0:0,0:0:0:0:
42,13,85775,2,0,P|31:47|32:80,1,56,2|0,0:0|0:0,0:0:0:0:
0,228,85984,2,0,P|25:163|73:150,1,112,2|0,1:2|0:0,0:0:0:0:
210,134,86296,1,0,0:0:0:0:
238,158,86400,2,0,P|299:143|353:133,1,112,10|0,0:0|0:0,0:0:0:0:
399,305,86713,5,0,0:0:0:0:
368,279,86817,2,0,B|343:271|325:265|325:265|287:283|243:312,1,112,2|0,1:2|0:0,0:0:0:0:
104,357,87129,1,0,0:0:0:0:
76,342,87234,2,0,P|72:313|65:271,1,56,8|0,0:0|0:0,0:0:0:0:
238,382,87442,2,0,P|241:328|250:255,1,112,2|0,0:0|1:0,0:0:0:0:
96,114,87754,1,0,0:0:0:0:
68,135,87859,2,0,P|73:186|78:246,1,112,2|8,0:0|0:0,0:0:0:0:
202,91,88171,5,0,0:0:0:0:
221,63,88275,2,0,B|257:45|305:58|293:107|321:131|373:122,1,168,2|0,0:0|0:0,0:0:0:0:
237,222,88692,2,0,P|248:177|271:145,1,56,2|0,0:0|0:0,0:0:0:0:
398,54,88900,2,0,P|422:78|435:114,1,56,8|0,0:0|0:0,0:0:0:0:
216,229,89109,2,0,P|227:184|250:152,1,56,2|0,0:0|0:0,0:0:0:0:
457,213,89317,2,0,P|380:195|332:234,1,112,0|0,1:0|0:0,0:0:0:0:
243,326,89629,1,0,0:0:0:0:
215,346,89734,2,0,P|164:324|96:300,1,112,10|0,0:0|0:0,0:0:0:0:
37,160,90046,5,0,0:0:0:0:
49,125,90150,2,0,P|99:95|146:106,1,105.000004005432,0|0,1:0|0:0,0:0:0:0:
310,53,90463,1,0,0:0:0:0:
281,35,90567,2,0,P|251:37|230:52,1,52.5000020027161,8|0,0:0|0:0,0:0:0:0:
255,242,90775,2,0,P|237:174|246:118,1,105.000004005432,2|0,0:0|1:0,0:0:0:0:
66,293,91088,1,0,0:0:0:0:
98,286,91192,2,0,P|116:218|107:162,1,105.000004005432,2|8,0:0|0:0,0:0:0:0:
231,330,91504,5,0,0:0:0:0:
257,353,91609,2,0,B|283:357|311:347|311:347|323:322|339:308|339:308|371:308|398:301,1,157.500006008148,2|0,0:0|0:0,0:0:0:0:
339,188,92025,2,0,P|325:212|316:239,1,48.9999985046387,2|0,0:0|0:0,0:0:0:0:
475,343,92234,2,0,P|480:311|466:274,1,48.9999985046387,8|0,0:0|0:0,0:0:0:0:
324,175,92442,2,0,P|310:199|301:226,1,48.9999985046387,2|0,0:0|0:0,0:0:0:0:
505,141,92650,2,0,P|475:78|405:79,1,146.999995513916,2|0,1:2|0:0,0:0:0:0:
197,76,93067,2,0,B|192:50|219:20|263:24|285:61|284:104,1,146.999995513916,10|0,0:0|0:0,0:0:0:0:
201,259,93484,6,0,B|285:247|227:196|324:184,1,136.499993751526,6|2,1:2|0:0,0:0:0:0:
127,321,93901,2,0,P|107:270|111:236,1,90.9999958343508,10|2,0:0|0:0,0:0:0:0:
182,102,94318,2,0,B|143:103|126:68|126:68|103:98|56:90,1,136.499993751526,2|0,1:2|0:0,0:0:0:0:
362,76,94734,1,10,0:0:0:0:
209,17,94943,1,2,0:0:0:0:
221,199,95151,6,0,P|293:179|363:167,1,136.499993751526,2|2,1:2|0:0,0:0:0:0:
329,336,95568,2,0,B|306:323|287:313|287:313|266:327|245:337,1,90.9999958343508,10|0,0:0|0:0,0:0:0:0:
462,365,95984,2,0,B|451:329|439:301|439:301|444:278|469:217,1,136.499993751526,2|0,1:2|0:0,0:0:0:0:
395,78,96401,1,10,0:0:0:0:
343,248,96609,1,2,0:0:0:0:
227,105,96818,6,0,B|141:121|207:164|107:195,1,136.499993751526,2|0,1:2|0:0,0:0:0:0:
277,26,97234,2,0,P|302:55|317:115,1,90.9999958343508,10|2,0:0|0:0,0:0:0:0:
79,91,97651,2,0,P|76:38|159:37,1,136.499993751526,2|0,1:2|0:0,0:0:0:0:
238,187,98068,1,10,0:0:0:0:
74,269,98276,1,2,0:0:0:0:
218,366,98484,6,0,P|287:334|354:310,1,136.499993751526,2|2,1:2|0:0,0:0:0:0:
486,184,98901,2,0,B|465:170|447:154|447:154|425:159|396:173,1,90.9999958343508,10|2,0:0|0:0,0:0:0:0:
226,214,99318,2,0,P|218:150|207:65,1,136.499993751526,2|0,1:2|0:0,0:0:0:0:
388,202,99734,1,10,0:0:0:0:
272,314,99943,1,2,0:0:0:0:
434,381,100151,6,0,P|464:308|459:269,1,115.50000352478,2|2,1:2|0:0,0:0:0:0:
308,186,100568,2,0,P|307:224|325:257,1,77.0000023498536,10|0,0:0|0:0,0:0:0:0:
476,111,100984,2,0,P|419:97|347:74,1,115.50000352478,2|0,1:2|0:0,0:0:0:0:
180,105,101401,1,10,0:0:0:0:
279,0,101609,1,2,0:0:0:0:
330,152,101818,6,0,B|338:226|305:198|309:279,1,115.50000352478,2|0,1:2|0:0,0:0:0:0:
166,223,102234,2,0,P|207:187|255:179,1,77.0000023498536,10|2,0:0|0:0,0:0:0:0:
110,318,102651,2,0,P|71:271|72:195,1,115.50000352478,2|0,1:2|0:0,0:0:0:0:
115,84,103068,1,10,0:0:0:0:
214,163,103276,1,2,0:0:0:0:
281,62,103484,6,0,P|332:50|398:37,1,94.499997116089,2|2,1:2|0:0,0:0:0:0:
448,93,103901,2,0,P|415:83|379:69,1,62.9999980773926,10|2,0:0|0:0,0:0:0:0:
337,171,104318,2,0,B|340:192|344:212|344:212|342:221|338:233|338:233|339:252|344:273,1,94.499997116089,2|0,1:2|0:0,0:0:0:0:
428,361,104734,1,10,0:0:0:0:
507,269,104943,1,2,0:0:0:0:
433,174,105151,6,0,P|390:166|338:155,1,94.499997116089,2|2,1:2|0:0,0:0:0:0:
254,142,105568,2,0,P|291:129|341:114,1,62.9999980773926,10|0,0:0|0:0,0:0:0:0:
108,170,105984,1,10,3:0:0:0:
173,81,106193,1,8,3:0:0:0:
203,234,106401,2,0,P|185:242|167:248,3,31.4999990386963,10|0|2|0,3:0|0:0|1:2|1:0,0:0:0:0:
19,193,106817,6,0,P|15:137|59:99,1,115.49999647522,6|0,0:0|0:0,0:0:0:0:
94,105,108067,1,2,0:0:0:0:
223,199,108484,6,0,P|303:186|377:171,1,157.499995193482,2|0,0:0|0:0,0:0:0:0:
442,84,110150,2,0,P|374:73|303:60,1,136.499995834351,2|0,0:0|0:0,0:0:0:0:
201,118,111609,2,0,B|210:157|227:179|227:179|195:233|217:293,1,178.499994552612,2|0,0:0|0:0,0:0:0:0:
154,350,113484,6,0,P|193:312|250:316,1,115.49999647522,2|0,0:0|0:0,0:0:0:0:
281,345,114734,1,2,0:0:0:0:
417,287,115150,6,0,P|419:258|424:229,1,52.4999983978272,2|0,0:0|0:0,0:0:0:0:
446,211,115775,1,0,0:0:0:0:
235,202,116817,6,0,P|232:172|228:144,1,52.4999983978272,2|0,0:0|0:0,0:0:0:0:
209,129,117442,1,2,0:0:0:0:
40,319,118067,6,0,P|42:298|45:277,1,41.9999987182618,2|0,0:0|0:0,0:0:0:0:
256,192,118588,12,0,120150,0:0:0:0:
