osu file format v14

[General]
AudioFilename: audio.mp3
AudioLeadIn: 0
PreviewTime: 65984
Countdown: 0
SampleSet: Soft
StackLeniency: 0.7
Mode: 0
LetterboxInBreaks: 0
EpilepsyWarning: 1
WidescreenStoryboard: 1

[Editor]
Bookmarks: 36817,93484,120150
DistanceSpacing: 1.8
BeatDivisor: 4
GridSize: 32
TimelineZoom: 2.3

[Metadata]
Title:You Might Get Lost (Cut Ver.)
TitleUnicode:You Might Get Lost (Cut Ver.)
Artist:Julian Calor
ArtistUnicode:Julian Calor
Creator:Hantrik
Version:Grissaryath's Hard
Source:
Tags:psytrance monstercat uncaged grissaryath electronic instrumental english
BeatmapID:2455845
BeatmapSetID:1177530

[Difficulty]
HPDrainRate:4
CircleSize:3.8
OverallDifficulty:6
ApproachRate:7.5
SliderMultiplier:1.2
SliderTickRate:1

[Events]
//Background and Video events
0,0,"bg.jpg",0,0
//Break Periods
//Storyboard Layer 0 (Background)
//Storyboard Layer 1 (Fail)
//Storyboard Layer 2 (Pass)
//Storyboard Layer 3 (Foreground)
//Storyboard Layer 4 (Overlay)
//Storyboard Sound Samples

[TimingPoints]
-1516,416.666666666667,4,2,1,40,1,0
150,-166.666666666666,4,2,1,40,0,0
567,-166.666666666666,4,2,1,5,0,0
775,-166.666666666666,4,2,1,40,0,0
984,-166.666666666666,4,2,1,5,0,0
1192,-166.666666666666,4,2,1,40,0,0
1400,-166.666666666666,4,2,1,5,0,0
1609,-166.666666666666,4,2,1,40,0,0
3275,-166.666666666666,4,2,1,5,0,0
3484,-166.666666666666,4,2,1,40,0,0
3900,-166.666666666666,4,2,1,5,0,0
4109,-166.666666666666,4,2,1,40,0,0
4317,-166.666666666666,4,2,1,5,0,0
4525,-166.666666666666,4,2,1,40,0,0
4734,-166.666666666666,4,2,1,5,0,0
4942,-166.666666666666,4,2,1,40,0,0
6609,-166.666666666666,4,2,1,5,0,0
6817,-166.666666666666,4,2,1,40,0,0
7234,-166.666666666666,4,2,1,5,0,0
7442,-166.666666666666,4,2,1,40,0,0
7650,-166.666666666666,4,2,1,5,0,0
7859,-166.666666666666,4,2,1,40,0,0
8067,-166.666666666666,4,2,1,5,0,0
8275,-166.666666666666,4,2,1,40,0,0
9942,-166.666666666666,4,2,1,5,0,0
10150,-166.666666666666,4,2,1,40,0,0
10567,-166.666666666666,4,2,1,5,0,0
10775,-166.666666666666,4,2,1,40,0,0
10984,-166.666666666666,4,2,1,5,0,0
11192,-166.666666666666,4,2,1,40,0,0
11400,-166.666666666666,4,2,1,5,0,0
11609,-166.666666666666,4,2,1,40,0,0
13275,-166.666666666666,4,2,1,5,0,0
13484,-111.111111111111,4,2,1,45,0,0
13900,-111.111111111111,4,2,1,5,0,0
14109,-111.111111111111,4,2,1,45,0,0
14317,-111.111111111111,4,2,1,5,0,0
14525,-111.111111111111,4,2,1,45,0,0
14734,-111.111111111111,4,2,1,5,0,0
14942,-111.111111111111,4,2,1,45,0,0
15567,-111.111111111111,4,2,1,5,0,0
15775,-111.111111111111,4,2,1,45,0,0
15984,-111.111111111111,4,2,1,45,0,0
16192,-111.111111111111,4,2,1,5,0,0
16400,-111.111111111111,4,2,1,45,0,0
16609,-111.111111111111,4,2,1,5,0,0
16817,-111.111111111111,4,2,1,45,0,0
17234,-111.111111111111,4,2,1,5,0,0
17442,-111.111111111111,4,2,1,45,0,0
17650,-111.111111111111,4,2,1,5,0,0
17859,-111.111111111111,4,2,1,45,0,0
18067,-111.111111111111,4,2,1,5,0,0
18275,-111.111111111111,4,2,1,45,0,0
18900,-111.111111111111,4,2,1,5,0,0
19109,-111.111111111111,4,2,1,45,0,0
19317,-111.111111111111,4,2,1,45,0,0
19525,-111.111111111111,4,2,1,5,0,0
19734,-111.111111111111,4,2,1,45,0,0
19942,-111.111111111111,4,2,1,5,0,0
20150,-111.111111111111,4,2,1,45,0,0
20567,-111.111111111111,4,2,1,5,0,0
20775,-111.111111111111,4,2,1,45,0,0
20984,-111.111111111111,4,2,1,5,0,0
21192,-111.111111111111,4,2,1,45,0,0
21400,-111.111111111111,4,2,1,5,0,0
21609,-111.111111111111,4,2,1,45,0,0
22234,-111.111111111111,4,2,1,5,0,0
22442,-111.111111111111,4,2,1,45,0,0
22650,-111.111111111111,4,2,1,45,0,0
22859,-111.111111111111,4,2,1,5,0,0
23067,-111.111111111111,4,2,1,45,0,0
23275,-111.111111111111,4,2,1,5,0,0
23484,-111.111111111111,4,2,1,45,0,0
23900,-111.111111111111,4,2,1,5,0,0
24109,-111.111111111111,4,2,1,45,0,0
24317,-111.111111111111,4,2,1,5,0,0
24525,-111.111111111111,4,2,1,45,0,0
24734,-111.111111111111,4,2,1,5,0,0
24942,-111.111111111111,4,2,1,45,0,0
25567,-111.111111111111,4,2,1,5,0,0
25775,-111.111111111111,4,2,1,45,0,0
25984,-111.111111111111,4,2,1,45,0,0
26192,-111.111111111111,4,2,1,5,0,0
26400,-111.111111111111,4,2,1,45,0,0
26609,-111.111111111111,4,2,1,5,0,0
26817,-100,4,2,2,45,0,0
33484,-100,4,2,2,50,0,0
36817,-100,4,2,2,55,0,0
38484,-100,4,2,3,65,0,0
38796,-100,4,2,3,5,0,0
38900,-100,4,2,3,65,0,0
39213,-100,4,2,3,5,0,0
39317,-100,4,2,3,65,0,0
39629,-100,4,2,3,5,0,0
39734,-100,4,2,4,65,0,0
40046,-100,4,2,4,5,0,0
40150,-90.9090909090909,4,2,5,75,0,0
51817,-90.9090909090909,4,2,5,65,0,0
53484,-83.3333333333333,4,2,5,80,0,0
63484,-111.111111111111,4,2,5,65,0,0
66817,-76.9230769230769,4,2,5,80,0,1
78484,-76.9230769230769,4,2,5,70,0,0
80150,-71.4285714285714,4,2,5,80,0,1
90150,-71.4285714285714,4,2,5,75,0,1
91817,-100,4,2,5,70,0,0
93484,-90.9090909090909,4,2,5,60,0,0
100150,-100,4,2,5,55,0,0
103484,-111.111111111111,4,2,5,50,0,0
105150,-125,4,2,5,50,0,0
106817,-166.666666666667,4,2,1,50,0,0
107859,-166.666666666667,4,2,1,5,0,0
108067,-166.666666666667,4,2,1,50,0,0
108275,-166.666666666667,4,2,1,5,0,0
108484,-166.666666666667,4,2,1,50,0,0
109942,-166.666666666667,4,2,1,5,0,0
110150,-166.666666666667,4,2,1,50,0,0
111400,-166.666666666667,4,2,1,5,0,0
111609,-166.666666666667,4,2,1,50,0,0
113275,-166.666666666667,4,2,1,5,0,0
113484,-166.666666666667,4,2,1,50,0,0
114525,-166.666666666667,4,2,1,5,0,0
114734,-166.666666666667,4,2,1,50,0,0
114942,-166.666666666667,4,2,1,5,0,0
115150,-166.666666666667,4,2,1,50,0,0
115567,-166.666666666667,4,2,1,5,0,0
115775,-166.666666666667,4,2,1,50,0,0
116609,-166.666666666667,4,2,1,5,0,0
116817,-166.666666666667,4,2,1,50,0,0
117234,-166.666666666667,4,2,1,5,0,0
117442,-166.666666666667,4,2,1,50,0,0
117859,-166.666666666667,4,2,1,5,0,0
118067,-250.000000000001,4,2,1,50,0,0
119421,-250.000000000001,4,2,1,45,0,0
119525,-250.000000000001,4,2,1,41,0,0
119629,-250.000000000001,4,2,1,36,0,0
119734,-250.000000000001,4,2,1,32,0,0
119838,-250.000000000001,4,2,1,27,0,0
119942,-250.000000000001,4,2,1,23,0,0
120046,-250.000000000001,4,2,1,18,0,0
120150,-250.000000000001,4,2,1,15,0,0

[Colours]
Combo1 : 192,192,192
Combo2 : 253,204,130
Combo3 : 231,158,78
SliderBorder : 222,247,255

[HitObjects]
27,24,150,6,0,L|40:101,1,71.9999978027344,6|0,0:0|0:0,0:0:0:0:
59,140,775,2,0,L|50:181,1,35.9999989013672,2|0,0:0|0:0,0:0:0:0:
23,217,1192,2,0,L|34:260,1,35.9999989013672,2|0,0:0|0:0,0:0:0:0:
71,283,1609,6,0,B|229:278|149:367|343:386,1,287.999991210938,2|0,0:0|0:0,0:0:0:0:
357,341,3484,6,0,P|381:315|382:277,1,71.9999978027344,6|0,0:0|0:0,0:0:0:0:
345,245,4109,2,0,P|353:222|368:206,1,35.9999989013672,2|0,0:0|0:0,0:0:0:0:
372,164,4525,2,0,P|349:173|329:172,1,35.9999989013672,2|0,0:0|0:0,0:0:0:0:
288,164,4942,6,0,P|227:137|329:27,1,287.999991210938,2|0,0:0|0:0,0:0:0:0:
331,77,6817,6,0,L|406:70,1,71.9999978027344,6|0,0:0|0:0,0:0:0:0:
451,84,7442,2,0,L|455:119,1,35.9999989013672,2|0,0:0|0:0,0:0:0:0:
496,148,7859,2,0,L|487:183,1,35.9999989013672,2|0,0:0|0:0,0:0:0:0:
457,223,8275,6,0,L|163:207,1,287.999991210938,2|0,0:0|0:0,0:0:0:0:
131,173,10150,6,0,L|206:164,1,71.9999978027344,6|0,0:0|0:0,0:0:0:0:
249,182,10775,2,0,P|254:164|256:147,1,35.9999989013672,2|0,0:0|0:0,0:0:0:0:
306,151,11192,2,0,P|300:133|298:116,1,35.9999989013672,2|0,0:0|0:0,0:0:0:0:
328,75,11609,2,0,B|197:98|238:-5|112:-1|62:57,1,287.999991210938,2|0,0:0|0:0,0:0:0:0:
24,187,13484,6,0,P|23:238|83:268,1,107.999996704102,6|0,1:2|0:0,0:0:0:0:
132,307,14109,2,0,P|161:292|188:286,1,53.9999983520508,2|0,0:0|0:0,0:0:0:0:
254,267,14525,2,0,P|283:282|310:288,1,53.9999983520508,2|0,0:0|0:0,0:0:0:0:
379,292,14942,6,0,B|414:212|342:217|384:133,1,161.999995056153,2|0,0:0|0:0,0:0:0:0:
410,90,15775,5,2,0:0:0:0:
343,127,15984,2,0,L|280:115,1,53.9999983520508,2|0,0:0|0:0,0:0:0:0:
281,41,16400,2,0,L|228:48,1,53.9999983520508,2|0,0:0|0:0,0:0:0:0:
152,35,16817,6,0,L|281:19,1,107.999996704102,2|0,0:0|0:0,0:0:0:0:
334,10,17442,2,0,L|388:18,1,53.9999983520508,2|0,0:0|0:0,0:0:0:0:
435,76,17859,2,0,L|429:129,1,53.9999983520508,2|0,0:0|0:0,0:0:0:0:
418,204,18275,6,0,L|248:177,1,161.999995056153,2|0,0:0|0:0,0:0:0:0:
201,127,19109,1,2,0:0:0:0:
147,180,19317,2,0,P|124:210|125:230,1,53.9999983520508,2|0,0:0|0:0,0:0:0:0:
66,274,19734,2,0,P|78:309|93:321,1,53.9999983520508,2|0,0:0|0:0,0:0:0:0:
146,370,20150,6,0,L|257:356,1,107.999996704102,2|0,0:0|0:0,0:0:0:0:
328,356,20775,2,0,L|318:297,1,53.9999983520508,2|0,0:0|0:0,0:0:0:0:
256,259,21192,2,0,L|264:195,1,53.9999983520508,2|0,0:0|0:0,0:0:0:0:
230,136,21609,6,0,P|282:71|371:82,1,161.999995056153,2|0,0:0|0:0,0:0:0:0:
430,68,22442,5,2,0:0:0:0:
477,126,22650,2,0,P|479:155|488:182,1,53.9999983520508,2|0,0:0|0:0,0:0:0:0:
424,221,23067,2,0,P|422:250|413:277,1,53.9999983520508,2|0,0:0|0:0,0:0:0:0:
408,349,23484,6,0,P|383:310|387:228,1,107.999996704102,2|0,0:0|0:0,0:0:0:0:
318,205,24109,2,0,P|333:165|330:141,1,53.9999983520508,2|0,0:0|0:0,0:0:0:0:
361,89,24525,2,0,P|348:61|311:44,1,53.9999983520508,2|0,0:0|0:0,0:0:0:0:
260,15,24942,6,0,B|170:15|200:66|104:76,1,161.999995056153,2|0,0:0|0:0,0:0:0:0:
59,22,25775,5,2,0:0:0:0:
11,80,25984,2,0,P|19:103|24:138,1,53.9999983520508,2|0,0:0|0:0,0:0:0:0:
93,159,26400,2,0,P|85:182|80:217,1,53.9999983520508,2|0,0:0|0:0,0:0:0:0:
17,300,26817,6,0,P|28:344|71:373,1,90,6|2,1:2|0:0,0:0:0:0:
61,370,27234,2,0,L|126:355,1,60,2|2,1:2|0:0,0:0:0:0:
164,289,27650,2,0,L|229:303,1,60,0|0,1:0|0:0,0:0:0:0:
267,368,28067,1,2,1:2:0:0:
344,334,28275,1,2,0:0:0:0:
330,250,28484,6,0,L|320:142,1,90,2|2,1:2|0:0,0:0:0:0:
321,160,28900,2,0,L|338:97,1,60,2|2,1:2|0:0,0:0:0:0:
379,23,29317,2,0,L|316:40,1,60,0|0,1:0|0:0,0:0:0:0:
247,74,29734,2,0,L|184:56,1,60,2|2,1:2|0:0,0:0:0:0:
110,36,30150,6,0,L|138:143,1,90,2|2,1:2|0:0,0:0:0:0:
132,123,30567,2,0,L|105:195,1,60,2|2,1:2|0:0,0:0:0:0:
42,226,30984,2,0,L|68:298,1,60,0|0,1:0|0:0,0:0:0:0:
111,347,31400,1,2,1:2:0:0:
195,348,31609,1,2,0:0:0:0:
278,348,31817,6,0,L|309:253,1,90,2|2,1:2|0:0,0:0:0:0:
305,262,32234,2,0,L|282:200,1,60,2|2,1:2|0:0,0:0:0:0:
235,135,32650,2,0,L|307:161,1,60,0|0,1:0|0:0,0:0:0:0:
372,144,33067,1,2,1:2:0:0:
440,209,33275,5,10,0:0:0:0:
440,209,33379,1,8,0:0:0:0:
440,209,33484,2,0,P|449:192|448:167,2,30,10|8|8,1:2|0:0|1:0,0:0:0:0:
486,118,33900,2,0,P|475:102|453:89,2,30,10|8|10,1:2|0:0|1:2,0:0:0:0:
412,38,34317,2,0,P|392:37|367:49,3,30,8|10|8|8,1:0|0:0|1:0|0:0,0:0:0:0:
343,47,34734,2,0,P|327:58|317:80,3,30,10|8|10|8,1:2|0:0|1:2|0:0,0:0:0:0:
296,103,35150,6,0,L|300:146,2,30,10|8|8,1:2|0:0|1:0,0:0:0:0:
346,203,35567,2,0,L|341:245,2,30,10|8|10,1:2|0:0|1:2,0:0:0:0:
281,294,35984,2,0,L|236:288,3,30,8|10|8|8,1:0|0:0|1:0|0:0,0:0:0:0:
222,254,36400,2,0,L|175:259,3,30,10|8|10|8,1:2|0:0|1:2|0:0,0:0:0:0:
157,253,36817,5,8,0:0:0:0:
132,236,36921,1,8,0:0:0:0:
117,210,37025,1,8,0:0:0:0:
114,181,37129,1,8,0:0:0:0:
124,153,37234,2,0,L|162:144,3,30,8|8|8|8,0:0|0:0|0:0|0:0,0:0:0:0:
171,111,37650,5,8,0:0:0:0:
200,113,37754,1,8,0:0:0:0:
230,116,37858,1,8,0:0:0:0:
260,119,37962,1,8,0:0:0:0:
290,122,38067,2,0,P|305:131|315:145,1,30,8|8,0:0|0:0,0:0:0:0:
327,176,38275,2,0,P|326:192|318:208,1,30,8|8,0:0|0:0,0:0:0:0:
285,223,38484,5,4,0:0:0:0:
437,177,38900,1,4,0:0:0:0:
290,249,39317,5,4,0:0:0:0:
437,330,39734,1,4,0:0:0:0:
257,371,40150,6,0,B|207:359|232:325|170:313,1,99.0000030212403,6|0,1:2|0:0,0:0:0:0:
133,326,40567,1,0,1:0:0:0:
100,239,40775,2,0,P|116:201|121:160,1,66.0000020141602,2|0,0:0|1:0,0:0:0:0:
50,115,41192,2,0,P|34:77|29:36,1,66.0000020141602,2|0,0:0|1:0,0:0:0:0:
108,4,41609,6,0,P|187:24|195:111,1,165.000005035401,2|0,0:0|0:0,0:0:0:0:
168,130,42234,1,0,1:0:0:0:
219,206,42442,1,2,0:0:0:0:
310,192,42650,2,0,P|351:175|394:169,1,66.0000020141602,2|0,1:2|0:0,0:0:0:0:
431,231,43067,2,0,P|390:214|347:208,1,66.0000020141602,2|0,1:2|0:0,0:0:0:0:
315,275,43484,6,0,B|267:286|269:240|216:252,1,99.0000030212403,2|0,1:2|0:0,0:0:0:0:
189,283,43900,1,0,1:0:0:0:
113,337,44109,2,0,P|78:297|75:270,1,66.0000020141602,2|0,0:0|1:0,0:0:0:0:
8,222,44525,2,0,P|20:186|45:163,1,66.0000020141602,2|0,0:0|1:0,0:0:0:0:
103,100,44942,6,0,L|279:122,1,165.000005035401,2|0,0:0|0:0,0:0:0:0:
305,145,45567,1,0,1:0:0:0:
378,88,45775,1,2,0:0:0:0:
463,124,45984,2,0,B|479:160|479:160|453:200,1,66.0000020141602,2|0,1:2|0:0,0:0:0:0:
469,269,46400,2,0,B|451:304|451:304|404:310,1,66.0000020141602,2|0,1:2|0:0,0:0:0:0:
345,348,46817,6,0,B|309:342|309:342|288:320|288:320|249:314,1,99.0000030212403,2|0,1:2|0:0,0:0:0:0:
224,281,47234,1,0,1:0:0:0:
165,351,47442,2,0,L|242:342,1,66.0000020141602,2|0,0:0|1:0,0:0:0:0:
313,302,47859,2,0,L|390:311,1,66.0000020141602,2|0,0:0|1:0,0:0:0:0:
470,312,48275,6,0,L|456:135,1,165.000005035401,2|0,0:0|0:0,0:0:0:0:
432,107,48900,1,0,1:0:0:0:
474,24,49109,1,2,0:0:0:0:
382,37,49317,2,0,B|355:21|355:21|308:39,1,66.0000020141602,2|0,1:2|0:0,0:0:0:0:
302,116,49734,2,0,B|275:132|275:132|228:114,1,66.0000020141602,2|0,1:2|0:0,0:0:0:0:
201,43,50150,6,0,L|99:54,1,99.0000030212403,2|0,1:2|0:0,0:0:0:0:
75,91,50567,1,0,1:0:0:0:
16,19,50775,2,0,L|95:27,1,66.0000020141602,2|0,0:0|1:0,0:0:0:0:
166,63,51192,2,0,L|159:128,1,66.0000020141602,2|0,0:0|1:0,0:0:0:0:
99,199,51609,1,2,0:0:0:0:
102,291,51817,6,0,P|83:286|67:275,2,33.0000010070801,0|0|0,1:0|0:0|0:0,0:0:0:0:
166,357,52234,2,0,P|148:365|128:367,2,33.0000010070801,0|0|2,1:0|0:0|0:0,0:0:0:0:
256,341,52650,2,0,P|250:359|238:375,2,33.0000010070801,2|0|0,1:2|0:0|0:0,0:0:0:0:
326,280,53067,2,0,P|338:295|344:313,2,33.0000010070801,2|0|0,1:2|0:0|0:0,0:0:0:0:
301,181,53484,6,0,L|219:173,1,71.9999978027344,6|0,1:2|0:0,0:0:0:0:
184,191,53796,1,0,0:0:0:0:
184,191,53900,1,8,0:0:0:0:
139,100,54109,2,0,L|221:89,1,71.9999978027344,2|0,0:0|1:0,0:0:0:0:
288,26,54525,2,0,L|370:37,1,71.9999978027344,2|8,0:0|0:0,0:0:0:0:
433,104,54942,6,0,L|451:221,1,107.999996704102,2|0,0:0|0:0,0:0:0:0:
485,246,55359,1,2,0:0:0:0:
390,280,55567,1,8,0:0:0:0:
471,339,55775,1,2,0:0:0:0:
375,370,55984,2,0,P|334:351|292:343,1,71.9999978027344,2|0,1:2|0:0,0:0:0:0:
246,270,56400,2,0,P|201:280|166:302,1,71.9999978027344,10|0,0:0|0:0,0:0:0:0:
93,347,56817,6,0,P|52:304|56:276,1,71.9999978027344,2|0,1:2|0:0,0:0:0:0:
85,259,57129,1,0,0:0:0:0:
85,259,57234,1,8,0:0:0:0:
33,172,57442,2,0,P|87:148|117:146,1,71.9999978027344,2|0,0:0|1:0,0:0:0:0:
156,62,57859,2,0,P|210:86|240:88,1,71.9999978027344,2|8,0:0|0:0,0:0:0:0:
277,171,58275,6,0,B|337:167|319:129|379:125,1,107.999996704102,2|0,0:0|0:0,0:0:0:0:
421,138,58692,1,2,0:0:0:0:
504,81,58900,1,8,0:0:0:0:
437,4,59109,1,2,0:0:0:0:
342,39,59317,2,0,P|298:22|260:33,1,71.9999978027344,2|0,1:2|0:0,0:0:0:0:
175,6,59734,2,0,P|138:36|127:73,1,71.9999978027344,10|0,0:0|0:0,0:0:0:0:
59,129,60150,6,0,P|67:175|94:205,1,71.9999978027344,2|0,1:2|0:0,0:0:0:0:
133,212,60463,1,0,0:0:0:0:
133,212,60567,1,8,0:0:0:0:
216,274,60775,2,0,P|267:255|304:253,1,71.9999978027344,2|0,0:0|1:0,0:0:0:0:
373,300,61192,2,0,P|322:281|285:279,1,71.9999978027344,2|8,0:0|0:0,0:0:0:0:
239,356,61609,6,0,P|185:368|146:319,1,107.999996704102,2|0,0:0|0:0,0:0:0:0:
158,285,62025,1,2,0:0:0:0:
77,345,62234,1,8,0:0:0:0:
14,266,62442,1,2,0:0:0:0:
79,189,62650,2,0,L|47:101,1,71.9999978027344,2|0,1:2|0:0,0:0:0:0:
139,132,63067,2,0,L|107:44,1,71.9999978027344,10|0,0:0|0:0,0:0:0:0:
169,4,63484,6,0,L|238:14,1,53.9999983520508,2|0,0:0|0:0,0:0:0:0:
251,87,63900,1,8,0:0:0:0:
313,34,64109,6,0,L|377:21,1,53.9999983520508,2|0,0:0|0:0,0:0:0:0:
420,82,64525,2,0,L|484:95,1,53.9999983520508,2|8,0:0|0:0,0:0:0:0:
474,176,64942,6,0,B|460:226|506:234|480:285,1,107.999996704102,2|2,0:0|0:0,0:0:0:0:
401,292,65567,1,8,0:0:0:0:
334,246,65775,1,2,0:0:0:0:
287,312,65984,2,0,B|266:334|266:334|231:319,1,53.9999983520508,2|0,0:0|0:0,0:0:0:0:
172,349,66400,2,0,B|141:336|141:336|135:295,1,53.9999983520508,10|0,0:0|0:0,0:0:0:0:
68,250,66817,6,0,P|92:194|100:160,1,77.9999964294435,6|0,1:2|0:0,0:0:0:0:
77,131,67129,1,0,0:0:0:0:
77,131,67234,1,8,0:0:0:0:
163,64,67442,2,0,B|207:72|184:100|237:111,1,77.9999964294435,2|0,0:0|1:0,0:0:0:0:
285,198,67859,2,0,B|329:190|306:162|359:151,1,77.9999964294435,2|8,0:0|0:0,0:0:0:0:
449,190,68275,6,0,B|471:246|471:246|420:289,1,116.999994644165,2|0,0:0|0:0,0:0:0:0:
373,290,68692,1,2,0:0:0:0:
282,229,68900,1,8,0:0:0:0:
356,149,69109,1,2,0:0:0:0:
356,149,69213,1,0,0:0:0:0:
356,149,69317,2,0,P|373:101|379:67,1,77.9999964294435,2|0,1:2|0:0,0:0:0:0:
472,18,69734,2,0,P|480:56|494:92,1,77.9999964294435,10|0,0:0|0:0,0:0:0:0:
496,201,70150,6,0,P|453:224|406:217,1,77.9999964294435,2|0,1:2|0:0,0:0:0:0:
373,242,70463,1,0,0:0:0:0:
373,242,70567,1,8,0:0:0:0:
340,137,70775,2,0,P|293:126|253:154,1,77.9999964294435,2|0,0:0|1:0,0:0:0:0:
220,236,71192,2,0,P|173:247|133:219,1,77.9999964294435,2|8,0:0|0:0,0:0:0:0:
50,184,71609,6,0,P|71:134|89:60,1,116.999994644165,2|0,0:0|0:0,0:0:0:0:
133,45,72025,1,2,0:0:0:0:
187,140,72234,1,8,0:0:0:0:
127,231,72442,1,2,0:0:0:0:
127,231,72546,1,0,0:0:0:0:
127,231,72650,2,0,P|142:268|146:309,1,77.9999964294435,2|0,1:2|0:0,0:0:0:0:
243,356,73067,2,0,P|274:310|278:274,1,77.9999964294435,10|0,0:0|0:0,0:0:0:0:
383,257,73484,6,0,P|360:205|332:183,1,77.9999964294435,2|0,1:2|0:0,0:0:0:0:
290,191,73796,1,0,0:0:0:0:
290,191,73900,1,8,0:0:0:0:
358,105,74109,2,0,B|403:107|388:139|433:148,1,77.9999964294435,2|0,0:0|1:0,0:0:0:0:
506,76,74525,2,0,P|465:46|436:55,1,77.9999964294435,2|8,0:0|0:0,0:0:0:0:
336,22,74942,6,0,B|280:7|280:7|252:66,1,116.999994644165,2|0,0:0|0:0,0:0:0:0:
280,110,75359,1,2,0:0:0:0:
186,166,75567,1,8,0:0:0:0:
101,97,75775,1,2,0:0:0:0:
101,97,75879,1,0,0:0:0:0:
101,97,75984,2,0,P|127:66|170:67,1,77.9999964294435,2|0,1:2|0:0,0:0:0:0:
213,159,76400,2,0,P|199:212|195:255,1,77.9999964294435,10|0,0:0|0:0,0:0:0:0:
109,302,76817,6,0,P|103:263|92:226,1,77.9999964294435,2|0,1:2|0:0,0:0:0:0:
50,191,77129,1,0,0:0:0:0:
50,191,77234,1,8,0:0:0:0:
140,130,77442,2,0,P|129:167|123:205,1,77.9999964294435,2|0,0:0|1:0,0:0:0:0:
222,251,77859,2,0,P|216:212|205:175,1,77.9999964294435,2|8,0:0|0:0,0:0:0:0:
215,66,78275,1,2,0:0:0:0:
303,130,78484,6,0,L|353:125,2,38.9999982147218,0|0|2,1:0|0:0|0:0,0:0:0:0:
407,159,78900,2,0,L|368:155,2,38.9999982147218,8|0|2,0:0|0:0|0:0,0:0:0:0:
461,254,79317,2,0,L|456:304,2,38.9999982147218,2|0|0,1:2|0:0|0:0,0:0:0:0:
438,361,79734,2,0,L|434:322,2,38.9999982147218,10|0|0,0:0|0:0|0:0,0:0:0:0:
321,376,80150,6,0,L|332:239,1,125.999996154785,6|0,0:0|0:0,0:0:0:0:
300,199,80567,1,8,0:0:0:0:
190,240,80775,2,0,L|200:333,1,83.9999974365235,2|0,0:0|1:0,0:0:0:0:
85,355,81192,2,0,L|93:271,1,83.9999974365235,2|8,0:0|0:0,0:0:0:0:
46,163,81609,1,2,0:0:0:0:
46,163,81713,1,0,0:0:0:0:
46,163,81817,6,0,L|37:79,1,83.9999974365235,0|2,1:0|0:0,0:0:0:0:
69,30,82129,1,0,0:0:0:0:
69,30,82234,1,8,0:0:0:0:
168,92,82442,1,2,0:0:0:0:
127,202,82650,2,0,L|118:286,1,83.9999974365235,2|0,1:2|0:0,0:0:0:0:
156,330,82963,1,0,0:0:0:0:
156,330,83067,2,0,P|196:360|236:350,1,83.9999974365235,10|0,0:0|0:0,0:0:0:0:
258,306,83379,1,0,0:0:0:0:
258,306,83484,6,0,P|298:276|338:286,1,83.9999974365235,2|0,1:2|0:0,0:0:0:0:
364,327,83796,1,0,0:0:0:0:
364,327,83900,1,8,0:0:0:0:
463,264,84109,2,0,B|443:227|487:219|455:172,1,83.9999974365235,2|0,0:0|1:0,0:0:0:0:
345,200,84525,2,0,B|365:163|321:155|353:108,1,83.9999974365235,2|8,0:0|0:0,0:0:0:0:
429,35,84942,1,2,0:0:0:0:
429,35,85046,1,0,0:0:0:0:
429,35,85150,6,0,L|342:28,1,83.9999974365235,0|2,1:0|0:0,0:0:0:0:
288,10,85463,1,0,0:0:0:0:
288,10,85567,1,8,0:0:0:0:
198,85,85775,1,2,0:0:0:0:
253,189,85984,2,0,P|268:243|272:281,1,83.9999974365235,2|0,1:2|0:0,0:0:0:0:
320,312,86296,1,0,0:0:0:0:
320,312,86400,2,0,P|326:270|338:230,1,83.9999974365235,10|0,0:0|0:0,0:0:0:0:
386,196,86713,1,0,0:0:0:0:
386,196,86817,6,0,P|369:139|337:127,1,83.9999974365235,2|0,1:2|0:0,0:0:0:0:
294,111,87129,1,0,0:0:0:0:
294,111,87234,1,8,0:0:0:0:
178,130,87442,2,0,P|132:147|91:151,1,83.9999974365235,2|0,0:0|1:0,0:0:0:0:
100,268,87859,2,0,P|54:251|13:247,1,83.9999974365235,2|8,0:0|0:0,0:0:0:0:
88,354,88275,1,2,0:0:0:0:
88,354,88379,1,0,0:0:0:0:
88,354,88484,6,0,B|131:360|131:360|168:325,1,83.9999974365235,0|2,1:0|0:0,0:0:0:0:
183,280,88796,1,0,0:0:0:0:
183,280,88900,1,8,0:0:0:0:
124,177,89109,1,2,0:0:0:0:
187,78,89317,2,0,P|253:83|280:96,1,83.9999974365235,0|0,1:0|0:0,0:0:0:0:
326,78,89629,1,0,0:0:0:0:
326,78,89734,2,0,P|378:118|394:143,1,83.9999974365235,10|0,0:0|0:0,0:0:0:0:
443,150,90046,1,0,0:0:0:0:
443,150,90150,6,0,P|458:214|454:244,1,83.9999974365235,0|0,1:0|0:0,0:0:0:0:
484,283,90463,1,0,0:0:0:0:
484,283,90567,1,8,0:0:0:0:
392,355,90775,2,0,B|347:343|368:311|315:299,1,83.9999974365235,2|0,0:0|1:0,0:0:0:0:
239,225,91192,2,0,B|194:237|215:269|162:281,1,83.9999974365235,2|8,0:0|0:0,0:0:0:0:
85,352,91609,1,2,0:0:0:0:
85,352,91713,1,0,0:0:0:0:
85,352,91817,6,0,P|65:326|65:295,1,60,0|2,1:0|0:0,0:0:0:0:
30,222,92234,1,8,0:0:0:0:
69,148,92442,1,2,0:0:0:0:
152,151,92650,2,0,L|225:139,1,60,2|0,1:2|0:0,0:0:0:0:
261,73,93067,2,0,L|320:82,1,60,10|0,0:0|0:0,0:0:0:0:
409,56,93484,6,0,P|446:91|442:137,1,99.0000030212403,6|2,1:2|0:0,0:0:0:0:
442,135,93900,2,0,L|415:204,1,66.0000020141602,10|2,0:0|0:0,0:0:0:0:
332,232,94317,2,0,L|359:300,1,66.0000020141602,2|0,1:2|0:0,0:0:0:0:
296,363,94734,1,10,0:0:0:0:
210,340,94942,1,2,0:0:0:0:
121,312,95150,6,0,L|152:214,1,99.0000030212403,2|2,1:2|0:0,0:0:0:0:
150,217,95567,2,0,L|125:155,1,66.0000020141602,10|2,0:0|0:0,0:0:0:0:
34,137,95984,2,0,L|58:75,1,66.0000020141602,2|0,1:2|0:0,0:0:0:0:
119,6,96400,1,10,0:0:0:0:
199,50,96608,1,2,0:0:0:0:
279,104,96817,6,0,L|377:135,1,99.0000030212403,2|2,1:2|0:0,0:0:0:0:
373,133,97234,2,0,L|397:194,1,66.0000020141602,10|2,0:0|0:0,0:0:0:0:
464,131,97650,2,0,L|488:70,1,66.0000020141602,2|0,1:2|0:0,0:0:0:0:
398,47,98067,1,10,0:0:0:0:
308,24,98275,1,2,0:0:0:0:
217,3,98484,6,0,L|248:101,1,99.0000030212403,2|2,1:2|0:0,0:0:0:0:
246,97,98900,2,0,L|222:158,1,66.0000020141602,10|2,0:0|0:0,0:0:0:0:
311,182,99317,2,0,L|335:243,1,66.0000020141602,2|0,1:2|0:0,0:0:0:0:
372,328,99734,1,10,0:0:0:0:
276,314,99942,1,2,0:0:0:0:
188,307,100150,6,0,L|77:328,1,90,2|2,1:2|0:0,0:0:0:0:
100,324,100567,2,0,L|119:260,1,60,10|2,0:0|0:0,0:0:0:0:
182,213,100984,2,0,L|163:149,1,60,2|0,1:2|0:0,0:0:0:0:
138,76,101400,1,10,0:0:0:0:
220,91,101609,1,2,0:0:0:0:
302,107,101817,6,0,L|389:84,1,90,2|2,1:2|0:0,0:0:0:0:
389,84,102234,2,0,L|446:101,1,60,10|2,0:0|0:0,0:0:0:0:
447,184,102650,2,0,L|504:166,1,60,2|0,1:2|0:0,0:0:0:0:
502,251,103067,1,10,0:0:0:0:
422,277,103275,1,2,0:0:0:0:
342,305,103484,6,0,L|320:222,1,80.9999975280763,2|2,1:2|0:0,0:0:0:0:
321,226,103900,2,0,L|339:165,1,53.9999983520508,10|2,0:0|0:0,0:0:0:0:
261,159,104317,2,0,L|243:97,1,53.9999983520508,2|0,1:2|0:0,0:0:0:0:
219,35,104734,1,10,0:0:0:0:
146,55,104942,1,2,0:0:0:0:
74,78,105150,6,0,L|61:162,1,72,2|2,1:2|0:0,0:0:0:0:
62,149,105567,2,0,L|80:207,1,48,10|2,0:0|0:0,0:0:0:0:
57,273,105984,5,10,3:0:0:0:
137,248,106192,1,8,3:0:0:0:
216,224,106400,1,10,3:0:0:0:
211,247,106504,1,0,1:0:0:0:
206,271,106608,1,2,1:2:0:0:
202,294,106712,1,0,1:0:0:0:
197,318,106817,6,0,B|290:312|253:247|362:247,1,179.999994506836,6|0,0:0|0:0,0:0:0:0:
397,276,108067,2,0,L|406:232,1,35.9999989013672,2|0,0:0|0:0,0:0:0:0:
447,215,108484,6,0,B|415:21|415:21|391:71,1,251.999992309571,2|0,0:0|0:0,0:0:0:0:
371,117,110150,6,0,B|242:137|303:202|185:228,1,215.999993408203,2|0,0:0|0:0,0:0:0:0:
145,207,111609,6,0,B|191:173|204:130|205:52|138:21|75:48|57:88|77:121,1,287.999991210938,2|0,0:0|0:0,0:0:0:0:
124,116,113484,6,0,L|316:101,1,179.999994506836,2|0,0:0|0:0,0:0:0:0:
318,53,114734,2,0,L|360:61,1,35.9999989013672,2|0,0:0|0:0,0:0:0:0:
399,80,115150,2,0,L|382:155,1,71.9999978027344,2|0,0:0|0:0,0:0:0:0:
347,185,115775,2,0,L|367:339,1,143.999995605469,0|0,0:0|0:0,0:0:0:0:
395,368,116817,2,0,L|320:351,1,71.9999978027344,2|0,0:0|0:0,0:0:0:0:
293,312,117442,2,0,L|218:329,1,71.9999978027344,2|0,0:0|0:0,0:0:0:0:
183,361,118067,6,0,B|217:309|219:233|124:258|184:133,1,240,2|0,0:0|0:0,0:0:0:0:
