osu file format v14

[General]
AudioFilename: audio.mp3
AudioLeadIn: 0
PreviewTime: -1
Countdown: 0
SampleSet: Soft
StackLeniency: 0.2
Mode: 0
LetterboxInBreaks: 0
WidescreenStoryboard: 0

[Editor]
Bookmarks: 10873,32365,39529,59231,91470,150574
DistanceSpacing: 3
BeatDivisor: 4
GridSize: 4
TimelineZoom: 1.2

[Metadata]
Title:This Is a True Heart
TitleUnicode:This Is a True Heart
Artist:Julia Holter
ArtistUnicode:Julia Holter
Creator:dsco
Version:Facade
Source:
Tags:indie pop chamber modern classical loud city song
BeatmapID:1655913
BeatmapSetID:789001

[Difficulty]
HPDrainRate:4
CircleSize:4
OverallDifficulty:8
ApproachRate:6
SliderMultiplier:1.6
SliderTickRate:1

[Events]
//Background and Video events
0,0,"bg.jpg",0,0
//Break Periods
//Storyboard Layer 0 (Background)
//Storyboard Layer 1 (Fail)
//Storyboard Layer 2 (Pass)
//Storyboard Layer 3 (Foreground)
//Storyboard Sound Samples

[TimingPoints]
10873,447.761194029851,4,2,0,50,1,0
96395,-599.880023995201,4,2,0,50,0,0
125499,-300.0300030003,4,2,0,50,0,0
142514,-598.802395209581,4,2,0,50,0,0
150574,-100,4,2,0,50,0,0

[Colours]
Combo1 : 215,164,155
Combo2 : 130,83,101
Combo3 : 217,153,171
Combo4 : 119,94,114

[HitObjects]
80,35,32813,5,2,0:0:0:0:
60,111,33261,1,0,0:0:0:0:
101,178,33708,1,2,0:0:0:0:
178,198,34156,2,0,B|219:208|263:194|247:187|291:172|333:183,1,160
409,203,34828,1,0,0:0:0:0:
449,269,35275,1,2,0:0:0:0:
430,345,35723,1,0,0:0:0:0:
430,345,39529,5,2,0:3:0:0:
334,183,39753,2,0,P|326:143|344:94,1,80,0|8,0:0|0:1,0:0:0:0:
398,61,40201,1,0,0:0:0:0:
340,109,40425,2,0,B|299:119|255:105|271:98|227:83|185:94,1,160,0|8,0:0|0:1,0:0:0:0:
187,98,41320,2,0,P|146:145|30:166,1,160,2|8,0:0|0:1,0:0:0:0:
0,229,41992,1,0,0:0:0:0:
37,299,42216,1,0,0:0:0:0:
16,376,42440,2,0,P|21:336|42:303,1,80,2|8,0:0|0:1,0:0:0:0:
45,307,43111,5,2,0:3:0:0:
193,354,43335,2,0,P|236:350|276:323,1,80,0|8,0:0|0:1,0:0:0:0:
302,262,43783,1,0,0:0:0:0:
372,299,44007,2,0,P|335:248|333:135,1,160,0|8,0:0|0:1,0:0:0:0:
364,83,44678,1,0,0:0:0:0:
307,27,44902,2,0,P|245:34|151:-11,3,160,2|8|2|8,0:0|0:1|0:0|0:1,0:0:0:0:
83,23,46470,6,0,B|69:62|79:108|87:92|99:137|84:178,1,160,2|0,0:0|0:0,0:0:0:0:
121,251,47141,2,0,P|151:224|205:217,1,80,8|0,0:1|0:0,0:0:0:0:
258,245,47589,1,0,0:0:0:0:
174,136,47813,2,0,P|214:138|257:171,1,80,2|8,0:0|0:1,0:0:0:0:
292,92,48261,2,0,P|318:121|327:159,1,80,2|0,0:0|0:0,0:0:0:0:
331,163,48932,1,8,0:1:0:0:
308,22,49156,1,0,0:0:0:0:
244,150,49380,1,2,0:0:0:0:
372,85,49604,1,0,0:0:0:0:
231,63,49828,2,0,P|173:104|78:102,1,160,8|2,0:1|0:0,0:0:0:0:
20,59,50499,6,0,P|-2:14|-9:-30,1,80,2|8,0:3|0:1,0:0:0:0:
24,63,50947,1,0,0:0:0:0:
90,109,51171,2,0,P|80:147|61:183,1,80,2|0,0:0|0:0,0:0:0:0:
0,234,51619,1,8,0:1:0:0:
65,187,51843,1,0,0:0:0:0:
4,238,52067,2,0,P|53:230|156:290,1,160,2|8,0:3|0:1,0:0:0:0:
151,282,52962,2,0,P|200:290|303:230,1,160,2|8,0:0|0:1,0:0:0:0:
323,168,53634,5,2,0:0:0:0:
439,0,53858,2,0,P|395:65|399:144,1,160,2|8,0:3|0:1,0:0:0:0:
431,278,54529,2,0,P|396:207|326:171,1,160,2|0,0:0|0:0,0:0:0:0:
194,132,55201,2,0,P|272:137|338:94,1,160,8|0,0:1|0:0,0:0:0:0:
405,49,55873,2,0,P|451:46|489:57,1,80,2|0,0:3|0:0,0:0:0:0:
409,53,56320,1,0,0:0:0:0:
342,97,56544,2,0,P|303:106|263:102,1,80,2|0,0:0|0:0,0:0:0:0:
194,143,56992,1,8,0:1:0:0:
267,106,57216,1,0,0:0:0:0:
198,147,57440,6,0,P|125:97|23:100,1,160,2|8,0:0|0:1,0:0:0:0:
59,95,58335,1,0,0:0:0:0:
143,71,58559,2,0,P|166:35|177:-9,1,80,2|8,0:0|0:1,0:0:0:0:
147,75,59007,1,0,0:0:0:0:
288,221,59231,6,0,P|233:163|156:148,1,160,2|8,0:3|0:1,0:0:0:0:
83,175,59902,1,0,0:0:0:0:
5,157,60126,2,0,P|-20:116|-31:72,2,80,2|0|8,0:0|0:0|0:1,0:0:0:0:
87,179,60798,1,0,0:0:0:0:
210,379,61022,6,0,P|152:325|136:247,1,160,2|8,0:0|0:1,0:0:0:0:
169,175,61693,1,0,0:0:0:0:
236,136,61917,2,0,P|283:115|315:83,1,80,2|0,0:0|0:0,0:0:0:0:
382,113,62365,2,0,P|400:64|400:19,1,80,8|0,0:1|0:0,0:0:0:0:
405,40,62813,6,0,P|387:89|387:134,1,80,2|0,0:0|0:0,0:0:0:0:
318,159,63261,2,0,P|339:206|371:238,1,80,8|0,0:1|0:0,0:0:0:0:
340,304,63708,1,0,0:0:0:0:
194,366,63932,1,2,0:0:0:0:
362,230,64156,1,8,0:1:0:0:
322,163,64380,1,0,0:0:0:0:
327,82,64604,6,0,P|359:35|419:1,1,120,2|0,0:3|0:0,0:0:0:0:
416,7,65052,2,0,P|391:30|334:47,1,80,10|0,0:1|0:0,0:0:0:0:
352,49,65723,2,0,P|311:49|270:30,1,80,2|8,0:1|0:1,0:0:0:0:
60,48,66171,2,0,P|136:31|203:71,1,160,2|0,0:0|0:0,0:0:0:0:
280,38,66843,1,8,0:1:0:0:
345,80,67066,1,0,0:0:0:0:
365,156,67290,2,0,B|375:197|361:241|354:225|339:269|350:311,1,160,2|8,0:0|0:1,0:0:0:0:
354,316,68186,6,0,P|308:265|229:253,1,120,2|0,0:3|0:0,0:0:0:0:
264,254,68634,2,0,P|215:261|183:282,1,80,10|0,0:1|0:0,0:0:0:0:
193,281,69305,2,0,P|158:299|118:304,1,80,2|8,0:1|0:1,0:0:0:0:
44,265,69753,1,0,0:0:0:0:
50,127,69977,2,0,P|75:160|80:198,1,80,2|0,0:0|0:0,0:0:0:0:
20,340,70425,2,0,P|42:307|47:268,1,80,8|0,0:1|0:0,0:0:0:0:
23,41,70873,2,0,B|67:33|109:52|93:57|135:75|177:69,2,160,2|8|2,0:0|0:1|0:0,0:0:0:0:
180,73,71992,6,0,P|228:56|257:33,1,80,2|8,0:0|0:1,0:0:0:0:
63,117,72440,2,0,P|98:135|137:143,1,80,2|0,0:0|0:0,0:0:0:0:
184,77,72887,1,0,0:0:0:0:
133,219,73111,1,8,0:1:0:0:
245,329,73335,2,0,P|205:260|136:223,1,160,2|0,0:0|0:0,0:0:0:0:
0,193,74007,2,0,P|34:176|74:171,1,80,8|0,0:1|0:0,0:0:0:0:
140,227,74455,1,2,0:0:0:0:
78,175,74678,1,0,0:0:0:0:
144,231,74902,2,0,P|180:247|247:243,1,80,8|0,0:1|0:0,0:0:0:0:
281,301,75350,6,0,P|317:286|369:212,1,120,2|0,0:3|0:0,0:0:0:0:
369,228,75798,2,0,P|372:177|357:138,1,80,10|0,0:1|0:0,0:0:0:0:
367,154,76470,2,0,P|356:115|361:75,1,80,2|8,0:1|0:1,0:0:0:0:
408,13,76917,1,0,0:0:0:0:
371,158,77141,2,0,B|340:165|307:154|319:149|286:138|254:147,1,120,2|0,3:0|0:0,0:0:0:0:
257,151,77589,2,0,P|227:165|194:215,1,80,10|0,0:1|0:0,0:0:0:0:
202,206,78261,2,0,P|194:250|204:287,1,80,2|8,0:1|0:1,0:0:0:0:
261,334,78708,1,0,0:0:0:0:
471,265,78932,6,0,P|394:252|324:297,1,160,2|8,0:0|0:1,0:0:0:0:
331,297,79828,2,0,P|283:333|232:339,1,80
0,277,80275,1,8,0:1:0:0:
68,239,80499,2,0,P|144:256|187:322,1,160,2|0,0:0|0:0,0:0:0:0:
268,342,81171,1,8,0:1:0:0:
477,272,81395,2,0,P|400:258|334:300,1,160,2|0,0:0|0:0,0:0:0:0:
272,346,82067,1,8,0:1:0:0:
276,350,82514,6,0,B|285:308|271:265|264:280|249:237|261:194,1,160,2|0,0:3|0:0,0:0:0:0:
307,129,83186,1,0,0:0:0:0:
265,197,83410,2,0,P|227:209|187:209,1,80,2|0,0:0|0:0,0:0:0:0:
191,213,84081,2,0,P|138:190|109:156,1,80,2|0,0:0|0:0,0:0:0:0:
126,179,84753,2,0,P|106:136|107:88,1,80,8|0,0:1|0:0,0:0:0:0:
138,33,85201,1,2,0:0:0:0:
108,107,85425,1,0,0:0:0:0:
130,183,85649,1,8,0:1:0:0:
198,220,85872,1,0,0:0:0:0:
271,196,86096,6,0,P|345:172|406:202,1,120,2|0,0:3|0:0,0:0:0:0:
386,188,86544,2,0,P|420:218|438:274,1,80,10|0,0:1|0:0,0:0:0:0:
438,253,87216,1,2,0:1:0:0:
426,329,87439,1,8,0:1:0:0:
390,192,87664,2,0,P|355:161|355:44,1,160,2|0,0:0|0:0,0:0:0:0:
407,0,88335,1,8,0:1:0:0:
267,41,88559,2,0,B|225:53|181:43|196:35|152:23|110:39,1,160,2|0,0:0|0:0,0:0:0:0:
51,91,89231,1,8,0:1:0:0:
55,95,91470,5,2,0:0:0:0:
59,99,91917,1,2,0:0:0:0:
59,99,96171,5,2,0:0:0:0:
45,176,96282,1,0,0:0:0:0:
85,241,96395,2,0,B|126:253|170:243|155:235|199:223|241:239,1,160,2|0,0:0|0:0,0:0:0:0:
247,244,99977,5,0,0:0:0:0:
390,352,100201,2,0,P|352:314|303:296,1,106.688003399117,2|0,0:0|0:0,0:0:0:0:
307,300,103111,5,2,0:0:0:0:
229,312,103334,1,0,0:0:0:0:
311,304,103783,5,2,0:0:0:0:
174,369,104007,1,0,0:0:0:0:
315,308,104455,5,2,0:0:0:0:
97,382,104678,2,0,P|62:371|34:352,1,66.6800021244483
24,211,108373,5,2,0:0:0:0:
59,281,108448,1,0,0:0:0:0:
41,358,108522,2,0,P|31:370|23:379,1,26.6720008497793,2|0,0:0|0:0,0:0:0:0:
45,362,109156,5,2,0:0:0:0:
28,215,109436,1,2,0:0:0:0:
156,266,109716,1,2,0:0:0:0:
78,284,110052,1,0,0:0:0:0:
32,219,110275,6,0,P|49:178|48:130,1,93.3520029742276,2|0,0:0|0:0,0:0:0:0:
57,51,111955,1,2,0:0:0:0:
117,0,112067,2,0,P|165:-4|221:16,1,106.688003399117
223,19,114753,5,2,0:0:0:0:
295,168,115089,1,2,0:0:0:0:
446,223,115425,1,0,0:0:0:0:
376,179,115649,2,0,P|367:199|363:218,1,40.008001274669,2|0,0:0|0:0,0:0:0:0:
450,227,116544,5,2,0:0:0:0:
378,78,117216,1,0,0:0:0:0:
227,23,117887,1,2,0:0:0:0:
301,71,118335,5,0,0:0:0:0:
231,27,118783,1,0,0:0:0:0:
382,82,119007,1,2,0:0:0:0:
386,86,119455,1,2,0:0:0:0:
450,228,120126,5,2,0:0:0:0:
454,232,121022,1,2,0:0:0:0:
458,236,121917,2,0,P|458:289|449:315,1,80.016002549338,2|0,0:0|0:0,0:0:0:0:
392,368,123708,2,0,P|344:379|302:372,1,93.3520029742276,2|0,0:0|0:0,0:0:0:0:
238,325,125499,6,0,P|222:297|215:241,1,79.9920011253757,2|0,0:0|0:0,0:0:0:0:
246,29,126395,2,0,P|270:103|242:177,1,159.984002250751,2|0,0:0|0:0,0:0:0:0:
246,180,128186,5,0,0:0:0:0:
178,219,128297,1,2,0:0:0:0:
100,205,128409,1,0,0:0:0:0:
250,184,128634,1,2,0:0:0:0:
370,275,128858,1,0,0:0:0:0:
254,188,129081,6,0,P|256:137|271:105,1,79.9920011253757,2|0,0:0|0:0,0:0:0:0:
410,61,129977,2,0,P|374:78|347:107,1,79.9920011253757,2|0,0:0|0:0,0:0:0:0:
405,159,130873,5,2,0:0:0:0:
409,163,131320,1,2,0:0:0:0:
271,114,131544,1,0,0:0:0:0:
298,259,131768,2,0,P|303:293|294:338,1,79.9920011253757,2|0,0:0|0:0,0:0:0:0:
214,331,132664,2,0,P|193:358|155:384,1,79.9920011253757,2|0,0:0|0:0,0:0:0:0:
83,354,133559,6,0,B|69:315|79:269|87:285|99:240|84:199,1,160,2|0,0:0|0:0,0:0:0:0:
87,201,135350,2,0,P|80:241|139:340,1,159.984002250751
141,343,137141,2,0,B|212:370|287:350|260:336|337:320|402:343,1,266.640003751252,2|0,0:0|0:0,0:0:0:0:
406,347,140052,5,0,0:0:0:0:
355,288,140163,1,2,0:0:0:0:
355,209,140275,1,0,0:0:0:0:
314,312,140499,5,0,0:0:0:0:
318,254,140610,1,2,0:0:0:0:
359,213,140722,1,0,0:0:0:0:
287,245,140947,5,0,0:0:0:0:
319,217,141058,1,2,0:0:0:0:
363,217,141170,1,0,0:0:0:0:
439,189,141395,1,2,0:0:0:0:
377,138,141618,2,0,P|375:99|390:62,1,79.9920011253757,2|0,0:0|0:0,0:0:0:0:
338,0,142402,1,2,0:0:0:0:
394,65,142514,2,0,B|401:106|383:150|378:133|358:175|366:220,1,160,2|0,0:0|0:0,0:0:0:0:
