osu file format v14

[General]
AudioFilename: audio.mp3
AudioLeadIn: 0
PreviewTime: 147781
Countdown: 0
SampleSet: Soft
StackLeniency: 0.7
Mode: 0
LetterboxInBreaks: 0
WidescreenStoryboard: 0

[Editor]
Bookmarks: 685,36814,72943,106491,137459,199394,258749,265416,266007,266491,271652
DistanceSpacing: 3.7
BeatDivisor: 4
GridSize: 4
TimelineZoom: 3.099999

[Metadata]
Title:Praline
TitleUnicode:プラリネ
Artist:Julia (CV.Terakawa Aimi)
ArtistUnicode:ジュリア (CV.寺川愛美)
Creator:CyberX
Version:Collab
Source:アイドルマスター ミリオンライブ!
Tags:THE iDOLM@STER: Million Live! THE IDOLM@STER LIVE THE@TER HARMONY 04 Jun Sasaki nano.RIPE Kimiko Hikan
BeatmapID:1394797
BeatmapSetID:658544

[Difficulty]
HPDrainRate:8
CircleSize:4
OverallDifficulty:8
ApproachRate:9
SliderMultiplier:1.7
SliderTickRate:1

[Events]
//Background and Video events
0,0,"Konachan.com - 228648 blue_eyes idolmaster idolmaster_million_live! ima_(lm_ew) instrument julia_(idolmaster) microphone pink_hair short_hair stars.jpg",0,0
//Break Periods
//Storyboard Layer 0 (Background)
//Storyboard Layer 1 (Fail)
//Storyboard Layer 2 (Pass)
//Storyboard Layer 3 (Foreground)
//Storyboard Sound Samples

[TimingPoints]
685,322.58064516129,4,2,1,30,1,0
685,-200,4,2,1,30,0,0
11007,-125,4,2,1,30,0,0
36814,-100,4,2,1,30,0,0
66168,-83.3333333333333,4,2,1,30,0,0
66894,-83.3333333333333,4,2,1,5,0,0
66975,-83.3333333333333,4,2,1,30,0,0
67055,-83.3333333333333,4,2,1,5,0,0
67136,-83.3333333333333,4,2,1,30,0,0
67217,-83.3333333333333,4,2,1,5,0,0
67297,-83.3333333333333,4,2,1,30,0,0
67378,-83.3333333333333,4,2,1,5,0,0
67459,-71.4285714285714,4,2,1,30,0,0
67539,-71.4285714285714,4,2,1,5,0,0
67620,-71.4285714285714,4,2,1,30,0,0
67701,-71.4285714285714,4,2,1,5,0,0
67781,-100,4,2,1,30,0,0
78104,-76.9230769230769,4,2,1,30,0,1
88104,-200,4,2,1,30,0,0
88426,-76.9230769230769,4,2,1,30,0,1
98749,-100,4,2,1,30,0,0
105604,-100,4,2,1,5,0,0
105684,-100,4,2,1,30,0,0
105765,-100,4,2,1,5,0,0
105846,-100,4,2,1,30,0,0
105926,-100,4,2,1,5,0,0
106007,-100,4,2,1,30,0,0
106088,-100,4,2,1,5,0,0
106168,-100,4,2,1,30,0,0
106249,-100,4,2,1,5,0,0
106330,-100,4,2,1,30,0,0
106410,-100,4,2,1,5,0,0
106491,-100,4,2,1,30,0,0
136572,-100,4,2,1,5,0,0
136652,-100,4,2,1,30,0,0
136733,-100,4,2,1,5,0,0
136814,-100,4,2,1,30,0,0
136894,-100,4,2,1,5,0,0
136975,-83.3333333333333,4,2,1,30,0,0
137055,-83.3333333333333,4,2,1,5,0,0
137136,-83.3333333333333,4,2,1,30,0,0
137217,-83.3333333333333,4,2,1,5,0,0
137297,-83.3333333333333,4,2,1,30,0,0
137378,-83.3333333333333,4,2,1,5,0,0
137459,-100,4,2,1,30,0,0
147781,-76.9230769230769,4,2,1,30,0,1
157781,-200,4,2,1,30,0,0
158104,-76.9230769230769,4,2,1,30,0,1
168426,-100,4,2,1,30,0,0
188023,-100,4,2,1,5,0,0
188104,-100,4,2,1,30,0,0
188184,-100,4,2,1,5,0,0
188265,-100,4,2,1,30,0,0
188346,-100,4,2,1,5,0,0
188426,-100,4,2,1,30,0,0
188507,-100,4,2,1,5,0,0
188588,-100,4,2,1,30,0,0
188668,-100,4,2,1,5,0,0
188749,-100,4,2,1,30,0,0
188830,-100,4,2,1,5,0,0
188910,-100,4,2,1,30,0,0
188991,-100,4,2,1,5,0,0
189072,-100,4,2,1,30,0,0
198507,-100,4,2,1,5,0,0
198588,-100,4,2,1,30,0,0
198668,-100,4,2,1,5,0,0
198749,-100,4,2,1,30,0,0
198830,-100,4,2,1,5,0,0
198910,-100,4,2,1,30,0,0
198991,-100,4,2,1,5,0,0
199072,-100,4,2,1,30,0,0
199152,-100,4,2,1,5,0,0
199233,-100,4,2,1,30,0,0
199314,-100,4,2,1,5,0,0
199394,-100,4,2,1,30,0,0
209394,-166.666666666667,4,2,1,30,0,0
209717,-153.846153846154,4,2,1,30,0,0
214878,-133.333333333333,4,2,1,30,0,0
226491,-117.647058823529,4,2,1,30,0,0
229072,-83.3333333333333,4,2,1,30,0,0
229152,-83.3333333333333,4,2,1,5,0,0
229233,-83.3333333333333,4,2,1,30,0,0
229314,-83.3333333333333,4,2,1,5,0,0
229394,-83.3333333333333,4,2,1,30,0,0
229475,-83.3333333333333,4,2,1,5,0,0
229555,-83.3333333333333,4,2,1,30,0,0
229636,-83.3333333333333,4,2,1,5,0,0
229717,-83.3333333333333,4,2,1,30,0,0
229797,-83.3333333333333,4,2,1,5,0,0
229878,-83.3333333333333,4,2,1,30,0,0
229959,-83.3333333333333,4,2,1,5,0,0
230039,-66.6666666666667,4,2,1,30,0,0
230120,-66.6666666666667,4,2,1,5,0,0
230201,-66.6666666666667,4,2,1,30,0,0
230281,-66.6666666666667,4,2,1,5,0,0
230362,-76.9230769230769,4,2,1,30,0,1
232620,-100,4,2,1,30,0,1
232943,-76.9230769230769,4,2,1,30,0,1
235523,-83.3333333333333,4,2,1,30,0,1
240362,-125,4,2,1,30,0,0
240684,-83.3333333333333,4,2,1,30,0,1
247217,-83.3333333333333,4,2,1,5,0,1
247297,-83.3333333333333,4,2,1,30,0,1
247378,-83.3333333333333,4,2,1,5,0,1
247459,-83.3333333333333,4,2,1,30,0,1
247539,-83.3333333333333,4,2,1,5,0,1
247620,-83.3333333333333,4,2,1,30,0,1
247701,-83.3333333333333,4,2,1,5,0,1
247781,-83.3333333333333,4,2,1,30,0,1
247862,-83.3333333333333,4,2,1,5,0,1
247943,-83.3333333333333,4,2,1,30,0,1
248023,-83.3333333333333,4,2,1,5,0,1
248104,-83.3333333333333,4,2,1,30,0,1
248184,-83.3333333333333,4,2,1,5,0,1
248265,-83.3333333333333,4,2,1,30,0,1
248346,-83.3333333333333,4,2,1,5,0,1
248426,-100,4,2,1,30,0,0
266491,-200,4,2,1,30,0,0

[Colours]
Combo1 : 0,255,255
Combo2 : 128,0,255
Combo3 : 192,192,192
Combo4 : 242,24,57

[HitObjects]
304,256,685,6,0,L|308:344,2,85
308,124,1652,1,0,0:0:0:0:
390,62,1975,6,0,L|394:150,1,85
436,236,2459,2,0,L|440:324,1,85
308,124,2943,1,0,0:0:0:0:
404,320,3265,6,0,L|315:324,2,85
468,240,4233,1,0,0:0:0:0:
456,64,4555,6,0,L|367:68,1,85
404,160,5039,2,0,L|315:164,1,85
468,240,5523,1,0,0:0:0:0:
324,336,5846,6,0,L|413:340,2,85
468,240,6814,1,0,0:0:0:0:
344,148,7136,6,0,L|340:237,1,85
472,48,7620,2,0,L|468:137,1,85
468,240,8104,1,0,0:0:0:0:
312,56,8426,6,0,L|401:60,2,85
296,148,9394,1,0,0:0:0:0:
328,248,9717,6,0,L|324:337,1,85
464,192,10201,2,0,L|460:281,1,85
400,348,10684,1,0,0:0:0:0:
64,348,11007,6,0,P|56:316|60:279,1,68
216,303,11330,2,0,P|184:310|147:306,1,68
227,145,11652,6,0,P|260:148|293:141,1,68
230,211,11975,2,0,P|222:179|226:142,1,68
19,119,12297,5,0,0:0:0:0:
112,112,12459,1,0,0:0:0:0:
243,31,12620,2,0,P|210:30|175:42,1,68
358,124,12943,6,0,P|357:156|369:191,1,68
474,312,13265,2,0,P|474:279|462:244,1,68
300,262,13588,6,0,P|299:294|311:329,1,68
234,272,13910,2,0,P|266:272|301:260,1,68
125,248,14233,6,0,P|124:280|136:315,1,68
317,160,14555,2,0,P|284:170|251:170,1,68
40,96,14878,5,0,0:0:0:0:
138,105,15039,1,0,0:0:0:0:
56,264,15201,2,0,P|66:231|66:198,1,68
203,116,15523,6,0,P|170:105|137:105,1,68
304,156,15846,2,0,P|314:123|314:90,1,68
71,95,16168,6,0,P|103:105|136:105,1,68
232,224,16491,2,0,P|199:234|166:234,1,68
155,300,16814,6,0,P|154:266|165:234,1,68
372,304,17136,2,0,P|339:293|306:293,1,68
440,228,17459,5,0,0:0:0:0:
192,312,17620,5,0,0:0:0:0:
440,328,17781,1,0,0:0:0:0:
256,236,17943,1,0,0:0:0:0:
376,176,18104,5,0,0:0:0:0:
108,236,18265,5,0,0:0:0:0:
308,300,18426,1,0,0:0:0:0:
68,336,18588,1,0,0:0:0:0:
176,116,18749,6,0,P|124:104|74:105,1,102
44,92,19072,6,0,L|48:176,1,68
132,288,19394,1,0,0:0:0:0:
128,196,19555,1,0,0:0:0:0:
228,280,19717,2,0,L|232:348,1,68
72,100,20039,6,0,P|102:85|136:82,1,68
269,133,20362,2,0,P|242:111|211:99,1,68
333,115,20684,6,0,P|302:129|268:132,1,68
440,120,21007,2,0,P|425:89|422:55,1,68
336,268,21330,6,0,P|388:280|437:278,1,102
240,276,21652,6,0,L|244:360,1,68
136,284,21975,1,0,0:0:0:0:
128,192,22136,1,0,0:0:0:0:
332,200,22297,2,0,L|336:284,1,68
380,340,22620,6,0,P|410:325|444:322,1,68
432,176,22943,2,0,P|446:206|449:240,1,68
449,111,23265,6,0,P|434:141|431:175,1,68
304,40,23588,2,0,P|334:54|368:57,1,68
236,120,23910,6,0,P|185:123|135:114,1,102
44,116,24233,6,0,L|40:32,1,68
200,192,24555,1,0,0:0:0:0:
203,287,24717,1,0,0:0:0:0:
52,292,24878,2,0,L|48:208,1,68
260,328,25201,6,0,P|290:342|324:345,1,68
464,192,25523,2,0,P|433:206|399:209,1,68
316,256,25846,6,0,P|301:225|298:191,1,68
234,208,26168,2,0,P|267:204|298:190,1,68
404,112,26491,6,0,P|357:90|308:80,1,102
232,104,26814,6,0,L|228:36,1,68
148,148,27136,1,0,0:0:0:0:
152,240,27297,1,0,0:0:0:0:
301,257,27459,2,0,L|298:190,1,68
396,260,27781,6,0,P|392:293|378:324,1,68
224,324,28104,2,0,P|209:293|206:259,1,68
56,220,28426,6,0,P|86:234|120:237,1,68
92,68,28749,2,0,P|106:98|109:132,1,68
72,352,29072,6,0,P|55:303|51:253,1,102
144,224,29394,6,0,L|76:227,1,68
232,220,29717,1,0,0:0:0:0:
312,216,29878,1,0,0:0:0:0:
464,208,30039,2,0,L|396:211,1,68
376,352,30362,6,0,P|361:321|358:287,1,68
348,136,30684,2,0,P|378:121|412:118,1,68
283,118,31007,6,0,P|313:132|347:135,1,68
200,60,31330,2,0,P|185:90|182:124,1,68
88,208,31652,6,0,P|71:159|67:109,1,102
112,68,31975,6,0,L|44:71,1,68
200,60,32297,1,0,0:0:0:0:
288,56,32459,1,0,0:0:0:0:
436,48,32620,2,0,L|368:51,1,68
218,124,32943,6,0,P|203:93|200:59,1,68
296,196,33265,2,0,P|265:210|231:213,1,68
76,196,33588,6,0,P|106:181|140:178,1,68
264,271,33910,2,0,P|252:239|230:213,1,68
512,304,34233,6,0,P|462:315|411:314,1,102
336,300,34555,6,0,L|339:367,1,68
388,220,34878,1,0,0:0:0:0:
408,136,35039,1,0,0:0:0:0:
168,228,35201,2,0,L|171:295,1,68
88,172,35523,6,0,P|73:202|70:236,1,68
264,232,35846,2,0,P|260:198|246:167,1,68
40,336,36168,5,0,0:0:0:0:
308,300,36330,1,0,0:0:0:0:
88,216,36491,1,0,0:0:0:0:
344,192,36652,1,0,0:0:0:0:
92,100,36814,6,0,L|-4:108,1,85
240,232,37136,2,0,P|256:164|176:80,2,170
180,312,37943,1,0,0:0:0:0:
76,184,38104,6,0,L|192:172,1,85
403,247,38426,2,0,L|287:235,1,85
392,65,38749,2,0,P|422:125|419:158,1,85
240,232,39072,2,0,B|283:135|204:163|253:50,1,170
339,165,39555,1,0,0:0:0:0:
131,102,39717,6,0,L|140:10,1,85
19,183,40039,2,0,L|28:275,1,85
251,291,40362,2,0,P|213:242|95:237,1,170
153,321,40846,1,0,0:0:0:0:
224,158,41007,2,0,L|215:73,1,85
388,191,41330,2,0,P|350:202|303:199,1,85
474,79,41652,6,0,B|460:145|460:145|474:179|474:179|459:264,1,170
391,336,42136,1,0,0:0:0:0:
286,224,42297,2,0,P|335:226|384:270,1,85
242,370,42620,2,0,P|219:326|232:262,1,85
187,114,42943,2,0,P|160:211|94:255,1,170
314,43,43588,6,0,P|377:65|404:112,1,85
286,224,43910,2,0,L|276:134,1,85
442,158,44233,2,0,L|418:365,1,170
512,255,44717,1,0,0:0:0:0:
286,224,44878,6,0,L|295:308,1,85
433,242,45201,2,0,L|423:326,1,85
276,139,45523,2,0,B|398:122|398:122|374:162,1,170
286,224,46007,1,0,0:0:0:0:
335,36,46168,6,0,L|468:48,1,127.5
493,28,46491,1,0,0:0:0:0:
374,162,46652,2,0,L|369:260,1,85
226,84,46975,6,0,L|221:-14,1,85
286,224,47297,1,0,0:0:0:0:
405,52,47459,2,0,P|343:84|299:83,1,85
369,246,47781,2,0,L|374:162,1,85
232,300,48104,6,0,B|326:281|299:345|400:327,2,170
134,346,48910,1,0,0:0:0:0:
39,256,49072,2,0,B|66:251|66:251|146:263,1,85
293,208,49394,6,0,P|213:193|132:262,1,170
180,101,49878,1,0,0:0:0:0:
232,300,50039,2,0,L|226:389,1,85
39,256,50362,2,0,L|33:167,1,85
293,208,50684,6,0,P|224:254|143:240,1,170
230,140,51168,1,0,0:0:0:0:
385,175,51330,2,0,L|381:352,1,170
293,314,51814,1,0,0:0:0:0:
475,226,51975,2,0,L|476:141,1,85
313,113,52297,5,0,0:0:0:0:
404,268,52459,1,0,0:0:0:0:
407,102,52620,2,0,P|371:122|329:124,1,85
112,45,52943,6,0,P|189:16|261:56,2,170
190,192,53749,1,0,0:0:0:0:
190,192,53910,2,0,L|179:85,1,85
18,166,54233,2,0,P|92:145|132:161,1,85
274,254,54555,6,0,P|218:213|107:249,1,170
70,318,55039,1,0,0:0:0:0:
198,383,55201,2,0,P|203:335|187:292,1,85
280,293,55523,5,0,0:0:0:0:
124,231,55684,1,0,0:0:0:0:
286,376,55846,2,0,P|340:358|390:359,1,85
487,266,56168,5,0,0:0:0:0:
280,293,56330,1,0,0:0:0:0:
443,366,56491,6,0,L|447:175,1,170
284,161,56975,1,0,0:0:0:0:
364,264,57136,2,0,L|366:168,1,85
192,357,57459,6,0,B|295:385|257:320|387:356,1,170
85,93,58104,6,0,B|58:140|58:140|88:269,1,170
11,308,58588,1,0,0:0:0:0:
165,332,58749,2,0,P|127:288|18:302,2,170
215,223,59555,1,0,0:0:0:0:
301,379,59717,6,0,P|302:293|307:188,1,170
66,46,60362,6,0,P|79:116|108:149,1,85
258,133,60684,2,0,P|190:109|147:117,1,85
86,255,61007,2,0,P|140:208|154:167,1,85
307,208,61330,6,0,B|376:200|376:200|413:212|413:212|507:202,1,170
256,279,61814,1,0,0:0:0:0:
256,279,61894,1,0,0:0:0:0:
256,279,61975,2,0,P|220:214|270:125,1,170
353,97,62459,1,0,0:0:0:0:
329,317,62620,6,0,P|255:297|149:297,1,170
51,343,63104,1,0,0:0:0:0:
51,343,63265,2,0,P|84:291|85:242,1,85
10,178,63588,2,0,L|118:186,1,85
230,96,63910,2,0,L|122:104,1,85
162,295,64233,6,0,P|236:275|342:275,2,170
94,184,65039,1,0,0:0:0:0:
230,96,65201,6,0,L|224:211,1,85
123,20,65523,2,0,L|129:135,1,85
323,16,65846,2,0,L|315:156,1,127.5
316,143,66168,2,0,B|426:130|426:130|365:181,1,152.999995330811
301,224,66491,5,0,0:0:0:0:
400,43,66652,1,0,0:0:0:0:
400,43,66733,1,0,0:0:0:0:
400,43,66814,2,0,P|431:49|449:55,1,50.9999984436036
225,94,66975,2,0,P|200:101|175:106,1,50.9999984436036
393,157,67136,6,0,L|388:237,1,50.9999984436036
221,257,67297,2,0,L|224:206,1,50.9999984436036
420,311,67459,6,0,P|394:301|334:304,1,59.4999981842042
244,375,67620,2,0,P|255:349|299:309,1,59.4999981842042
50,258,67781,6,0,P|147:309|153:391,2,170
170,127,68588,1,0,0:0:0:0:
170,127,68749,2,0,L|165:216,1,85
21,111,69072,2,0,L|16:22,1,85
179,22,69394,6,0,P|127:51|81:52,1,85
260,161,69717,2,0,P|260:101|283:61,1,85
99,161,70039,2,0,P|150:191|173:230,1,85
349,306,70362,6,0,B|227:293|227:293|260:346,1,170
433,332,70846,1,0,0:0:0:0:
433,332,71007,2,0,P|430:275|399:237,1,85
260,161,71330,2,0,P|314:190|407:154,1,127.5
377,179,71652,6,0,P|380:122|411:84,1,85
249,0,71975,2,0,L|254:84,1,85
312,219,72297,5,0,0:0:0:0:
151,121,72459,1,0,0:0:0:0:
147,310,72620,2,0,P|211:315|252:340,1,85
48,208,72943,6,0,L|44:112,1,85
56,336,73265,1,0,0:0:0:0:
48,208,73426,6,0,L|44:112,1,85
56,336,73749,1,0,0:0:0:0:
160,120,73910,6,0,L|156:24,1,85
168,248,74233,1,0,0:0:0:0:
160,120,74394,6,0,L|156:24,1,85
168,248,74717,1,0,0:0:0:0:
264,44,74878,6,0,L|267:128,1,85
280,352,75201,2,0,L|276:267,1,85
56,340,75523,6,0,P|61:314|85:284,3,42.5
38,212,75846,2,0,P|59:197|98:193,3,42.5
113,97,76168,6,0,P|138:102|168:126,3,42.5
249,55,76491,2,0,P|263:76|267:115,3,42.5
256,208,76814,5,0,0:0:0:0:
256,226,76894,1,0,0:0:0:0:
256,244,76975,1,0,0:0:0:0:
256,262,77055,1,0,0:0:0:0:
256,280,77136,1,0,0:0:0:0:
256,299,77217,1,0,0:0:0:0:
256,317,77297,1,0,0:0:0:0:
256,335,77378,1,0,0:0:0:0:
176,344,77459,6,0,P|156:332|120:324,1,42.5
336,344,77620,2,0,P|356:332|392:324,1,42.5
176,176,77781,6,0,P|164:196|156:232,1,42.5
353,214,77943,2,0,P|347:194|336:176,1,42.5
24,72,78104,6,0,L|260:48,2,220.999989883423
368,72,78910,1,0,0:0:0:0:
260,156,79072,6,0,P|208:144|132:156,1,110.499994941712
320,248,79394,2,0,P|347:200|358:146,1,110.499994941712
210,253,79717,2,0,P|237:300|279:336,1,110.499994941712
392,336,80039,5,0,0:0:0:0:
104,288,80201,1,0,0:0:0:0:
328,208,80362,2,0,B|452:196|452:196|400:236,1,165.749992412568
268,312,80684,6,0,L|36:292,2,220.999989883423
348,260,81491,1,0,0:0:0:0:
148,200,81652,6,0,P|163:140|206:100,1,110.499994941712
348,180,81975,2,0,P|288:197|232:179,1,110.499994941712
231,17,82297,2,0,P|275:59|288:117,1,110.499994941712
92,240,82620,5,0,0:0:0:0:
312,288,82781,1,0,0:0:0:0:
60,340,82943,2,0,B|48:212|48:212|84:268,1,165.749992412568
152,328,83265,6,0,P|264:304|388:356,2,220.999989883423
276,384,84072,1,0,0:0:0:0:
480,232,84233,6,0,P|424:232|372:264,1,110.499994941712
200,256,84555,1,0,0:0:0:0:
302,282,84717,1,0,0:0:0:0:
28,336,84878,6,0,P|49:285|93:253,1,110.499994941712
134,173,85201,2,0,P|178:205|200:256,1,110.499994941712
20,168,85523,2,0,P|41:117|85:85,1,110.499994941712
248,64,85846,6,0,L|16:48,2,220.999989883423
292,148,86652,1,0,0:0:0:0:
184,140,86814,6,0,L|48:132,1,110.499994941712
256,228,87136,2,0,L|120:220,1,110.499994941712
48,344,87459,6,0,P|164:304|264:364,1,220.999989883423
344,328,87943,1,0,0:0:0:0:
48,236,88104,6,0,P|42:204|50:174,1,63.75
144,200,88426,6,0,P|248:160|372:184,2,220.999989883423
104,288,89233,1,0,0:0:0:0:
184,96,89394,6,0,P|237:80|313:87,1,110.499994941712
96,144,89717,2,0,P|94:88|110:36,1,110.499994941712
356,20,90039,2,0,P|371:72|370:127,1,110.499994941712
360,292,90362,5,0,0:0:0:0:
216,76,90523,1,0,0:0:0:0:
128,268,90684,2,0,P|208:240|293:253,1,165.749992412568
388,312,91007,6,0,L|392:200,1,110.499994941712
288,176,91330,1,0,0:0:0:0:
284,328,91491,1,0,0:0:0:0:
492,324,91652,2,0,L|495:213,1,110.499994941712
329,39,91975,6,0,P|358:133|452:100,2,220.999989883423
224,52,92781,1,0,0:0:0:0:
39,129,92943,6,0,P|89:106|144:100,1,110.499994941712
222,139,93265,2,0,P|245:189|244:248,1,110.499994941712
104,240,93588,6,0,P|204:200|328:224,2,220.999989883423
224,312,94394,1,0,0:0:0:0:
464,336,94555,6,0,P|437:287|399:247,1,110.499994941712
395,151,94878,2,0,P|346:177|306:215,1,110.499994941712
491,151,95201,2,0,P|464:102|426:62,1,110.499994941712
152,260,95523,5,0,0:0:0:0:
77,74,95684,1,0,0:0:0:0:
242,180,95846,1,0,0:0:0:0:
47,189,96007,1,0,0:0:0:0:
203,68,96168,6,0,P|188:91|191:125,3,55.2499974708558
335,85,96491,2,0,P|308:91|286:117,3,55.2499974708558
413,180,96814,6,0,P|389:165|355:168,3,55.2499974708558
407,319,97136,2,0,P|400:292|374:270,3,55.2499974708558
256,356,97459,5,0,0:0:0:0:
256,340,97539,1,0,0:0:0:0:
256,324,97620,1,0,0:0:0:0:
256,308,97701,1,0,0:0:0:0:
256,292,97781,1,0,0:0:0:0:
256,277,97862,1,0,0:0:0:0:
256,261,97943,1,0,0:0:0:0:
256,245,98023,1,0,0:0:0:0:
200,200,98104,6,0,P|176:176|164:144,1,55.2499974708558
344,157,98265,2,0,P|332:181|312:200,1,55.2499974708558
64,88,98426,6,0,P|92:64|132:56,1,55.2499974708558
403,57,98588,2,0,P|428:68|448:88,1,55.2499974708558
68,340,98749,6,0,L|56:204,1,127.5
164,232,99072,6,0,L|160:336,1,85
263,340,99394,1,0,0:0:0:0:
260,256,99555,1,0,0:0:0:0:
348,232,99717,2,0,L|352:336,1,85
436,184,100039,6,0,P|404:152|356:136,1,85
300,56,100362,2,0,P|344:63|392:47,1,85
253,124,100684,6,0,P|269:84|299:55,1,85
92,56,101007,2,0,P|134:54|173:70,1,85
128,272,101330,6,0,L|120:144,1,127.5
216,336,101652,6,0,L|208:244,1,85
44,263,101975,1,0,0:0:0:0:
52,348,102136,1,0,0:0:0:0:
312,328,102297,2,0,L|304:236,1,85
472,324,102620,6,0,P|432:320|380:332,1,85
424,148,102943,2,0,P|420:188|432:240,1,85
340,152,103265,6,0,P|380:156|432:144,1,85
240,184,103588,2,0,P|236:141|244:100,1,85
440,48,103910,6,0,P|376:43|314:58,1,127.5
159,97,104233,6,0,L|263:101,1,85
144,187,104555,1,0,0:0:0:0:
60,184,104717,1,0,0:0:0:0:
64,308,104878,2,0,L|148:304,1,85
285,349,105201,6,0,L|421:341,1,127.5
468,272,105523,6,0,L|425:272,1,42.5
257,258,105684,2,0,L|321:258,1,42.5
457,190,105846,6,0,L|463:147,1,42.5
277,130,106007,2,0,L|285:186,1,42.5
473,22,106168,6,0,P|453:29|437:43,1,42.5
273,22,106330,2,0,P|292:31|306:46,1,42.5
344,216,106491,5,0,0:0:0:0:
344,216,106652,1,0,0:0:0:0:
160,173,106814,2,0,L|169:-17,1,170
83,30,107297,5,0,0:0:0:0:
82,29,107459,2,0,L|77:113,1,85
268,124,107781,2,0,L|263:39,1,85
78,189,108104,2,0,P|129:186|173:163,1,85
344,216,108426,2,0,P|304:200|262:199,1,85
155,327,108749,6,0,B|250:310|218:379|339:351,1,170
384,292,109233,1,0,0:0:0:0:
470,368,109394,2,0,P|460:255|463:193,1,170
476,167,109797,1,0,0:0:0:0:
476,167,109878,2,0,P|433:190|384:195,1,85
164,181,110201,6,0,B|288:163|288:163|247:220,1,170
196,271,110684,2,0,L|112:257,1,85
134,100,111007,2,0,L|219:86,1,85
58,161,111330,6,0,P|45:74|125:1,1,170
217,86,111814,1,0,0:0:0:0:
217,86,111975,2,0,L|134:100,1,85
332,51,112297,2,0,P|303:111|299:152,1,85
380,298,112620,2,0,P|329:254|310:217,1,85
424,124,112943,2,0,L|410:212,1,85
250,364,113265,6,0,L|219:172,1,170
320,239,113749,1,0,0:0:0:0:
130,196,113910,2,0,P|142:154|286:130,1,170
65,13,114394,1,0,0:0:0:0:
65,13,114555,6,0,P|95:44|106:109,1,85
8,234,114878,2,0,P|21:193|50:163,1,85
163,303,115201,1,0,0:0:0:0:
163,303,115362,2,0,L|59:299,1,85
223,210,115684,1,0,0:0:0:0:
270,358,115846,6,0,L|452:350,1,170
463,179,116330,1,0,0:0:0:0:
367,269,116491,2,0,L|471:265,1,85
223,210,116814,5,0,0:0:0:0:
223,210,116975,1,0,0:0:0:0:
270,358,117136,2,0,L|374:354,1,85
372,181,117459,5,0,0:0:0:0:
372,181,117620,1,0,0:0:0:0:
372,181,117781,1,0,0:0:0:0:
147,259,117943,2,0,P|135:207|154:155,1,85
260,76,118265,5,0,0:0:0:0:
307,217,118426,2,0,L|221:209,1,85
106,111,118749,5,0,0:0:0:0:
106,111,118910,1,0,0:0:0:0:
73,288,119072,2,0,L|159:280,1,85
205,363,119394,5,0,0:0:0:0:
222,209,119555,1,0,0:0:0:0:
346,300,119717,2,0,L|352:214,1,85
466,352,120039,2,0,L|460:266,1,85
482,119,120362,1,0,0:0:0:0:
351,215,120523,6,0,P|401:216|446:186,1,85
325,95,120846,1,0,0:0:0:0:
235,178,121007,6,0,L|240:279,1,85
134,318,121330,2,0,L|139:217,1,85
33,178,121652,2,0,L|38:279,1,85
186,47,121975,6,0,P|124:77|52:86,1,127.5
33,77,122297,1,0,0:0:0:0:
235,178,122459,2,0,P|203:165|129:165,1,85
287,114,122781,5,0,0:0:0:0:
252,268,122943,1,0,0:0:0:0:
252,268,123104,2,0,P|256:302|293:366,1,85
322,209,123426,5,0,0:0:0:0:
322,209,123588,2,0,P|349:187|386:123,1,85
295,29,123910,2,0,L|286:122,1,85
466,212,124233,6,0,L|447:22,2,170
192,239,125201,5,0,0:0:0:0:
192,239,125362,1,0,0:0:0:0:
277,347,125523,2,0,L|390:337,1,85
204,216,125846,5,0,0:0:0:0:
106,341,126007,1,0,0:0:0:0:
46,193,126168,2,0,P|56:136|88:99,1,85
297,187,126491,2,0,B|195:213|225:155|132:177,1,170
243,19,126975,1,0,0:0:0:0:
243,19,127136,6,0,L|251:106,1,85
376,240,127459,2,0,L|384:153,1,85
212,194,127781,2,0,L|299:186,1,85
433,61,128104,2,0,L|346:53,1,85
281,287,128426,6,0,B|331:265|331:265|476:302,2,170
183,338,129233,1,0,0:0:0:0:
183,338,129394,2,0,P|183:292|157:251,1,85
19,157,129717,6,0,B|53:196|53:196|194:170,2,170
98,25,130523,1,0,0:0:0:0:
98,25,130684,2,0,L|91:129,1,85
264,159,131007,6,0,P|230:122|225:71,1,85
346,0,131330,2,0,P|316:29|305:70,1,85
386,228,131652,2,0,P|374:187|258:162,1,170
195,244,132136,5,0,0:0:0:0:
195,244,132217,1,0,0:0:0:0:
195,244,132297,2,0,L|207:352,1,85
84,138,132620,2,0,L|61:336,2,170
180,58,133426,1,0,0:0:0:0:
264,159,133588,6,0,L|179:149,1,85
366,59,133910,2,0,P|383:176|386:232,2,170
466,134,134717,1,0,0:0:0:0:
264,159,134878,6,0,P|258:203|253:272,1,85
397,349,135201,2,0,P|361:321|304:282,1,85
77,345,135523,2,0,B|176:377|143:302|270:341,1,170
157,247,136007,1,0,0:0:0:0:
315,369,136168,2,0,P|364:352|410:348,1,85
424,355,136410,5,0,0:0:0:0:
424,355,136491,2,0,P|437:301|448:286,1,42.5
336,217,136652,2,0,P|376:255|383:272,1,42.5
499,209,136814,2,0,P|445:224|427:222,1,42.5
186,90,136975,6,0,L|285:97,1,50.9999984436036
325,344,137136,2,0,L|281:254,1,50.9999984436036
476,96,137297,2,0,L|420:178,1,50.9999984436036
224,216,137459,6,0,L|28:228,2,170
304,216,138265,1,0,0:0:0:0:
175,135,138426,6,0,P|214:119|256:128,1,85
272,300,138749,2,0,P|233:316|191:307,1,85
364,175,139072,6,0,P|380:214|371:256,1,85
112,196,139394,1,0,0:0:0:0:
320,76,139555,1,0,0:0:0:0:
48,80,139717,6,0,P|130:64|228:123,2,170
120,196,140523,1,0,0:0:0:0:
200,288,140684,6,0,P|232:240|232:192,1,85
36,300,141007,2,0,P|84:332|132:332,1,85
432,324,141330,6,0,B|396:304|352:328|352:328|308:352|269:332,2,170
468,252,142136,1,0,0:0:0:0:
352,128,142297,2,0,L|356:220,1,85
196,384,142620,6,0,L|192:299,1,85
48,200,142943,2,0,B|196:176|196:176|180:192,2,170
52,108,143749,1,0,0:0:0:0:
288,280,143910,6,0,P|252:300|188:288,1,85
48,344,144233,2,0,P|84:324|148:336,1,85
136,164,144555,2,0,P|156:200|144:264,1,85
52,208,144878,5,0,0:0:0:0:
256,188,145039,1,0,0:0:0:0:
64,80,145201,6,0,L|233:64,2,170
140,152,146007,1,0,0:0:0:0:
380,232,146168,5,0,0:0:0:0:
258,362,146330,1,0,0:0:0:0:
280,186,146491,1,0,0:0:0:0:
364,342,146652,1,0,0:0:0:0:
204,266,146814,5,0,0:0:0:0:
185,266,146894,1,0,0:0:0:0:
167,266,146975,1,0,0:0:0:0:
149,266,147055,1,0,0:0:0:0:
100,206,147136,6,0,P|124:194|156:186,1,42.5
142,342,147297,2,0,P|122:335|104:326,1,42.5
24,251,147459,6,0,P|11:221|3:190,1,42.5
136,66,147620,2,0,P|156:70|175:80,1,42.5
468,96,147781,6,0,P|364:120|292:40,2,220.999989883423
460,188,148588,1,0,0:0:0:0:
316,177,148749,6,0,P|280:216|264:292,1,110.499994941712
408,340,149072,2,0,P|388:284|336:244,1,110.499994941712
221,338,149394,2,0,P|276:348|340:324,1,110.499994941712
476,288,149717,5,0,0:0:0:0:
112,320,149878,1,0,0:0:0:0:
320,116,150039,2,0,B|336:244|336:244|308:216,1,165.749992412568
28,200,150362,6,0,L|248:180,2,220.999989883423
148,280,151168,1,0,0:0:0:0:
72,124,151330,6,0,P|60:80|80:16,1,110.499994941712
240,68,151652,2,0,P|188:84|136:68,1,110.499994941712
300,24,151975,2,0,P|314:67|300:136,1,110.499994941712
200,152,152297,5,0,0:0:0:0:
432,64,152459,1,0,0:0:0:0:
388,248,152620,2,0,B|376:136|376:136|408:184,1,165.749992412568
288,348,152943,6,0,B|408:304|408:380|512:328,2,220.999989883423
208,352,153749,1,0,0:0:0:0:
248,268,153910,6,0,L|364:260,1,110.499994941712
183,194,154233,1,0,0:0:0:0:
146,270,154394,1,0,0:0:0:0:
270,189,154555,6,0,L|208:92,1,110.499994941712
408,100,154878,2,0,L|356:204,1,110.499994941712
263,26,155201,2,0,L|380:16,1,110.499994941712
20,72,155523,6,0,P|132:56|224:112,2,220.999989883423
56,160,156330,1,0,0:0:0:0:
132,232,156491,6,0,P|185:208|241:208,1,110.499994941712
312,356,156814,2,0,P|312:296|291:252,1,110.499994941712
396,100,157136,6,0,P|364:196|428:292,1,220.999989883423
456,184,157620,1,0,0:0:0:0:
312,84,157781,6,0,P|327:55|352:36,1,63.75
448,36,158104,6,0,L|216:44,2,220.999989883423
404,112,158910,1,0,0:0:0:0:
204,120,159072,6,0,P|216:172|256:212,1,110.499994941712
99,100,159394,2,0,P|140:64|160:4,1,110.499994941712
134,198,159717,2,0,P|80:180|24:192,1,110.499994941712
28,324,160039,5,0,0:0:0:0:
275,228,160201,1,0,0:0:0:0:
128,320,160362,2,0,L|300:317,1,165.749992412568
480,320,160684,6,0,L|354:331,1,110.499994941712
348,240,161007,1,0,0:0:0:0:
488,232,161168,1,0,0:0:0:0:
152,248,161330,2,0,L|271:242,1,110.499994941712
64,156,161652,6,0,L|290:146,2,220.999989883423
169,231,162459,1,0,0:0:0:0:
53,83,162620,6,0,P|96:52|145:71,1,110.499994941712
169,231,162943,2,0,P|128:264|77:243,1,110.499994941712
260,376,163265,6,0,B|248:224|248:224|280:288,2,220.999989883423
360,320,164072,1,0,0:0:0:0:
48,72,164233,6,0,L|164:64,1,110.499994941712
176,232,164555,2,0,L|108:133,1,110.499994941712
256,36,164878,2,0,L|208:140,1,110.499994941712
264,256,165201,5,0,0:0:0:0:
434,164,165362,1,0,0:0:0:0:
350,339,165523,1,0,0:0:0:0:
316,148,165684,1,0,0:0:0:0:
469,277,165846,6,0,P|442:267|410:267,3,55.2499974708558
350,339,166168,2,0,P|338:312|318:291,3,55.2499974708558
202,315,166491,6,0,P|212:287|214:255,3,55.2499974708558
106,207,166814,2,0,P|132:195|154:171,3,55.2499974708558
332,212,167136,5,0,0:0:0:0:
350,212,167217,1,0,0:0:0:0:
368,212,167297,1,0,0:0:0:0:
386,212,167378,1,0,0:0:0:0:
404,212,167459,1,0,0:0:0:0:
423,212,167539,1,0,0:0:0:0:
441,212,167620,1,0,0:0:0:0:
459,212,167701,1,0,0:0:0:0:
508,272,167781,6,0,P|488:288|452:284,1,55.2499974708558
464,128,167943,2,0,P|492:131|512:148,1,55.2499974708558
392,328,168104,6,0,P|366:310|352:280,1,55.2499974708558
360,120,168265,2,0,P|380:96|408:88,1,55.2499974708558
244,296,168426,6,0,L|232:126,2,170
344,207,169233,1,0,0:0:0:0:
201,368,169394,1,0,0:0:0:0:
44,256,169555,6,0,P|28:212|36:148,1,85
171,246,169878,2,0,P|143:278|106:299,1,85
99,140,170201,2,0,P|140:146|177:167,1,85
280,176,170523,5,0,0:0:0:0:
184,60,170684,1,0,0:0:0:0:
364,272,170846,2,0,L|452:260,1,85
280,176,171168,1,0,0:0:0:0:
156,272,171330,6,0,L|252:260,1,85
96,196,171652,1,0,0:0:0:0:
56,288,171814,1,0,0:0:0:0:
136,108,171975,1,0,0:0:0:0:
292,36,172136,6,0,P|336:47|381:41,1,85
228,108,172459,2,0,P|217:67|193:32,1,85
322,127,172781,2,0,P|289:159|272:201,1,85
376,204,173104,1,0,0:0:0:0:
352,336,173265,2,0,P|334:297|304:267,1,85
40,316,173588,5,0,0:0:0:0:
192,311,173749,1,0,0:0:0:0:
80,216,173910,6,0,P|125:219|167:216,1,85
218,138,174233,1,0,0:0:0:0:
260,212,174394,1,0,0:0:0:0:
176,64,174555,1,0,0:0:0:0:
360,48,174717,6,0,L|275:54,1,85
300,136,175039,1,0,0:0:0:0:
104,44,175201,5,0,0:0:0:0:
107,209,175362,1,0,0:0:0:0:
201,73,175523,1,0,0:0:0:0:
46,126,175684,1,0,0:0:0:0:
204,176,175846,6,0,L|317:169,1,85
132,300,176168,1,0,0:0:0:0:
304,272,176330,1,0,0:0:0:0:
48,348,176491,2,0,L|188:336,1,127.5
276,360,176814,5,0,0:0:0:0:
344,280,176975,1,0,0:0:0:0:
240,262,177136,1,0,0:0:0:0:
68,268,177297,6,0,P|85:310|83:360,1,85
160,232,177620,2,0,P|188:196|232:172,1,85
82,170,177943,2,0,P|36:163|-5:137,1,85
68,88,178265,1,0,0:0:0:0:
148,332,178426,5,0,0:0:0:0:
304,248,178588,1,0,0:0:0:0:
304,248,178668,1,0,0:0:0:0:
304,248,178749,2,0,L|420:256,1,85
480,344,179072,2,0,L|364:352,1,85
184,344,179394,5,0,0:0:0:0:
304,352,179555,1,0,0:0:0:0:
68,336,179717,1,0,0:0:0:0:
16,156,179878,6,0,P|24:113|66:76,1,85
192,184,180201,1,0,0:0:0:0:
132,244,180362,6,0,P|108:208|112:152,1,85
216,60,180684,2,0,P|176:71|136:59,1,85
316,36,181007,5,0,0:0:0:0:
260,148,181168,1,0,0:0:0:0:
260,148,181249,1,0,0:0:0:0:
260,148,181330,2,0,L|272:232,1,85
416,32,181652,5,0,0:0:0:0:
420,296,181814,2,0,P|395:258|357:236,1,85
444,112,182136,2,0,P|424:152|424:196,1,85
272,184,182459,2,0,P|316:181|354:159,1,85
336,324,182781,1,0,0:0:0:0:
296,100,182943,5,0,0:0:0:0:
204,76,183104,1,0,0:0:0:0:
204,76,183184,1,0,0:0:0:0:
204,76,183265,2,0,L|200:172,1,85
192,332,183588,2,0,L|196:236,1,85
396,188,183910,6,0,L|504:228,2,85
356,104,184394,2,0,L|267:177,2,85
448,112,184878,2,0,L|428:-1,2,85
460,192,185362,1,0,0:0:0:0:
356,24,185523,5,0,0:0:0:0:
324,136,185684,1,0,0:0:0:0:
247,45,185846,2,0,P|188:44|152:56,1,85
88,272,186168,5,0,0:0:0:0:
76,128,186330,1,0,0:0:0:0:
168,368,186491,6,0,P|168:316|188:264,1,85
334,281,186814,1,0,0:0:0:0:
257,314,186975,1,0,0:0:0:0:
176,180,187136,2,0,P|221:206|256:249,1,85
128,96,187459,5,0,0:0:0:0:
76,180,187620,2,0,L|80:268,1,85
316,292,187943,6,0,L|367:282,1,42.5
405,149,188104,2,0,L|353:158,1,42.5
292,172,188265,6,0,L|301:223,1,42.5
426,267,188426,2,0,L|416:215,1,42.5
270,361,188588,6,0,L|325:349,1,42.5
450,77,188749,2,0,L|397:83,1,42.5
230,132,188910,6,0,L|240:173,1,42.5
491,314,189072,6,0,L|316:352,2,170
412,256,189878,1,0,0:0:0:0:
244,292,190039,6,0,L|344:268,1,85
80,336,190362,1,0,0:0:0:0:
162,316,190523,1,0,0:0:0:0:
64,184,190684,6,0,B|72:252|72:252|48:208,1,85
132,96,191007,1,0,0:0:0:0:
180,196,191168,1,0,0:0:0:0:
416,120,191330,6,0,L|228:104,2,170
320,192,192136,1,0,0:0:0:0:
84,88,192297,6,0,P|124:64|180:68,1,85
112,232,192620,2,0,P|123:186|165:149,1,85
48,328,192943,5,0,0:0:0:0:
176,304,193104,1,0,0:0:0:0:
372,352,193265,2,0,L|284:332,1,85
448,196,193588,6,0,B|460:312|460:312|432:264,1,170
151,269,194072,5,0,0:0:0:0:
151,269,194152,1,0,0:0:0:0:
151,269,194233,2,0,L|320:248,2,170
196,184,195039,1,0,0:0:0:0:
201,337,195201,6,0,L|138:252,1,85
19,341,195523,2,0,L|123:329,1,85
107,181,195846,2,0,L|65:277,1,85
48,100,196168,5,0,0:0:0:0:
148,88,196330,1,0,0:0:0:0:
309,105,196491,6,0,P|245:77|129:97,2,170
396,92,197297,1,0,0:0:0:0:
320,256,197459,6,0,B|304:184|304:184|336:208,1,85
380,313,197781,2,0,B|325:362|325:362|330:323,1,85
400,232,198104,2,0,B|470:254|470:254|433:269,1,85
312,268,198426,6,0,P|304:232|308:212,1,42.5
472,140,198588,2,0,P|471:161|464:181,1,42.5
436,320,198749,6,0,P|415:325|394:325,1,42.5
352,136,198910,2,0,P|372:130|393:130,1,42.5
140,181,199072,6,0,P|127:164|119:144,1,42.5
280,35,199233,2,0,P|293:52|301:72,1,42.5
232,280,199394,6,0,P|92:264|48:268,2,170
394,325,200201,1,0,0:0:0:0:
394,325,200362,2,0,L|386:217,1,85
246,101,200684,2,0,L|238:209,1,85
448,50,201007,6,0,P|381:13|286:47,1,170
138,9,201491,1,0,0:0:0:0:
138,9,201652,2,0,P|199:13|225:43,1,85
326,165,201975,6,0,B|207:148|207:148|257:206,1,170
416,172,202459,1,0,0:0:0:0:
416,172,202620,2,0,P|412:128|372:82,1,85
311,268,202943,2,0,L|454:255,1,127.5
471,255,203265,6,0,L|463:346,1,85
289,193,203588,2,0,L|297:284,1,85
206,110,203910,1,0,0:0:0:0:
365,177,204072,1,0,0:0:0:0:
227,281,204233,2,0,P|141:268|74:272,1,127.5
32,206,204555,6,0,B|58:160|58:160|35:22,1,170
149,156,205039,1,0,0:0:0:0:
149,156,205201,2,0,L|167:49,1,85
269,192,205523,5,0,0:0:0:0:
252,22,205684,1,0,0:0:0:0:
269,192,205846,2,0,P|327:143|405:138,1,127.5
444,80,206168,6,0,B|485:180|418:165|460:282,1,170
365,351,206652,1,0,0:0:0:0:
242,276,206814,2,0,L|336:266,1,85
141,321,207136,6,0,L|47:311,1,85
117,137,207459,2,0,P|150:191|147:244,1,85
295,92,207781,2,0,P|264:120|248:159,1,85
242,277,208104,5,0,0:0:0:0:
199,39,208265,1,0,0:0:0:0:
199,39,208588,5,0,0:0:0:0:
152,211,208749,1,0,0:0:0:0:
325,166,208910,1,0,0:0:0:0:
325,166,208991,1,0,0:0:0:0:
325,166,209072,1,0,0:0:0:0:
176,125,209233,1,0,0:0:0:0:
242,277,209394,2,0,P|272:265|310:265,1,50.9999984436036
329,53,209717,6,0,B|394:20|465:70|470:154|424:201|361:208|326:191|305:161|305:161|243:166|208:211|208:211|182:176|138:111|24:109|2:200|54:290|147:243|155:202,1,773.499964591982
223,98,212297,6,0,B|156:68|126:-8|126:-8|158:91|152:211|152:211|90:154|-8:180|-29:282|-8:373|115:373|161:336|165:273,1,773.499964591982
296,168,214878,6,0,B|375:235|386:297|386:382|330:411|272:386|252:321|330:253,1,382.500014591218
475,363,216168,6,0,B|499:304|482:252|439:227|439:227|460:166|460:166|391:131|393:49|436:8,1,382.500014591218
296,168,217459,6,0,P|222:174|155:139,1,127.500004863739
121,96,217943,2,0,L|141:239,1,127.500004863739
21,273,218426,2,0,L|41:130,1,127.500004863739
210,277,218910,1,0,0:0:0:0:
210,277,219072,2,0,P|164:307|82:292,1,127.500004863739
138,222,219555,1,0,0:0:0:0:
228,264,219717,2,0,L|223:333,1,63.7500024318696
410,236,220039,6,0,L|400:96,1,127.500004863739
223,327,220684,2,0,L|233:187,1,127.500004863739
63,171,221330,2,0,L|53:31,1,127.500004863739
219,104,221975,1,0,0:0:0:0:
219,104,222136,1,0,0:0:0:0:
219,104,222297,2,0,L|143:101,1,63.7500024318696
232,199,222620,5,0,0:0:0:0:
316,169,222943,1,0,0:0:0:0:
390,218,223265,2,0,L|380:362,1,127.500004863739
240,326,223910,2,0,L|230:182,1,127.500004863739
68,254,224555,1,0,0:0:0:0:
68,254,224716,1,0,0:0:0:0:
68,254,224877,2,0,L|144:251,1,63.7500024318696
303,161,225201,6,0,P|262:124|171:137,1,127.500004863739
390,218,225846,2,0,P|442:200|476:115,1,127.500004863739
231,198,226491,6,0,L|238:293,1,72.2500013780594
317,135,226814,2,0,L|324:46,1,72.2500013780594
305,209,227136,2,0,L|400:202,1,72.2500013780594
242,123,227459,2,0,L|153:116,1,72.2500013780594
64,228,227781,5,0,0:0:0:0:
64,228,227862,1,0,0:0:0:0:
64,228,227943,1,0,0:0:0:0:
64,228,228023,1,0,0:0:0:0:
64,228,228104,5,0,0:0:0:0:
88,254,228184,1,0,0:0:0:0:
119,272,228265,1,0,0:0:0:0:
155,279,228345,1,0,0:0:0:0:
190,276,228426,1,0,0:0:0:0:
224,263,228507,1,0,0:0:0:0:
252,240,228587,1,0,0:0:0:0:
279,217,228668,1,0,0:0:0:0:
313,203,228749,1,0,0:0:0:0:
349,200,228830,1,0,0:0:0:0:
384,208,228910,1,0,0:0:0:0:
415,226,228991,1,0,0:0:0:0:
440,252,229072,6,0,L|442:192,1,50.9999984436036
350,326,229233,2,0,L|352:386,1,50.9999984436036
384,116,229394,6,0,L|365:58,1,50.9999984436036
239,290,229555,2,0,L|257:347,1,50.9999984436036
280,83,229717,6,0,L|228:74,1,50.9999984436036
171,221,229878,2,0,L|223:212,1,50.9999984436036
155,19,230039,6,0,P|139:54|136:90,1,63.7500024318696
311,220,230201,2,0,P|305:188|291:160,1,63.7500024318696
46,242,230362,6,0,P|126:221|250:316,2,220.999989883423
118,353,231168,1,0,0:0:0:0:
250,178,231330,6,0,P|248:108|212:56,1,110.499994941712
426,141,231652,2,0,P|366:177|339:234,1,110.499994941712
306,8,231975,2,0,P|367:41|430:36,1,110.499994941712
460,236,232297,1,0,0:0:0:0:
331,105,232459,1,0,0:0:0:0:
137,229,232620,2,0,L|243:233,1,85
393,304,232943,6,0,P|381:246|339:207,1,110.499994941712
165,302,233265,2,0,P|221:320|276:303,1,110.499994941712
54,225,233588,2,0,L|65:359,1,110.499994941712
222,233,233910,6,0,L|241:13,1,220.999989883423
134,118,234394,1,0,0:0:0:0:
346,212,234555,2,0,L|333:81,1,110.499994941712
222,233,234878,1,0,0:0:0:0:
453,191,235039,1,0,0:0:0:0:
273,317,235201,2,0,P|154:302|130:304,1,110.499994941712
8,102,235523,6,0,B|60:124|107:96|107:96|155:67|231:102,1,203.999993774414
52,13,236007,1,0,0:0:0:0:
288,138,236168,2,0,P|298:80|277:28,1,101.999996887207
148,181,236491,2,0,P|250:171|303:264,2,203.999993774414
82,279,237297,1,0,0:0:0:0:
232,345,237459,2,0,P|211:303|217:231,1,101.999996887207
383,213,237781,2,0,P|404:255|398:327,1,101.999996887207
267,143,238104,6,0,L|282:10,1,101.999996887207
472,190,238426,2,0,L|457:57,1,101.999996887207
199,210,238749,2,0,P|272:234|322:221,1,101.999996887207
474,335,239072,6,0,B|387:307|332:364|332:364|299:340|262:336,1,203.999993774414
135,364,239555,1,0,0:0:0:0:
199,210,239717,2,0,P|223:283|210:333,1,101.999996887207
61,236,240039,2,0,P|60:185|81:139,1,101.999996887207
169,51,240362,6,0,L|278:60,1,102
338,30,240684,6,0,P|372:135|366:270,2,203.999993774414
477,70,241491,1,0,0:0:0:0:
477,70,241652,2,0,P|457:126|462:190,1,101.999996887207
271,118,241975,2,0,P|290:185|288:243,1,101.999996887207
365,315,242297,6,0,P|285:244|171:281,1,203.999993774414
154,359,242781,1,0,0:0:0:0:
139,168,242943,2,0,P|100:213|93:292,1,101.999996887207
253,144,243265,6,0,P|233:87|168:42,1,101.999996887207
196,259,243588,2,0,B|272:248|272:248|317:268|317:268|406:257,1,203.999993774414
478,184,244072,1,0,0:0:0:0:
404,24,244233,6,0,P|332:77|343:184,2,203.999993774414
394,258,245039,1,0,0:0:0:0:
195,116,245201,2,0,L|210:-5,1,101.999996887207
86,264,245523,2,0,L|101:385,1,101.999996887207
290,344,245846,6,0,P|268:249|245:232,1,101.999996887207
75,164,246168,2,0,P|168:192|194:181,1,101.999996887207
338,67,246491,2,0,P|266:133|263:161,1,101.999996887207
385,266,246814,2,0,B|500:250|500:250|476:300,1,152.999995330811
374,365,247136,6,0,L|294:356,1,50.9999984436036
439,178,247297,2,0,L|519:169,1,50.9999984436036
296,287,247459,6,0,P|300:241|318:209,1,50.9999984436036
338,67,247620,2,0,P|344:91|343:117,1,50.9999984436036
225,121,247781,6,0,P|249:147|284:163,1,50.9999984436036
422,300,247943,2,0,P|398:274|363:258,1,50.9999984436036
177,348,248104,6,0,L|260:338,1,50.9999984436036
141,107,248265,2,0,L|90:100,1,50.9999984436036
74,353,248426,6,0,L|82:249,1,85
231,36,248749,2,0,L|223:140,1,85
212,263,249072,1,0,0:0:0:0:
86,186,249233,1,0,0:0:0:0:
212,263,249394,2,0,L|312:255,1,85
391,309,249717,6,0,P|402:237|333:153,1,170
224,120,250201,1,0,0:0:0:0:
406,57,250362,1,0,0:0:0:0:
274,178,250523,6,0,P|208:152|82:154,1,170
34,255,251007,2,0,P|94:230|118:227,1,85
189,344,251330,2,0,P|129:319|105:316,1,85
296,256,251652,2,0,P|275:323|286:375,1,85
374,189,251975,1,0,0:0:0:0:
199,256,252136,1,0,0:0:0:0:
373,364,252297,6,0,P|453:351|481:356,1,85
293,166,252620,2,0,P|250:165|209:153,1,85
357,74,252943,1,0,0:0:0:0:
388,271,253104,1,0,0:0:0:0:
269,70,253265,2,0,P|293:14|327:-9,1,85
457,153,253588,6,0,B|395:147|395:147|354:169|354:169|288:165,1,170
120,20,254072,1,0,0:0:0:0:
219,219,254233,1,0,0:0:0:0:
269,70,254394,1,0,0:0:0:0:
70,169,254555,2,0,P|139:141|172:141,1,85
264,287,254878,6,0,P|199:227|108:238,1,170
214,369,255362,1,0,0:0:0:0:
214,369,255523,2,0,L|318:361,1,85
387,203,255846,2,0,L|283:195,1,85
477,316,256168,6,0,B|464:206|464:206|493:154,2,170
302,196,256975,1,0,0:0:0:0:
385,304,257136,1,0,0:0:0:0:
362,116,257297,1,0,0:0:0:0:
211,230,257459,6,0,L|204:344,1,85
129,167,257781,2,0,L|120:312,1,127.5
117,322,258104,1,0,0:0:0:0:
43,121,258265,2,0,P|106:73|206:101,1,170
392,140,258749,6,0,L|252:156,1,127.5
176,180,259072,6,0,P|201:217|253:238,1,85
121,113,259394,1,0,0:0:0:0:
139,33,259555,1,0,0:0:0:0:
90,194,259717,2,0,P|55:216|35:253,1,85
212,296,260039,6,0,P|160:276|108:280,1,85
312,340,260362,2,0,P|364:320|416:324,1,85
372,238,260684,6,0,P|392:290|388:342,1,85
308,156,261007,2,0,P|352:136|412:140,1,85
196,72,261330,6,0,P|212:132|192:212,1,127.5
128,280,261652,6,0,P|112:236|108:188,1,85
185,342,261975,1,0,0:0:0:0:
103,362,262136,1,0,0:0:0:0:
211,262,262297,2,0,P|257:270|300:290,1,85
464,296,262620,6,0,P|412:316|384:340,1,85
344,164,262943,2,0,P|364:216|388:244,1,85
382,89,263265,6,0,P|362:141|338:169,1,85
216,52,263588,2,0,P|256:65|290:90,1,85
80,132,263910,6,0,L|228:140,1,127.5
272,192,264233,6,0,L|292:308,1,85
136,248,264555,1,0,0:0:0:0:
121,331,264717,1,0,0:0:0:0:
376,248,264878,2,0,L|396:364,1,85
256,80,265201,5,0,0:0:0:0:
256,168,265416,5,0,0:0:0:0:
256,224,265523,1,0,0:0:0:0:
256,281,265631,1,0,0:0:0:0:
256,338,265738,1,0,0:0:0:0:
172,348,265846,5,0,0:0:0:0:
151,296,265953,1,0,0:0:0:0:
169,243,266061,1,0,0:0:0:0:
342,243,266168,5,0,0:0:0:0:
360,296,266276,1,0,0:0:0:0:
340,348,266383,1,0,0:0:0:0:
256,216,266491,6,0,B|240:136|188:124|188:124|152:168|72:156|72:156|-12:144|-64:212|-24:280|56:304|112:240|72:156|72:156|88:52|188:28|188:28|280:52|312:128|312:128|352:116|352:116|388:56|452:56|452:56|424:120|432:172|432:172|452:164|488:164|488:164|508:212|484:256,1,1360
