osu file format v14

[General]
AudioFilename: audio.mp3
AudioLeadIn: 0
PreviewTime: 85661
Countdown: 0
SampleSet: Normal
StackLeniency: 0.7
Mode: 1
LetterboxInBreaks: 0
WidescreenStoryboard: 1

[Editor]
Bookmarks: 40,2634,13012,23391,33769,41553,44148,54526,64904,75283,83067,85661,106418,127175,147931,166094,168688
DistanceSpacing: 0.1
BeatDivisor: 2
GridSize: 32
TimelineZoom: 1.599999

[Metadata]
Title:Fall For The Team
TitleUnicode:Fall For The Team
Artist:Jukio Kallio & Daniel Hagstrom
ArtistUnicode:Jukio Kallio & Daniel Hagström
Creator:Fynbi
Version:Kantan!
Source:Fall Guys
Tags:woosungko ultimate knockout mediatonic ost original soundtrack sound track bgm vgm background video game music electronic instrumental
BeatmapID:2692935
BeatmapSetID:1261433

[Difficulty]
HPDrainRate:8
CircleSize:3
OverallDifficulty:3
ApproachRate:8
SliderMultiplier:1.4
SliderTickRate:1

[Events]
//Background and Video events
0,0,"fall guys.png",0,-20
//Break Periods
//Storyboard Layer 0 (Background)
//Storyboard Layer 1 (Fail)
//Storyboard Layer 2 (Pass)
//Storyboard Layer 3 (Foreground)
//Storyboard Layer 4 (Overlay)
//Storyboard Sound Samples

[TimingPoints]
-2554,324.324324324324,4,1,0,85,1,0
40,-100,4,1,0,85,0,1
2635,-100,4,1,0,85,0,0
2796,-100,4,1,0,65,0,0
12202,-100,4,1,0,75,0,0
13175,-100,4,1,0,65,0,0
23229,-100,4,1,0,45,0,0
33607,-100,4,1,0,50,0,0
41391,-100,4,1,0,85,0,0
41554,-100,4,1,0,85,0,1
44148,-100,4,1,0,85,0,0
44310,-100,4,1,0,65,0,0
53715,-100,4,1,0,75,0,0
54688,-100,4,1,0,65,0,0
64742,-100,4,1,0,55,0,0
75121,-100,4,1,0,60,0,0
82904,-100,4,1,0,80,0,0
83067,-100,4,1,0,80,0,1
85662,-100,4,1,0,80,0,0
85823,-100,4,1,0,55,0,0
106256,-100,4,1,0,60,0,0
124418,-100,4,1,0,50,0,0
127012,-100,4,1,0,55,0,0
146634,-100,4,1,0,50,0,0
147769,-100,4,1,0,60,0,0
165931,-100,4,1,0,85,0,0
166094,-100,4,1,0,85,0,1
168689,-100,4,1,0,85,0,0
168850,-100,4,1,0,65,0,0

[HitObjects]
248,194,40,5,12,0:0:0:0:
141,232,527,5,12,0:0:0:0:
250,186,1013,5,4,0:0:0:0:
141,232,1500,5,4,0:0:0:0:
250,186,1986,5,12,0:0:0:0:
139,231,2310,5,12,0:0:0:0:
250,187,2635,5,4,0:0:0:0:
252,207,3283,5,8,0:0:0:0:
156,223,4256,5,0,0:0:0:0:
244,206,4581,5,8,0:0:0:0:
244,206,5229,5,0,0:0:0:0:
244,206,5878,5,8,0:0:0:0:
262,225,7175,5,8,0:0:0:0:
275,203,7500,5,8,0:0:0:0:
262,225,7824,5,0,0:0:0:0:
263,236,8473,5,8,0:0:0:0:
268,239,9445,5,0,0:0:0:0:
268,239,9770,5,8,0:0:0:0:
261,227,10418,5,0,0:0:0:0:
261,227,11067,5,8,0:0:0:0:
256,227,12040,5,0,0:0:0:0:
256,227,12364,5,12,0:0:0:0:
250,187,13013,5,12,0:0:0:0:
244,206,13662,5,8,0:0:0:0:
244,206,14635,5,0,0:0:0:0:
244,206,14959,5,8,0:0:0:0:
244,206,15608,5,0,0:0:0:0:
257,195,15932,5,8,0:0:0:0:
244,206,16256,5,8,0:0:0:0:
244,216,17229,5,0,0:0:0:0:
262,225,17554,5,8,0:0:0:0:
262,225,17878,5,8,0:0:0:0:
262,225,18202,5,0,0:0:0:0:
263,236,18851,5,8,0:0:0:0:
268,239,19824,5,0,0:0:0:0:
268,239,20148,5,8,0:0:0:0:
261,227,20797,5,0,0:0:0:0:
261,227,21121,5,8,0:0:0:0:
261,227,21445,5,8,0:0:0:0:
224,187,22418,5,0,0:0:0:0:
262,239,22743,5,8,0:0:0:0:
256,227,23391,5,0,0:0:0:0:
255,208,24202,5,8,0:0:0:0:
250,227,24689,5,0,0:0:0:0:
250,227,25500,5,8,0:0:0:0:
255,216,25986,5,0,0:0:0:0:
231,219,27283,5,0,0:0:0:0:
258,231,28581,5,8,0:0:0:0:
274,220,29391,5,8,0:0:0:0:
285,225,29878,5,0,0:0:0:0:
293,231,30689,5,8,0:0:0:0:
255,223,31175,5,0,0:0:0:0:
247,224,32473,5,0,0:0:0:0:
256,227,33770,5,0,0:0:0:0:
250,227,34581,5,8,0:0:0:0:
250,227,35067,5,0,0:0:0:0:
250,227,35878,5,8,0:0:0:0:
250,227,36364,5,0,0:0:0:0:
250,227,37013,5,8,0:0:0:0:
258,219,38635,5,8,0:0:0:0:
258,231,38959,5,8,0:0:0:0:
274,220,39770,5,8,0:0:0:0:
285,225,40256,5,0,0:0:0:0:
293,231,40905,5,8,0:0:0:0:
248,194,41554,5,12,0:0:0:0:
145,193,42040,5,12,0:0:0:0:
250,186,42527,5,4,0:0:0:0:
145,193,43013,5,4,0:0:0:0:
250,186,43500,5,12,0:0:0:0:
145,193,43824,5,12,0:0:0:0:
251,183,44148,5,4,0:0:0:0:
244,206,44797,5,8,0:0:0:0:
244,206,45770,5,0,0:0:0:0:
244,206,46094,5,8,0:0:0:0:
244,206,46743,5,0,0:0:0:0:
257,195,47067,5,8,0:0:0:0:
244,206,47391,5,8,0:0:0:0:
244,216,48364,5,0,0:0:0:0:
262,225,48689,5,8,0:0:0:0:
262,225,49013,5,8,0:0:0:0:
262,225,49337,5,0,0:0:0:0:
263,236,49986,5,8,0:0:0:0:
268,239,50959,5,0,0:0:0:0:
268,239,51283,5,8,0:0:0:0:
261,227,51932,5,0,0:0:0:0:
261,227,52256,5,8,0:0:0:0:
261,227,52581,5,8,0:0:0:0:
246,209,53554,5,0,0:0:0:0:
262,239,53878,5,12,0:0:0:0:
250,240,54527,5,12,0:0:0:0:
244,206,55175,5,8,0:0:0:0:
244,206,56148,5,0,0:0:0:0:
244,206,56473,5,8,0:0:0:0:
251,206,56797,5,0,0:0:0:0:
244,206,57121,5,0,0:0:0:0:
244,206,57770,5,8,0:0:0:0:
248,202,58256,5,8,0:0:0:0:
244,216,58743,5,0,0:0:0:0:
262,225,59067,5,8,0:0:0:0:
262,225,59391,5,8,0:0:0:0:
262,225,59716,5,0,0:0:0:0:
263,236,60364,5,8,0:0:0:0:
261,233,61337,5,0,0:0:0:0:
268,239,61662,5,8,0:0:0:0:
261,227,61986,5,0,0:0:0:0:
261,227,62310,5,0,0:0:0:0:
261,227,62959,5,8,0:0:0:0:
261,227,63445,5,8,0:0:0:0:
256,227,64905,5,0,0:0:0:0:
264,223,65554,5,8,0:0:0:0:
264,223,66851,5,8,0:0:0:0:
264,223,67500,5,0,0:0:0:0:
250,209,67824,5,0,0:0:0:0:
251,227,68148,5,8,0:0:0:0:
249,227,68635,5,8,0:0:0:0:
249,227,69445,5,8,0:0:0:0:
256,195,70094,5,0,0:0:0:0:
220,196,70743,5,8,0:0:0:0:
220,196,72040,5,8,0:0:0:0:
218,197,72689,5,0,0:0:0:0:
217,185,73013,5,0,0:0:0:0:
213,196,73337,5,8,0:0:0:0:
217,196,73824,5,8,0:0:0:0:
244,193,74310,5,0,0:0:0:0:
241,185,74635,5,8,0:0:0:0:
238,220,75283,5,0,0:0:0:0:
262,223,75608,5,0,0:0:0:0:
264,223,75932,5,8,0:0:0:0:
247,198,76905,5,0,0:0:0:0:
264,223,77229,5,8,0:0:0:0:
264,223,77878,5,0,0:0:0:0:
251,227,78202,5,0,0:0:0:0:
251,227,78527,5,8,0:0:0:0:
251,227,79013,5,8,0:0:0:0:
249,227,79500,5,0,0:0:0:0:
249,227,79824,5,8,0:0:0:0:
221,230,80148,5,8,0:0:0:0:
256,195,80473,5,0,0:0:0:0:
253,201,80797,5,0,0:0:0:0:
220,196,81121,5,8,0:0:0:0:
220,196,82094,5,0,0:0:0:0:
220,196,82418,5,8,0:0:0:0:
248,194,83067,5,12,0:0:0:0:
110,170,83554,5,12,0:0:0:0:
250,186,84040,5,4,0:0:0:0:
131,185,84527,5,4,0:0:0:0:
250,186,85013,5,12,0:0:0:0:
132,185,85337,5,12,0:0:0:0:
250,187,85662,5,4,0:0:0:0:
241,199,86310,5,8,0:0:0:0:
266,205,86797,5,0,0:0:0:0:
262,215,88256,5,0,0:0:0:0:
251,214,88905,5,8,0:0:0:0:
262,215,89391,5,8,0:0:0:0:
270,219,90851,5,4,0:0:0:0:
251,214,91500,5,8,0:0:0:0:
266,205,91986,5,0,0:0:0:0:
262,215,93445,5,0,0:0:0:0:
271,210,94094,5,8,0:0:0:0:
262,215,94581,5,8,0:0:0:0:
250,187,96040,5,4,0:0:0:0:
252,205,96689,5,8,0:0:0:0:
266,205,97175,5,0,0:0:0:0:
262,215,98635,5,0,0:0:0:0:
268,201,99283,5,8,0:0:0:0:
262,215,99770,5,8,0:0:0:0:
270,219,101229,5,4,0:0:0:0:
266,205,101878,5,8,0:0:0:0:
266,205,102364,5,0,0:0:0:0:
262,215,103824,5,0,0:0:0:0:
267,221,104473,5,8,0:0:0:0:
262,215,104959,5,8,0:0:0:0:
250,187,106418,5,4,0:0:0:0:
255,196,107067,5,8,0:0:0:0:
266,205,107554,5,0,0:0:0:0:
262,202,108364,5,8,0:0:0:0:
262,215,109013,5,0,0:0:0:0:
262,215,109662,5,8,0:0:0:0:
262,215,110148,5,8,0:0:0:0:
246,217,110959,5,8,0:0:0:0:
270,219,111608,5,4,0:0:0:0:
255,196,112256,5,8,0:0:0:0:
266,205,112743,5,0,0:0:0:0:
261,204,113554,5,8,0:0:0:0:
262,215,114202,5,0,0:0:0:0:
262,215,114851,5,8,0:0:0:0:
262,215,115337,5,8,0:0:0:0:
271,221,116148,5,8,0:0:0:0:
270,219,116797,5,4,0:0:0:0:
255,196,117445,5,8,0:0:0:0:
266,205,117932,5,0,0:0:0:0:
252,210,118743,5,8,0:0:0:0:
262,215,119391,5,0,0:0:0:0:
262,215,120040,5,8,0:0:0:0:
262,215,120527,5,8,0:0:0:0:
256,201,121337,5,8,0:0:0:0:
270,219,121986,5,4,0:0:0:0:
255,196,122635,5,8,0:0:0:0:
266,205,123121,5,0,0:0:0:0:
252,210,123932,5,8,0:0:0:0:
244,222,124581,5,0,0:0:0:0:
256,229,127175,5,4,0:0:0:0:
254,231,127824,5,8,0:0:0:0:
254,231,128310,5,0,0:0:0:0:
252,231,129770,5,0,0:0:0:0:
252,231,130418,5,8,0:0:0:0:
252,231,130905,5,8,0:0:0:0:
237,222,132364,5,0,0:0:0:0:
232,220,133013,5,8,0:0:0:0:
232,220,133500,5,0,0:0:0:0:
225,218,134959,5,0,0:0:0:0:
225,218,135608,5,8,0:0:0:0:
237,208,136094,5,0,0:0:0:0:
255,193,136905,5,8,0:0:0:0:
226,204,137554,5,0,0:0:0:0:
254,231,138202,5,8,0:0:0:0:
254,231,138689,5,0,0:0:0:0:
252,231,140148,5,0,0:0:0:0:
252,231,140797,5,8,0:0:0:0:
252,231,141283,5,8,0:0:0:0:
237,222,142743,5,0,0:0:0:0:
232,220,143391,5,8,0:0:0:0:
232,220,143878,5,0,0:0:0:0:
225,218,145337,5,0,0:0:0:0:
225,218,145986,5,8,0:0:0:0:
219,213,146473,5,0,0:0:0:0:
241,201,147283,5,8,0:0:0:0:
226,204,147932,5,4,0:0:0:0:
254,231,148581,5,8,0:0:0:0:
254,231,149067,5,0,0:0:0:0:
244,214,149878,5,8,0:0:0:0:
252,231,150527,5,0,0:0:0:0:
252,231,151175,5,8,0:0:0:0:
252,231,151662,5,8,0:0:0:0:
243,228,152473,5,8,0:0:0:0:
237,222,153121,5,0,0:0:0:0:
232,220,153770,5,8,0:0:0:0:
232,220,154256,5,0,0:0:0:0:
244,214,155067,5,8,0:0:0:0:
225,218,155716,5,0,0:0:0:0:
225,218,156364,5,8,0:0:0:0:
237,208,156851,5,0,0:0:0:0:
232,208,157662,5,8,0:0:0:0:
226,204,158310,5,0,0:0:0:0:
254,231,158959,5,8,0:0:0:0:
254,231,159445,5,0,0:0:0:0:
232,219,160256,5,8,0:0:0:0:
252,231,160905,5,0,0:0:0:0:
252,231,161554,5,8,0:0:0:0:
252,231,162040,5,8,0:0:0:0:
243,228,162851,5,8,0:0:0:0:
237,222,163500,5,0,0:0:0:0:
165,228,163824,5,0,0:0:0:0:
245,216,164148,5,8,0:0:0:0:
260,229,164797,5,8,0:0:0:0:
239,212,165121,5,8,0:0:0:0:
243,223,165445,5,0,0:0:0:0:
248,194,166094,5,12,0:0:0:0:
90,198,166581,5,12,0:0:0:0:
250,186,167067,5,4,0:0:0:0:
119,207,167554,5,4,0:0:0:0:
250,186,168040,5,12,0:0:0:0:
120,207,168364,5,12,0:0:0:0:
250,187,168689,5,4,0:0:0:0:
