osu file format v14

[General]
AudioFilename: audio.mp3
AudioLeadIn: 0
PreviewTime: 185581
Countdown: 0
SampleSet: Soft
StackLeniency: 0.7
Mode: 0
LetterboxInBreaks: 0
WidescreenStoryboard: 1

[Editor]
DistanceSpacing: 1.8
BeatDivisor: 4
GridSize: 32
TimelineZoom: 1

[Metadata]
Title:Come & Go (with Marshmello)
TitleUnicode:Come & Go (with Marshmello)
Artist:Juice WRLD/Marshmello
ArtistUnicode:Juice WRLD/Marshmello
Creator:-Brownmuffins-
Version:Normal
Source:
Tags:legends never die world english rap hip hop hip-hop rock pop 999
BeatmapID:4481299
BeatmapSetID:2108444

[Difficulty]
HPDrainRate:5
CircleSize:3
OverallDifficulty:4
ApproachRate:5
SliderMultiplier:1.4
SliderTickRate:1

[Events]
//Background and Video events
0,0,"BG.png",0,0
//Break Periods
2,132705,144649
//Storyboard Layer 0 (Background)
//Storyboard Layer 1 (Fail)
//Storyboard Layer 2 (Pass)
//Storyboard Layer 3 (Foreground)
//Storyboard Layer 4 (Overlay)
//Storyboard Sound Samples

[TimingPoints]
198,413.793103448276,4,2,0,20,1,0
198,-153.846153846153,4,2,0,20,0,0
7232,-153.846153846153,4,2,0,20,0,0
39922,413.793103448276,4,2,0,20,1,0
39922,-66.6666666666667,4,2,0,20,0,0
53160,413.793103448276,4,2,0,50,1,0
66409,-66.6666666666667,4,2,0,50,0,0
76332,-100,4,2,0,50,0,0
76539,-66.6666666666667,4,2,0,50,0,0
76746,-100,4,2,0,50,0,0
76953,-66.6666666666667,4,2,0,50,0,0
77160,-100,4,1,0,100,0,0
77366,-66.6666666666667,4,2,0,50,0,0
77573,-100,4,2,0,50,0,0
77987,-66.6666666666667,4,2,0,50,0,0
78815,-100,4,2,0,52,0,0
79022,-66.6666666666667,4,2,0,50,0,0
79228,-66.6666666666667,4,2,0,50,0,0
79435,-100,4,2,0,50,0,0
79642,-66.6666666666667,4,2,0,50,0,1
106125,-100,4,2,0,30,0,0
109435,-66.6666666666667,4,2,0,30,0,0
132608,-100,4,2,0,50,0,0
145849,-100,4,2,0,32,0,0
152470,-66.6666666666667,4,2,0,30,0,0
155780,-66.6666666666667,4,2,0,50,0,0
155987,-100,4,2,0,52,0,0
156194,-66.6666666666667,4,2,0,50,0,0
156401,-100,4,2,0,50,0,0
156608,-66.6666666666667,4,2,0,51,0,0
156815,-100,4,2,0,50,0,0
157022,-66.6666666666667,4,2,0,51,0,0
157228,-100,4,2,0,50,0,0
157435,-66.6666666666667,4,2,0,50,0,0
157642,-100,4,2,0,50,0,0
157849,-66.6666666666667,4,2,0,51,0,0
159091,-100,4,2,0,50,0,0
169022,-66.6666666666667,4,1,0,100,0,0
169228,-100,4,1,0,100,0,0
169435,-66.6666666666667,4,1,0,100,0,0
169642,-100,4,1,0,100,0,0
169849,-66.6666666666667,4,1,0,100,0,0
170056,-100,4,1,0,100,0,0
170263,-66.6666666666667,4,1,0,100,0,0
170470,-100,4,2,0,50,0,0
170677,-100,4,1,0,100,0,0
172332,-66.6666666666667,4,3,0,61,0,1
198815,-66.6666666666667,4,3,0,61,0,0

[HitObjects]
126,191,198,6,0,B|150:162|185:141|230:128|270:124|308:129,1,181.999991668702
301,293,1853,2,0,B|264:281|241:261|221:231|217:220|214:188|211:149,1,181.999991668702
253,112,3508,2,0,B|256:128|254:152|255:184|262:206|276:227|294:239|312:239|328:227|335:205,1,181.999991668702
74,223,6818,1,0,0:0:0:0:
251,269,8473,6,0,P|221:241|195:102,1,181.999991668702
383,111,10129,2,0,B|434:116|468:127|501:154|504:222,1,181.999991668702
369,332,11784,2,0,B|343:337|316:333|298:327|264:339,1,90.9999958343508
273,246,13439,2,0,P|308:225|453:41,1,272.999987503052
166,31,15094,2,0,P|127:36|35:142,1,181.999991668702
235,294,16749,2,0,P|288:317|416:309,1,181.999991668702
394,351,17991,6,0,P|305:359|289:361,1,90.9999958343508
122,217,20060,2,0,P|149:158|168:117,1,90.9999958343508
214,32,21094,6,0,L|277:32,1,45.4999979171754
310,98,21715,2,0,P|318:157|328:280,1,181.999991668702
58,298,23370,2,0,P|122:298|169:296,1,90.9999958343508
197,213,24198,2,0,L|161:126,1,90.9999958343508
151,67,25025,2,0,P|187:63|305:144,1,181.999991668702
305,198,26060,1,0,0:0:0:0:
305,255,26266,6,0,L|369:268,1,45.4999979171754
490,246,26680,6,0,P|479:201|479:149,1,90.9999958343508
478,61,27301,2,0,P|439:39|418:40,1,45.4999979171754
282,81,27922,6,0,L|283:143,1,45.4999979171754
288,192,28335,6,0,L|289:295,1,90.9999958343508
338,338,29163,2,0,P|271:341|250:326,1,90.9999958343508
220,285,29991,6,0,L|218:220,1,45.4999979171754
216,212,30404,2,0,L|215:103,1,90.9999958343508
55,290,31232,2,0,P|57:334|104:356,1,90.9999958343508
209,355,32680,2,0,L|271:338,1,45.4999979171754
300,286,33094,2,0,L|291:224,1,45.4999979171754
364,148,33715,2,0,P|376:106|420:75,1,90.9999958343508
477,77,34542,1,0,0:0:0:0:
477,77,34956,2,0,P|469:122|429:153,1,90.9999958343508
114,155,36198,6,0,L|45:156,1,68.2499968757631
45,93,36611,2,0,B|83:62|119:61|141:80,1,90.9999958343508
188,153,37439,2,0,P|186:194|157:249,1,90.9999958343508
88,288,38266,2,0,L|33:366,1,90.9999958343508
254,354,39301,2,0,L|205:261,1,90.9999958343508
277,246,39922,6,0,L|340:337,1,105.000004005432
380,338,40335,2,0,P|423:319|437:259,1,105.000004005432
370,180,40749,2,0,B|320:167|239:163|174:241,1,210.000008010865
180,286,41370,6,0,B|181:351|209:364|242:365|294:358|333:316,1,210.000008010865
368,286,41990,2,0,P|473:216|464:118,1,210.000008010865
466,77,42611,2,0,P|438:22|389:23,1,105.000004005432
309,56,43025,2,0,P|279:98|278:150,1,105.000004005432
279,218,43439,6,0,L|281:328,1,105.000004005432
222,353,44059,2,0,L|148:135,1,210.000008010865
35,225,44680,2,0,B|96:230|152:243|246:265,1,210.000008010865
256,224,45301,6,0,B|214:153|170:142|103:155|62:186,1,210.000008010865
96,288,46128,2,0,P|173:305|221:302,1,105.000004005432
224,288,46542,6,0,L|161:379,1,105.000004005432
85,358,46956,2,0,L|63:240,1,105.000004005432
64,224,47369,2,0,B|114:211|195:207|260:285,1,210.000008010865
329,315,48197,2,0,P|386:288|395:222,1,105.000004005432
340,212,48610,2,0,P|219:215|156:159,1,210.000008010865
160,64,49853,6,0,B|238:39|284:41|331:52|359:75|374:96,1,210.000008010865
368,144,50679,6,0,P|369:218|369:254,1,105.000004005432
373,301,51094,2,0,L|283:356,1,105.000004005432
244,367,51508,2,0,B|183:373|126:358|103:368,1,105.000004005432
92,356,51922,2,0,L|71:240,1,105.000004005432
190,205,52335,2,0,P|272:194|306:204,1,105.000004005432
373,220,52749,6,0,P|388:272|357:315,1,105.000004005432
281,315,53160,6,0,P|215:334|131:332,1,140
96,256,54194,2,0,B|100:208|121:169|125:169,1,70
160,160,54608,6,0,L|195:375,1,210
352,320,55849,2,0,P|388:300|417:258,1,70
352,192,56470,6,0,L|205:217,1,140
192,192,57297,2,0,P|195:140|213:133,1,70
256,96,57918,2,0,B|292:96|327:99|357:113|379:129|420:209,1,210
403,245,58746,1,0,0:0:0:0:
403,245,59160,6,0,P|361:266|309:274,1,70
320,352,59780,6,0,P|386:371|470:369,1,140
428,122,60814,2,0,B|424:74|403:35|399:35,1,70
351,41,61228,6,0,L|316:256,1,210
277,345,62056,2,0,P|237:337|181:332,1,70
121,302,62469,2,0,P|85:282|56:240,1,70
189,146,63090,6,0,L|336:171,1,140
512,160,63917,2,0,P|509:108|491:101,1,70
416,32,64332,2,0,L|320:32,1,70
288,32,64746,2,0,B|274:31|274:31|210:31|160:96,1,140
109,245,65780,6,0,P|151:266|203:274,1,70
253,216,66401,6,0,P|252:151|251:122,1,70
349,69,66815,2,0,B|406:70|440:89|450:115,1,105.000004005432
464,178,67228,2,0,L|467:291,1,105.000004005432
408,356,67642,6,0,P|386:304|320:52,1,315.000012016297
141,284,68470,2,0,P|154:346|225:372,1,105.000004005432
234,312,68884,2,0,P|224:229|243:192,1,105.000004005432
243,133,69297,6,0,P|164:131|140:152,1,105.000004005432
27,200,69711,2,0,B|24:143|35:110|55:76|85:53|144:40,1,210.000008010865
265,40,70539,2,0,L|358:124,1,105.000004005432
377,242,71160,2,0,B|368:304|335:324|287:333|248:297|260:111,1,315.000012016297
381,37,72194,6,0,P|480:90|489:186,1,210.000008010865
291,324,73022,6,0,P|181:354|80:305,1,210.000008010865
35,233,74056,2,0,B|39:185|60:146|93:115,1,105.000004005432
161,41,74677,6,0,L|196:256,1,210
391,300,75504,2,0,P|427:280|434:94,1,210.000008010865
256,192,76332,12,0,77573,0:0:0:0:
191,256,77987,6,0,P|141:294|77:259,1,105.000004005432
52,138,78401,2,0,P|68:54|106:43,1,105.000004005432
256,128,78815,2,0,B|221:128|189:143|174:164,1,70
254,265,79642,2,0,B|319:250|348:228|360:219|377:102,1,210.000008010865
434,50,80470,2,8,P|463:93|480:157,1,105.000004005432
384,192,81091,2,0,P|384:128|347:100,1,105.000004005432
257,61,81711,2,0,P|263:118|242:169,1,105.000004005432
190,182,82125,2,0,L|110:264,1,105.000004005432
60,300,82539,2,0,P|92:349|219:283,1,210.000008010865
250,273,83160,2,0,P|321:247|364:194,1,105.000004005432
448,136,83780,2,0,B|449:212|446:245|442:279|422:308|380:330,1,210.000008010865
334,346,84401,6,0,B|272:328|291:286|318:261|327:230|321:200|313:158,1,210.000008010865
275,126,85022,6,0,B|190:102|168:54|145:30|110:15|72:19,1,210.000008010865
64,160,85642,2,0,L|63:376,1,210.000008010865
192,256,86263,2,0,B|127:241|98:219|55:168|48:120,1,210.000008010865
44,68,87091,2,0,P|15:111|-2:175,1,105.000004005432
96,224,87712,2,0,P|96:160|128:96,1,105.000004005432
221,79,88332,2,0,P|215:136|236:187,1,105.000004005432
279,229,88746,2,0,B|358:237|406:240|454:265|473:301|472:307,1,210.000008010865
414,363,89366,2,0,L|302:334,1,105.000004005432
240,278,89781,2,0,P|169:252|126:199,1,105.000004005432
30,154,90401,2,0,B|29:230|32:263|36:297|56:326|98:348,1,210.000008010865
133,351,91022,6,0,B|160:284|159:198|163:202|159:139,1,210.000008010865
156,124,91643,6,0,B|219:95|241:47|264:23|303:19|345:50,1,210.000008010865
416,96,92263,6,0,P|448:160|416:192,1,105.000004005432
318,256,92884,6,0,B|227:338|219:288|234:231|229:202|159:172,1,210.000008010865
64,128,93711,2,0,L|143:196,1,105.000004005432
208,160,94125,2,0,B|239:112|263:98|288:96,1,105.000004005432
418,38,94539,2,0,P|415:98|396:157,1,105.000004005432
304,149,94953,6,0,B|326:77|361:68|393:73|437:95|467:136,1,210.000008010865
487,205,95780,2,0,L|355:215,1,105.000004005432
65,153,96194,6,0,P|79:84|90:23,1,105.000004005432
16,28,96608,2,0,L|16:149,1,105.000004005432
108,235,97022,2,0,B|38:223|21:247|14:292|42:343|113:342,1,210.000008010865
160,351,97642,6,0,B|229:333|258:313|296:265|381:128,1,315.000012016297
375,87,98677,2,0,B|280:29|261:47|262:90,1,105.000004005432
192,160,99091,2,0,B|160:224|192:256|230:278,1,105.000004005432
289,282,99504,2,0,B|361:225|366:191|333:122|276:89,1,210.000008010865
186,69,100331,2,0,L|107:138,1,105.000004005432
78,231,100745,2,0,B|102:233|126:247|181:258,1,105.000004005432
273,255,101159,2,0,P|282:195|334:192,1,105.000004005432
209,121,101573,6,0,B|187:49|152:40|120:45|76:67|46:108,1,210.000008010865
26,177,102400,2,0,L|158:187,1,105.000004005432
301,118,102814,6,0,P|300:50|289:-11,1,105.000004005432
399,12,103228,2,0,L|399:133,1,105.000004005432
405,207,103642,2,0,B|475:195|492:219|499:264|471:315|400:314,1,210.000008010865
271,309,104469,6,0,B|202:291|173:271|135:223|119:169,1,210.000008010865
146,94,105297,2,0,B|227:100|246:118|284:129,1,105.000004005432
298,169,105711,2,0,L|315:279,1,105.000004005432
64,192,109435,6,0,B|63:132|74:87|153:64|245:73,1,210.000008010865
418,96,110263,2,0,P|420:157|425:328,1,210.000008010865
230,238,110884,2,0,P|191:193|305:99,1,210.000008010865
452,173,111504,6,0,B|396:203|290:229|244:274,1,210.000008010865
206,270,112125,2,0,P|205:209|348:217,1,210.000008010865
447,188,112746,6,0,B|448:128|437:83|358:60|310:53,1,210.000008010865
94,96,113574,2,0,P|92:157|91:205,1,105.000004005432
282,238,114195,2,0,P|321:193|207:99,1,210.000008010865
207,180,114815,6,0,B|263:210|369:236|415:281,1,210.000008010865
511,285,115643,2,0,P|512:224|494:182,1,105.000004005432
159,125,116056,6,0,P|213:81|253:93,1,105.000004005432
365,250,116470,2,0,P|323:298|276:320,1,105.000004005432
160,288,116884,2,0,L|162:183,1,105.000004005432
127,106,117297,6,0,B|73:115|42:132|32:165|22:200|21:197,1,105.000004005432
37,229,117711,2,0,B|61:286|92:280|142:267,1,105.000004005432
256,96,118125,2,0,P|257:163|320:192,1,105.000004005432
426,243,118539,2,0,B|363:232|324:241|306:253|249:333,1,210.000008010865
65,188,119366,6,0,B|64:128|75:83|154:60|202:53,1,210.000008010865
418,96,120194,2,0,P|420:157|421:205,1,105.000004005432
230,238,120815,2,0,P|191:193|305:99,1,210.000008010865
452,173,121435,6,0,B|396:203|290:229|244:274,1,210.000008010865
1,285,122263,2,0,P|0:224|18:182,1,105.000004005432
130,61,122677,6,0,P|223:53|343:89,1,210.000008010865
320,160,123297,2,0,P|247:160|195:173,1,105.000004005432
96,256,123918,6,0,B|144:313|188:333|259:341|301:336,1,210.000008010865
480,258,124539,2,0,B|480:191|465:145|462:139,1,105.000004005432
362,62,125160,2,0,P|308:74|274:109,1,105.000004005432
235,273,125573,6,0,B|183:297|150:294|104:284,1,105.000004005432
98,212,125987,6,0,B|97:152|108:107|187:84|228:77,1,210.000008010865
395,214,126815,2,0,P|399:276|398:324,1,105.000004005432
282,238,127436,2,0,P|321:193|207:99,1,210.000008010865
60,173,128056,6,0,B|116:203|222:229|268:274,1,210.000008010865
416,224,128884,2,0,P|416:160|399:121,1,105.000004005432
352,96,129298,6,0,P|259:88|238:95,1,105.000004005432
192,160,129918,2,0,P|265:160|317:173,1,105.000004005432
384,224,130539,6,0,B|336:281|292:301|221:309|179:304,1,210.000008010865
33,257,131160,2,0,B|33:190|48:144|146:81,1,210.000008010865
212,79,131781,2,0,P|266:91|435:346,1,367.500014019013
254,190,145849,6,0,P|255:125|254:101,1,70
224,64,146263,2,0,B|167:65|133:84|135:96,1,70
128,128,146677,2,0,L|125:214,1,70
192,224,147090,6,0,P|214:172|223:151,1,70
288,128,147504,2,0,P|348:139|374:168,1,70
352,192,147918,2,0,P|339:254|324:271,1,70
278,311,148332,2,0,P|282:259|274:222,1,70
280,180,148745,6,0,P|323:169|363:193,1,70
484,199,149159,2,0,B|487:142|476:109|469:94|453:68|432:54,1,140
213,43,149987,2,0,L|162:126,1,70
136,241,150608,2,0,B|145:303|178:323|226:332|265:296|255:212,1,210
192,128,151435,6,0,P|147:136|106:235,1,140
222,326,152470,6,0,P|332:356|411:308,1,210.000008010865
477,233,153504,2,0,B|473:185|452:146|419:115,1,105.000004005432
291,3,153918,6,0,L|256:218,1,210
255,278,154539,2,0,L|395:273,1,105.000004005432
121,302,154953,2,0,P|85:282|83:116,1,210.000008010865
256,192,155780,12,0,157435,0:0:0:0:
267,117,158263,6,0,B|302:117|334:132|384:288,1,210.000008010865
257,264,159090,2,0,B|192:249|163:227|120:176|97:131,1,210.000008010865
148,55,159918,6,0,B|211:67|256:95|280:146|289:176|278:195|269:205,1,210
144,213,160746,2,0,B|97:210|83:170|91:88,1,140
150,98,161366,6,0,B|92:119|80:181|70:244|66:268|63:286,1,210
68,356,162401,2,0,B|113:356|169:350|217:357,1,140
263,314,163228,6,0,B|298:256|324:153|349:87,1,210
486,106,164056,6,0,L|433:243,1,140
324,273,164677,2,0,B|312:241|317:186|335:142|359:133|400:150|432:176|443:193,1,210
415,218,165711,2,0,P|364:188|282:157,1,140
223,133,166539,6,0,B|145:93|101:103|67:135,1,140
62,193,167366,2,0,B|65:264|65:308|81:341,1,140
167,342,168194,6,0,B|213:321|244:289|256:259|250:155,1,210
256,192,169022,12,0,170470,0:0:0:0:
399,48,170677,6,0,P|452:41|464:126,1,140
224,188,172332,6,0,L|114:158,1,105.000004005432
224,96,173160,2,0,P|278:139|306:189,1,105.000004005432
187,319,173780,2,0,P|199:256|233:220,1,105.000004005432
345,131,174401,2,0,P|355:221|359:251,1,105.000004005432
255,353,174815,6,0,P|154:354|123:342,1,105.000004005432
97,127,175642,2,0,B|24:181|36:215|57:266|87:312,1,210.000008010865
152,127,177091,2,0,P|87:123|50:90,1,105.000004005432
103,25,177504,6,0,P|166:25|218:35,1,105.000004005432
416,160,178125,2,0,P|352:160|320:192,1,105.000004005432
288,224,178539,6,0,P|288:288|350:289,1,105.000004005432
362,304,178953,6,0,L|450:244,1,105.000004005432
363,125,179781,2,0,P|309:168|281:218,1,105.000004005432
325,319,180401,2,0,P|313:256|279:220,1,105.000004005432
167,131,181022,2,0,P|157:221|153:251,1,105.000004005432
257,353,181436,6,0,P|358:354|389:342,1,105.000004005432
415,127,182263,2,0,B|488:181|476:215|455:266|425:312,1,210.000008010865
320,192,183712,2,0,P|385:188|422:155,1,105.000004005432
384,96,184125,6,0,P|321:96|269:106,1,105.000004005432
156,354,185573,6,0,B|242:324|268:283|281:221|275:167,1,210.000008010865
194,97,186608,2,0,P|125:133|81:177,1,105.000004005432
247,334,187228,2,0,B|304:335|339:331|366:328,1,105.000004005432
481,257,187642,6,0,B|465:196|449:145|425:106|366:76,1,210.000008010865
176,165,188884,6,0,B|172:245|193:282|228:316|292:312|290:295,1,210.000008010865
292,232,189711,2,0,P|293:168|298:113,1,105.000004005432
368,53,190125,2,0,B|447:55|484:94|493:120,1,105.000004005432
508,269,190539,6,0,L|511:374,1,105.000004005432
122,338,190953,2,0,B|67:306|53:272|55:219|58:141,1,210.000008010865
128,64,191573,2,0,B|192:64|256:64|288:96|320:160,1,210.000008010865
310,190,192194,6,0,B|305:210|318:272|344:313|430:343,1,210.000008010865
477,224,193228,2,0,P|435:192|387:170,1,105.000004005432
265,334,193849,2,0,B|208:335|173:331|146:328,1,105.000004005432
31,257,194263,6,0,B|47:196|63:145|87:106|146:76,1,210.000008010865
470,39,195505,6,0,B|381:37|345:48|289:81|259:127,1,210.000008010865
220,232,196332,2,0,P|219:168|214:113,1,105.000004005432
144,53,196746,2,0,B|65:55|28:94|19:120,1,105.000004005432
32,158,197160,6,0,L|29:263,1,105.000004005432
156,356,197574,2,0,B|211:324|225:290|223:237|234:232,1,105.000004005432
263,224,197987,6,0,B|199:224|199:192|231:160|295:160|327:192|359:256,1,210.000008010865
