osu file format v14

[General]
AudioFilename: audio.mp3
AudioLeadIn: 0
PreviewTime: 41364
Countdown: 0
SampleSet: Soft
StackLeniency: 0.4
Mode: 0
LetterboxInBreaks: 0
WidescreenStoryboard: 1

[Editor]
DistanceSpacing: 2.3
BeatDivisor: 4
GridSize: 32
TimelineZoom: 1.9

[Metadata]
Title:Righteous
TitleUnicode:Righteous
Artist:Juice WRLD
ArtistUnicode:Juice WRLD
Creator:Smoke
Version:jasontime's hard
Source:
Tags:hip hop hip-hop rap world english legends never die jasontime jasontime12345
BeatmapID:2604747
BeatmapSetID:1253361

[Difficulty]
HPDrainRate:4.5
CircleSize:4.2
OverallDifficulty:6.5
ApproachRate:7.5
SliderMultiplier:2.7
SliderTickRate:1

[Events]
//Background and Video events
0,0,"juice wrld righteous wallpaper.jpg",0,0
//Break Periods
2,94358,106779
2,120885,124242
2,161510,173934
//Storyboard Layer 0 (Background)
//Storyboard Layer 1 (Fail)
//Storyboard Layer 2 (Pass)
//Storyboard Layer 3 (Foreground)
//Storyboard Layer 4 (Overlay)
//Storyboard Sound Samples

[TimingPoints]
27026,839.160839160839,4,2,1,70,1,0
41711,-76.9230769230769,4,2,1,70,0,0
47065,-76.9230769230769,4,2,1,5,0,0
47165,-76.9230769230769,4,2,1,70,0,0
47170,-76.9230769230769,4,2,1,70,0,0
53879,-125,4,2,1,60,0,0
67305,-100,4,2,1,70,0,0
80732,-90.9090909090909,4,2,1,70,0,0
107604,839.160839160839,4,2,1,70,1,0
114212,-100,4,2,1,5,0,0
114317,-100,4,2,1,70,0,0
125016,-100,4,2,1,5,0,0
125226,-100,4,2,1,60,0,0
134457,-125,4,2,1,50,0,0
141590,-100,4,2,1,55,0,0
144527,-125,4,2,1,50,0,0
147883,-100,4,2,1,70,0,0
149876,-100,4,2,1,5,0,0
149981,-100,4,2,1,70,0,0
152394,-100,4,2,1,5,0,0
152499,-100,4,2,1,70,0,0
153233,-100,4,2,1,5,0,0
153338,-100,4,2,1,70,0,0
157953,-90.9090909090909,4,2,1,70,0,0
161310,-111.111111111111,4,2,1,70,0,0
174759,839.160839160839,4,2,1,70,1,0
176017,-76.9230769230769,4,2,1,70,0,0
181367,-76.9230769230769,4,2,1,5,0,0
181472,-76.9230769230769,4,2,1,70,0,0
188185,-125,4,2,1,70,0,0

[Colours]
Combo1 : 136,136,136
Combo2 : 170,170,170

[HitObjects]
71,35,27026,6,0,P|131:47|206:69,1,135,4|2,3:2|0:0,0:0:0:0:
263,113,27655,1,0,3:2:0:0:
350,72,27865,1,8,0:0:0:0:
350,72,28074,2,0,P|339:124|329:211,1,135,2|0,0:0|0:0,0:0:0:0:
272,275,28704,1,2,3:2:0:0:
260,264,29123,2,0,P|226:268|193:277,1,67.5,2|2,0:0|3:2,0:0:0:0:
125,341,29543,6,0,P|53:319|44:256,1,135,10|2,0:0|0:0,0:0:0:0:
96,192,30172,1,2,0:0:0:0:
96,192,30382,1,6,3:2:0:0:
104,201,30802,6,0,P|136:205|181:217,1,67.5,2|0,0:0|3:2,0:0:0:0:
268,256,31221,2,0,P|255:188|305:153,1,135,8|2,0:0|0:0,0:0:0:0:
324,160,31851,1,0,3:2:0:0:
345,67,32060,1,2,0:0:0:0:
332,56,32480,6,0,P|253:88|248:139,1,135,2|10,3:2|0:0,0:0:0:0:
294,196,33109,2,0,P|326:203|358:214,2,67.5,2|2|2,3:2|0:0|0:0,0:0:0:0:
219,245,33739,6,0,P|235:310|250:376,1,135,6|2,3:2|0:0,0:0:0:0:
327,384,34368,1,0,3:2:0:0:
327,384,34578,2,0,P|342:344|360:310,1,67.5,8|2,0:0|0:0,0:0:0:0:
419,267,34998,1,2,0:0:0:0:
429,253,35417,6,0,P|409:147|391:40,1,202.5,2|0,3:2|3:2,0:0:0:0:
313,15,36256,1,10,0:0:0:0:
315,33,36676,2,0,P|286:64|243:57,1,67.5,2|2,0:0|0:0,0:0:0:0:
198,11,37095,6,0,P|114:4|39:-1,1,135,6|2,3:2|0:0,0:0:0:0:
6,61,37725,1,0,3:2:0:0:
6,61,37935,2,0,P|17:90|26:127,1,67.5,8|2,0:0|0:0,0:0:0:0:
90,188,38354,2,0,P|81:236|74:274,1,67.5,2|0,0:0|3:2,0:0:0:0:
27,327,38774,1,2,0:0:0:0:
40,346,39193,6,0,P|84:298|150:320,1,135,2|10,3:2|0:0,0:0:0:0:
179,384,39823,1,2,3:2:0:0:
188,363,40452,6,0,P|255:372|333:386,1,135,6|2,3:2|0:0,0:0:0:0:
396,359,41081,1,0,3:2:0:0:
396,359,41291,1,8,0:0:0:0:
488,290,41711,5,2,0:0:0:0:
433,196,41921,1,2,0:0:0:0:
491,104,42130,2,0,P|502:53|515:10,1,87.749995983124,2|2,3:2|0:0,0:0:0:0:
375,0,42550,2,0,P|364:51|351:94,1,87.749995983124,2|2,0:0|3:2,0:0:0:0:
248,154,42970,1,10,0:0:0:0:
248,154,43179,2,0,P|160:123|59:99,1,175.499991966248,2|2,0:0|0:0,0:0:0:0:
26,195,43809,6,0,P|84:229|83:263,1,87.749995983124,6|0,3:2|0:0,0:0:0:0:
173,297,44228,2,0,P|166:335|158:387,1,87.749995983124,2|2,0:0|3:2,0:0:0:0:
45,314,44648,2,0,P|28:200|12:113,1,175.499991966248,8|2,0:0|0:0,0:0:0:0:
70,54,45277,1,2,3:2:0:0:
70,54,45487,6,0,P|108:61|166:70,1,87.749995983124,2|2,0:0|0:0,0:0:0:0:
222,179,45907,2,0,P|311:152|402:115,1,175.499991966248,2|10,3:2|0:0,0:0:0:0:
441,26,46536,1,0,3:2:0:0:
434,13,47165,6,0,L|418:209,1,175.499991966248,6|2,3:2|0:0,0:0:0:0:
415,320,47795,1,0,3:2:0:0:
415,320,48005,1,8,0:0:0:0:
305,245,48214,2,0,P|204:270|115:299,1,175.499991966248,2|0,0:0|0:0,0:0:0:0:
65,371,48844,6,0,P|117:340|117:302,1,87.749995983124,2|0,3:2|0:0,0:0:0:0:
64,223,49263,1,2,0:0:0:0:
64,223,49473,1,2,3:2:0:0:
133,133,49683,1,8,0:0:0:0:
118,118,50102,2,0,L|109:17,1,87.749995983124,2|0,0:0|0:0,0:0:0:0:
218,29,50522,6,0,P|220:78|342:89,1,175.499991966248,6|2,3:2|0:0,0:0:0:0:
370,16,51151,1,2,3:2:0:0:
370,16,51361,1,8,0:0:0:0:
382,8,51781,2,0,P|427:16|475:26,1,87.749995983124,2|0,0:0|3:2,0:0:0:0:
481,119,52200,6,0,P|469:197|455:323,2,175.499991966248,2|2|8,0:0|3:2|0:0,0:0:0:0:
512,17,53249,1,0,3:2:0:0:
507,5,53879,6,0,L|337:38,1,162,6|2,0:0|0:0,0:0:0:0:
291,102,54718,1,8,0:0:0:0:
278,112,55137,6,0,L|106:93,2,162,2|2|10,0:0|0:0|0:0,0:0:0:0:
349,196,56816,2,0,L|341:261,1,54,2|0,0:0|0:0,0:0:0:0:
289,302,57235,6,0,P|209:322|117:349,1,162,2|2,0:0|0:0,0:0:0:0:
63,383,58074,1,8,0:0:0:0:
51,373,58494,6,0,P|33:292|11:207,2,162,2|2|10,0:0|0:0|0:0,0:0:0:0:
136,329,60172,2,0,P|144:285|151:258,1,54,2|0,0:0|0:0,0:0:0:0:
208,198,60592,6,0,P|148:206|98:106,1,162,2|2,0:0|0:0,0:0:0:0:
139,66,61431,1,8,0:0:0:0:
150,76,61851,6,0,P|210:84|260:-16,2,162,2|2|10,0:0|0:0|0:0,0:0:0:0:
66,3,63529,2,0,P|46:21|42:53,1,54,2|0,0:0|0:0,0:0:0:0:
6,119,63949,6,0,L|27:224,1,108,2|0,0:0|0:0,0:0:0:0:
44,237,64578,2,0,L|40:296,1,54,2|8,0:0|0:0,0:0:0:0:
123,379,65207,6,0,L|239:362,1,108,2|0,0:0|0:0,0:0:0:0:
246,342,65837,2,0,L|365:360,1,108,2|0,0:0|0:0,0:0:0:0:
369,347,66466,2,0,L|431:336,1,54,10|0,0:0|0:0,0:0:0:0:
502,340,66886,2,0,L|448:349,1,54,2|0,0:0|0:0,0:0:0:0:
356,310,67305,6,0,P|373:225|392:159,1,135,6|0,3:2|0:0,0:0:0:0:
460,132,67935,1,2,3:2:0:0:
460,132,68144,1,8,0:0:0:0:
424,62,68354,6,0,L|280:91,1,135,2|0,0:0|0:0,0:0:0:0:
238,139,68984,1,0,3:2:0:0:
238,139,69193,2,0,P|153:121|87:111,1,135,2|0,0:0|3:2,0:0:0:0:
41,147,69823,2,0,P|61:175|68:216,1,67.5,10|0,0:0|0:0,0:0:0:0:
30,278,70242,1,2,0:0:0:0:
36,288,70662,6,0,P|129:308|190:324,1,135,6|2,3:2|0:0,0:0:0:0:
228,367,71291,1,2,3:2:0:0:
292,313,71501,2,0,P|284:273|276:243,1,67.5,8|0,0:0|0:0,0:0:0:0:
288,231,72130,6,0,P|352:244|431:255,1,135,0|2,3:2|0:0,0:0:0:0:
430,245,72760,2,0,P|363:235|297:222,1,135,0|10,3:2|0:0,0:0:0:0:
238,162,73389,1,0,3:2:0:0:
239,146,74019,6,0,P|213:95|125:112,1,135,6|0,3:2|0:0,0:0:0:0:
100,165,74648,1,2,3:2:0:0:
100,165,74858,2,0,P|114:234|126:306,1,135,8|2,0:0|0:0,0:0:0:0:
143,312,75697,6,0,P|164:277|219:276,1,67.5,0|2,3:2|0:0,0:0:0:0:
278,158,76326,1,0,3:2:0:0:
285,170,76536,2,0,P|356:192|432:222,1,135,10|0,0:0|0:0,0:0:0:0:
512,56,77375,6,0,P|433:93|432:132,1,135,6|0,3:2|0:0,0:0:0:0:
485,187,78005,1,2,3:2:0:0:
485,187,78214,1,8,0:0:0:0:
473,201,78634,6,0,L|483:276,1,67.5,2|0,0:0|3:2,0:0:0:0:
351,364,79263,1,2,0:0:0:0:
361,350,79473,2,0,L|372:268,1,67.5,2|0,3:2|0:0,0:0:0:0:
318,213,79893,5,10,0:0:0:0:
239,264,80102,2,0,P|160:284|84:299,1,135,0|0,3:2|0:0,0:0:0:0:
43,214,80732,6,0,P|107:190|111:100,1,148.50000453186,6|2,3:2|0:0,0:0:0:0:
162,38,81361,1,2,3:2:0:0:
162,38,81571,2,0,P|116:28|78:23,1,74.2500022659302,8|0,0:0|0:0,0:0:0:0:
0,66,81991,1,2,0:0:0:0:
12,80,82410,6,0,P|24:144|38:235,1,148.50000453186,0|0,3:2|0:0,0:0:0:0:
21,318,83039,1,0,3:2:0:0:
21,318,83249,2,0,P|45:280|93:278,1,74.2500022659302,10|0,0:0|0:0,0:0:0:0:
151,315,83669,1,0,0:0:0:0:
159,328,84088,6,0,P|224:341|330:363,1,148.50000453186,2|2,3:2|0:0,0:0:0:0:
392,381,84718,1,2,3:2:0:0:
466,323,84928,2,0,P|457:279|448:243,1,74.2500022659302,8|2,0:0|0:0,0:0:0:0:
436,240,85557,6,0,P|451:155|465:89,1,148.50000453186,0|2,3:2|0:0,0:0:0:0:
433,20,86186,2,0,P|390:49|365:46,1,74.2500022659302,0|0,3:2|0:0,0:0:0:0:
304,2,86606,1,10,0:0:0:0:
304,2,86815,1,0,3:2:0:0:
228,95,87235,1,0,0:0:0:0:
228,95,87445,6,0,P|138:78|68:63,1,148.50000453186,6|2,3:2|0:0,0:0:0:0:
27,118,88074,1,2,3:2:0:0:
27,118,88284,2,0,P|40:155|51:194,1,74.2500022659302,8|2,0:0|0:0,0:0:0:0:
108,251,88704,2,0,P|102:286|92:329,1,74.2500022659302,2|0,0:0|0:0,0:0:0:0:
52,384,89123,6,0,P|116:350|197:340,1,148.50000453186,0|0,3:2|0:0,0:0:0:0:
278,384,89753,1,0,3:2:0:0:
278,384,89963,2,0,P|287:340|296:303,1,74.2500022659302,10|0,0:0|0:0,0:0:0:0:
307,306,90592,1,0,0:0:0:0:
383,261,90802,6,0,P|364:176|350:116,1,148.50000453186,6|2,3:2|0:0,0:0:0:0:
295,46,91431,1,2,3:2:0:0:
228,93,91641,2,0,P|178:83|137:71,1,74.2500022659302,8|2,0:0|0:0,0:0:0:0:
145,86,92270,6,0,P|64:101|38:165,1,148.50000453186,0|2,3:2|0:0,0:0:0:0:
4,227,92900,2,0,P|13:262|31:315,1,74.2500022659302,0|0,3:2|0:0,0:0:0:0:
96,337,93319,1,10,0:0:0:0:
96,337,93529,1,0,3:2:0:0:
174,302,93739,1,2,0:0:0:0:
326,360,94158,5,2,0:0:0:0:
284,349,107604,6,0,P|311:282|373:280,1,135,6|2,3:2|0:0,0:0:0:0:
431,338,108233,5,0,3:2:0:0:
381,266,108443,2,0,P|391:219|398:192,1,67.5,8|0,0:0|0:0,0:0:0:0:
484,135,108862,5,2,0:0:0:0:
446,35,109072,1,2,0:0:0:0:
446,35,109282,2,0,B|415:73|415:73|253:31,1,202.5,2|2,3:2|3:2,0:0:0:0:
251,45,110121,2,0,P|261:71|272:117,1,67.5,10|2,0:0|0:0,0:0:0:0:
292,197,110541,1,2,0:0:0:0:
292,197,110750,1,2,0:0:0:0:
157,146,110960,6,0,P|113:159|76:174,1,67.5,6|0,3:2|0:0,0:0:0:0:
0,126,111380,2,0,P|14:183|33:273,2,135,2|8|2,0:0|0:0|0:0,0:0:0:0:
48,56,112429,1,2,3:2:0:0:
48,56,112638,2,0,P|77:66|89:103,1,67.5,2|2,0:0|0:0,0:0:0:0:
156,163,113058,2,0,P|197:114|272:121,1,135,2|10,3:2|0:0,0:0:0:0:
303,196,113687,1,0,3:2:0:0:
303,196,114317,6,0,P|295:250|286:344,1,135,6|2,3:2|0:0,0:0:0:0:
348,384,114947,1,0,3:2:0:0:
434,338,115157,1,8,0:0:0:0:
434,338,115366,2,0,P|378:303|400:230,1,135,2|0,0:0|0:0,0:0:0:0:
458,200,115996,6,0,P|489:194|504:142,1,67.5,2|0,3:2|0:0,0:0:0:0:
454,97,116415,1,2,0:0:0:0:
454,97,116625,1,2,3:2:0:0:
512,0,116835,1,8,0:0:0:0:
336,58,117254,2,0,P|297:41|255:36,1,67.5,2|0,0:0|0:0,0:0:0:0:
205,89,117674,6,0,P|203:138|123:149,1,135,6|2,3:2|0:0,0:0:0:0:
76,97,118303,1,2,3:2:0:0:
76,97,118513,1,8,0:0:0:0:
35,221,118933,2,0,P|62:226|107:242,1,67.5,2|0,0:0|3:2,0:0:0:0:
168,300,119352,6,0,P|176:230|187:153,2,135,2|2|8,0:0|3:2|0:0,0:0:0:0:
232,360,120401,1,0,3:2:0:0:
232,360,125226,6,0,P|264:349|305:340,1,67.5,8|0,0:0|0:0,0:0:0:0:
368,296,125645,2,0,P|387:330|422:335,1,67.5,2|0,0:0|3:2,0:0:0:0:
487,258,126065,2,0,P|473:187|461:111,1,135,2|0,0:0|3:2,0:0:0:0:
472,107,126904,1,10,0:0:0:0:
392,55,127114,2,0,P|385:87|380:122,1,67.5,0|0,3:2|0:0,0:0:0:0:
363,137,127743,6,0,P|318:76|253:87,1,135,6|0,3:2|0:0,0:0:0:0:
209,146,128373,1,0,3:2:0:0:
132,114,128583,2,0,P|141:75|144:47,1,67.5,8|0,0:0|0:0,0:0:0:0:
76,0,129002,1,2,0:0:0:0:
76,0,129422,6,0,P|105:81|140:209,1,202.5,2|0,3:2|3:2,0:0:0:0:
159,190,130261,6,0,P|132:287|98:383,1,202.5,10|0,0:0|0:0,0:0:0:0:
84,381,131100,6,0,P|119:336|202:347,1,135,6|2,3:2|0:0,0:0:0:0:
273,313,131729,1,0,3:2:0:0:
273,313,131939,2,0,P|265:270|254:237,2,67.5,8|0|2,0:0|0:0|0:0,0:0:0:0:
352,355,132569,1,0,3:2:0:0:
435,319,132778,2,0,P|451:225|464:165,1,135,2|0,0:0|3:2,0:0:0:0:
471,176,133617,5,10,0:0:0:0:
382,214,133827,2,0,P|372:175|291:136,1,135,0|0,3:2|0:0,0:0:0:0:
226,190,134457,6,0,B|256:222|256:222|231:353,1,162,2|0,0:0|0:0,0:0:0:0:
226,356,135296,1,8,0:0:0:0:
334,319,135715,1,2,0:0:0:0:
446,373,136135,2,0,P|433:309|421:257,2,108,2|2|10,0:0|0:0|0:0,0:0:0:0:
483,101,137813,6,0,P|468:177|382:174,1,162,2|2,0:0|0:0,0:0:0:0:
372,108,138652,2,0,P|379:69|386:40,1,54,10|0,0:0|0:0,0:0:0:0:
216,6,139492,1,2,0:0:0:0:
201,17,139911,2,0,L|87:35,2,108,2|8|2,0:0|0:0|0:0,0:0:0:0:
6,120,141590,6,0,P|17:150|29:193,1,67.5,2|0,0:0|0:0,0:0:0:0:
33,264,142009,2,0,P|68:219|142:221,1,135,10|2,0:0|0:0,0:0:0:0:
271,156,142848,2,0,P|252:211|235:305,1,135,2|2,0:0|0:0,0:0:0:0:
293,347,143478,1,2,0:0:0:0:
217,296,143687,2,0,P|173:286|139:281,1,67.5,10|0,0:0|0:0,0:0:0:0:
85,336,144107,2,0,P|41:346|7:351,1,67.5,2|0,0:0|0:0,0:0:0:0:
106,349,144527,1,2,0:0:0:0:
106,349,144946,6,0,P|91:283|74:228,2,108,2|10|2,0:0|0:0|0:0,0:0:0:0:
217,384,146205,2,0,P|238:337|307:331,1,108,2|2,0:0|0:0,0:0:0:0:
307,338,146834,1,2,0:0:0:0:
307,338,147044,1,10,0:0:0:0:
457,201,147883,6,0,P|470:130|491:54,1,135,6|0,3:2|0:0,0:0:0:0:
431,13,148513,1,0,3:2:0:0:
431,13,148722,2,0,P|396:52|368:48,1,67.5,10|0,0:0|0:0,0:0:0:0:
304,14,149142,2,0,P|261:5|228:0,1,67.5,2|0,0:0|0:0,0:0:0:0:
181,64,149562,6,0,P|159:124|87:130,1,135,2|2,3:2|0:0,0:0:0:0:
39,72,150191,1,0,3:2:0:0:
86,150,150401,2,0,P|95:184|105:238,1,67.5,10|2,0:0|0:0,0:0:0:0:
76,303,150820,1,2,0:0:0:0:
59,311,151240,6,0,P|86:239|198:269,1,202.5,6|0,3:2|3:2,0:0:0:0:
256,323,152079,2,0,P|269:300|316:291,1,67.5,10|2,0:0|0:0,0:0:0:0:
368,348,152499,2,0,L|445:363,2,67.5,2|0|2,0:0|3:2|0:0,0:0:0:0:
360,330,153338,6,0,P|350:251|339:193,1,135,2|10,3:2|0:0,0:0:0:0:
397,137,153967,1,2,3:2:0:0:
397,137,154177,2,0,P|404:87|411:54,1,67.5,2|0,0:0|0:0,0:0:0:0:
331,9,154597,6,0,P|288:84|233:66,1,135,6|2,3:2|0:0,0:0:0:0:
186,18,155226,1,0,3:2:0:0:
186,18,155436,2,0,P|208:95|237:222,1,202.5,10|2,0:0|0:0,0:0:0:0:
165,292,156275,2,0,P|175:252|190:221,1,67.5,2|0,3:2|0:0,0:0:0:0:
139,148,156694,2,0,P|106:173|70:169,1,67.5,2|2,0:0|3:2,0:0:0:0:
7,84,157114,1,10,0:0:0:0:
21,71,157534,1,2,0:0:0:0:
12,162,157743,1,0,0:0:0:0:
1,252,157953,6,0,P|63:267|160:298,1,148.50000453186,6|2,3:2|0:0,0:0:0:0:
239,243,158583,1,0,3:2:0:0:
239,243,158792,2,0,P|257:207|303:191,2,74.2500022659302,10|2|2,0:0|0:0|0:0,0:0:0:0:
300,330,159422,1,0,3:2:0:0:
300,330,159631,2,0,P|375:309|460:293,1,148.50000453186,2|2,0:0|3:2,0:0:0:0:
462,304,160471,5,10,0:0:0:0:
425,188,160680,2,0,P|434:143|446:95,1,74.2500022659302,2|2,3:2|0:0,0:0:0:0:
407,208,161310,5,2,0:0:0:0:
25,33,174759,6,0,P|87:46|170:56,1,135,6|2,3:2|0:0,0:0:0:0:
241,31,175388,1,0,3:2:0:0:
318,110,175598,1,8,0:0:0:0:
258,309,176018,5,2,0:0:0:0:
372,274,176228,1,2,0:0:0:0:
486,320,176437,2,0,P|497:269|510:226,1,87.749995983124,2|2,3:2|0:0,0:0:0:0:
422,147,176857,2,0,P|409:104|400:61,1,87.749995983124,2|2,0:0|3:2,0:0:0:0:
486,0,177277,1,10,0:0:0:0:
377,68,177486,2,0,P|289:37|191:13,1,175.499991966248,2|2,0:0|0:0,0:0:0:0:
119,93,178116,6,0,P|177:127|176:161,1,87.749995983124,6|0,3:2|0:0,0:0:0:0:
80,246,178535,2,0,P|73:284|65:336,1,87.749995983124,2|2,0:0|3:2,0:0:0:0:
161,210,178955,2,0,P|144:96|128:9,1,175.499991966248,8|2,0:0|0:0,0:0:0:0:
243,72,179584,1,2,3:2:0:0:
254,59,179794,6,0,P|292:66|350:75,1,87.749995983124,2|2,0:0|0:0,0:0:0:0:
409,172,180214,2,0,P|489:154|504:72,1,175.499991966248,2|10,3:2|0:0,0:0:0:0:
418,10,180843,1,0,3:2:0:0:
431,0,181472,6,0,P|418:81|407:196,1,175.499991966248,6|2,3:2|0:0,0:0:0:0:
439,298,182102,1,0,3:2:0:0:
330,360,182311,1,8,0:0:0:0:
212,313,182521,2,0,P|111:338|22:367,1,175.499991966248,2|0,0:0|0:0,0:0:0:0:
0,246,183151,6,0,P|52:215|52:177,1,87.749995983124,2|0,3:2|0:0,0:0:0:0:
0,93,183570,1,2,0:0:0:0:
0,93,183780,1,2,3:2:0:0:
96,13,183990,1,8,0:0:0:0:
86,0,184409,2,0,L|93:87,1,87.749995983124,2|0,0:0|0:0,0:0:0:0:
165,195,184829,6,0,P|167:146|289:135,1,175.499991966248,6|2,3:2|0:0,0:0:0:0:
312,219,185458,1,2,3:2:0:0:
312,219,185668,1,8,0:0:0:0:
331,212,186088,2,0,P|375:218|424:230,1,87.749995983124,2|0,0:0|3:2,0:0:0:0:
408,384,186507,6,0,P|396:306|307:298,2,175.499991966248,2|2|8,0:0|3:2|0:0,0:0:0:0:
504,333,187556,1,0,3:2:0:0:
512,322,188186,6,0,P|498:227|488:152,1,162,6|0,3:2|3:2,0:0:0:0:
506,82,189025,1,8,0:0:0:0:
499,65,189863,5,0,3:2:0:0:
333,197,190493,2,0,P|303:188|277:182,1,54,0|8,3:2|0:0,0:0:0:0:
0,64,191542,6,0,P|77:41|156:21,1,162,0|0,3:2|3:2,0:0:0:0:
238,27,192381,1,8,0:0:0:0:
221,38,193010,2,0,L|205:161,1,108,0|0,3:2|0:0,0:0:0:0:
142,202,193640,2,0,P|112:163|44:170,1,108,2|8,3:2|0:0,0:0:0:0:
17,226,194269,1,0,3:2:0:0:
198,349,194899,6,0,P|240:289|334:308,1,162,2|0,3:2|3:2,0:0:0:0:
366,363,195738,1,8,0:0:0:0:
361,377,196577,5,0,3:2:0:0:
494,225,197206,2,0,P|485:190|472:157,1,54,0|8,3:2|0:0,0:0:0:0:
197,359,198256,6,0,P|208:301|239:175,1,162,0|0,3:2|3:2,0:0:0:0:
287,147,199094,1,8,0:0:0:0:
272,131,199724,2,0,P|280:185|295:259,1,108,0|0,3:2|0:0,0:0:0:0:
356,287,200353,2,0,P|390:254|449:258,1,108,2|10,3:2|0:0,0:0:0:0:
483,333,200982,1,0,3:2:0:0:
129,259,201612,5,2,0:0:0:0:
