osu file format v14

[General]
AudioFilename: audio.mp3
AudioLeadIn: 0
PreviewTime: 41364
Countdown: 0
SampleSet: Soft
StackLeniency: 0.4
Mode: 0
LetterboxInBreaks: 0
WidescreenStoryboard: 1

[Editor]
DistanceSpacing: 1
BeatDivisor: 16
GridSize: 32
TimelineZoom: 1.9

[Metadata]
Title:Righteous
TitleUnicode:Righteous
Artist:Juice WRLD
ArtistUnicode:Juice WRLD
Creator:Smoke
Version:Normal
Source:
Tags:hip hop hip-hop rap world english legends never die jasontime jasontime12345
BeatmapID:2604748
BeatmapSetID:1253361

[Difficulty]
HPDrainRate:4
CircleSize:3.6
OverallDifficulty:4.5
ApproachRate:5.5
SliderMultiplier:2.2
SliderTickRate:1

[Events]
//Background and Video events
0,0,"juice wrld righteous wallpaper.jpg",0,0
//Break Periods
2,94358,106479
2,121229,123262
2,161510,173634
//Storyboard Layer 0 (Background)
//Storyboard Layer 1 (Fail)
//Storyboard Layer 2 (Pass)
//Storyboard Layer 3 (Foreground)
//Storyboard Layer 4 (Overlay)
//Storyboard Sound Samples

[TimingPoints]
27026,839.160839160839,4,2,1,70,1,0
27026,-100,4,2,1,70,0,0
47060,-100,4,2,1,5,0,0
47165,-100,4,2,1,70,0,0
53879,-111.111111111111,4,2,1,60,0,0
67305,-100,4,2,1,70,0,0
94158,-100,4,2,1,50,0,0
107604,839.160839160839,4,2,1,70,1,0
107604,-100,4,2,1,70,0,0
114212,-100,4,2,1,5,0,0
114317,-100,4,2,1,70,0,0
121031,-100,4,2,1,50,0,0
124387,-100,4,2,1,55,0,0
125016,-100,4,2,1,5,0,0
125226,-100,4,2,1,60,0,0
134457,-111.111111111111,4,2,1,50,0,0
145267,-111.111111111111,4,2,1,50,0,0
145365,-111.111111111111,4,2,1,50,0,0
147883,-100,4,2,1,70,0,0
149876,-100,4,2,1,5,0,0
149883,-100,4,2,1,5,0,0
149981,-100,4,2,1,70,0,0
152394,-100,4,2,1,5,0,0
152401,-100,4,2,1,5,0,0
152498,-100,4,2,1,5,0,0
152499,-100,4,2,1,70,0,0
153233,-100,4,2,1,5,0,0
153241,-100,4,2,1,5,0,0
153337,-100,4,2,1,5,0,0
153338,-100,4,2,1,70,0,0
161310,-100,4,2,1,50,0,0
174759,839.160839160839,4,2,1,70,1,0
174759,-100,4,2,1,70,0,0
181367,-100,4,2,1,5,0,0
181472,-100,4,2,1,70,0,0
188185,-100,4,2,1,55,0,0
201612,-100,4,2,1,50,0,0
215038,-100,4,2,1,40,0,0

[Colours]
Combo1 : 136,136,136
Combo2 : 170,170,170

[HitObjects]
54,336,27026,5,4,3:2:0:0:
134,279,27445,2,0,L|196:295,1,55.2071666666667,2|0,0:0|3:2,0:0:0:0:
231,325,27865,1,8,0:0:0:0:
231,325,28074,2,0,L|351:302,1,110.414333333333,2|0,0:0|0:0,0:0:0:0:
380,331,28704,1,2,3:2:0:0:
457,269,29123,2,0,P|460:246|446:211,1,55.4693333333333,2|0,0:0|0:0,0:0:0:0:
414,180,29543,2,0,P|411:157|425:121,1,55.4693333333333,10|0,0:0|0:0,0:0:0:0:
449,86,29963,1,2,0:0:0:0:
374,20,30382,5,6,3:2:0:0:
290,73,30802,2,0,L|228:60,1,55,2|0,0:0|3:2,0:0:0:0:
198,92,31221,1,8,0:0:0:0:
198,92,31431,2,0,B|149:112|149:112|100:81,1,110,2|0,0:0|3:2,0:0:0:0:
56,59,32060,1,2,0:0:0:0:
6,144,32480,1,2,3:2:0:0:
60,226,32900,2,0,P|84:228|127:212,1,55,10|2,0:0|3:2,0:0:0:0:
159,200,33319,2,0,P|183:198|221:212,1,55,2|2,0:0|0:0,0:0:0:0:
250,238,33739,5,6,3:2:0:0:
327,176,34158,2,0,L|385:164,1,55,2|0,0:0|3:2,0:0:0:0:
431,185,34578,1,8,0:0:0:0:
431,185,34788,2,0,B|457:221|457:221|438:285,1,110,2|0,0:0|0:0,0:0:0:0:
399,315,35417,2,0,L|344:304,1,55,2|2,3:2|0:0,0:0:0:0:
296,292,35837,1,2,0:0:0:0:
210,341,36256,2,0,L|86:316,1,110,10|2,0:0|0:0,0:0:0:0:
57,311,36886,1,2,0:0:0:0:
57,311,37095,5,6,3:2:0:0:
15,221,37515,2,0,P|18:197|42:172,1,55,2|0,0:0|3:2,0:0:0:0:
83,151,37935,1,8,0:0:0:0:
83,151,38144,2,0,P|133:158|182:110,1,110,2|0,0:0|3:2,0:0:0:0:
205,82,38774,1,2,0:0:0:0:
281,145,39193,1,2,3:2:0:0:
259,241,39613,2,0,L|246:305,1,55,10|2,0:0|3:2,0:0:0:0:
283,329,40032,2,0,L|350:316,1,55,2|2,0:0|0:0,0:0:0:0:
378,345,40452,5,6,3:2:0:0:
468,305,40872,2,0,P|483:277|469:202,1,110,2|8,0:0|0:0,0:0:0:0:
360,185,41711,2,0,P|353:163|361:122,1,55,2|2,0:0|0:0,0:0:0:0:
390,87,42130,1,2,3:2:0:0:
290,40,42550,2,0,L|229:52,1,55,2|2,0:0|3:2,0:0:0:0:
191,18,42970,2,0,L|128:2,1,55,10|2,0:0|0:0,0:0:0:0:
108,51,43389,2,0,P|75:59|56:90,1,55,2|2,0:0|0:0,0:0:0:0:
40,125,43809,5,6,3:2:0:0:
123,196,44228,2,0,L|243:171,1,110,2|8,0:0|0:0,0:0:0:0:
311,98,45067,2,0,L|374:112,1,55,2|2,0:0|3:2,0:0:0:0:
400,69,45487,2,0,L|462:85,1,55,2|2,0:0|0:0,0:0:0:0:
489,124,45907,1,2,3:2:0:0:
431,217,46326,2,0,B|411:255|411:255|437:331,1,110,10|2,0:0|0:0,0:0:0:0:
339,378,47165,5,6,3:2:0:0:
254,308,47585,2,0,L|127:328,1,110,2|8,0:0|0:0,0:0:0:0:
91,339,48214,2,0,P|52:322|47:239,1,110,2|0,0:0|0:0,0:0:0:0:
80,231,48844,2,0,B|104:198|104:198|86:127,1,110,2|2,3:2|0:0,0:0:0:0:
77,81,49473,1,2,3:2:0:0:
77,81,49683,1,8,0:0:0:0:
171,24,50102,2,0,L|239:36,1,55,2|0,0:0|0:0,0:0:0:0:
265,71,50522,6,0,L|386:44,1,110,6|2,3:2|0:0,0:0:0:0:
426,35,51151,2,0,P|442:56|446:98,1,55,2|8,3:2|0:0,0:0:0:0:
427,136,51571,1,2,0:0:0:0:
427,136,51781,1,2,0:0:0:0:
484,229,52200,2,0,P|502:279|456:338,1,110,2|2,0:0|3:2,0:0:0:0:
424,343,52830,2,0,L|308:324,1,110,2|0,0:0|3:2,0:0:0:0:
265,350,53459,1,2,0:0:0:0:
205,270,53879,6,0,L|58:300,1,148.49999546814,6|2,0:0|0:0,0:0:0:0:
10,308,54718,1,8,0:0:0:0:
18,209,55137,2,0,L|135:185,1,98.9999969787599,2|0,0:0|0:0,0:0:0:0:
152,155,55767,2,0,L|271:180,1,98.9999969787599,2|0,0:0|0:0,0:0:0:0:
296,189,56396,1,10,0:0:0:0:
244,276,56816,1,2,0:0:0:0:
317,342,57235,6,0,L|435:317,1,98.9999969787599,2|2,0:0|0:0,0:0:0:0:
461,309,57865,2,0,P|490:280|481:209,1,98.9999969787599,2|0,0:0|0:0,0:0:0:0:
448,197,58494,2,0,P|419:168|432:98,1,98.9999969787599,2|0,0:0|0:0,0:0:0:0:
399,68,59123,2,0,B|356:56|356:56|330:18|330:18|269:0,1,148.49999546814,2|10,0:0|0:0,0:0:0:0:
214,80,60172,1,2,0:0:0:0:
136,17,60592,6,0,P|76:11|10:83,1,148.49999546814,2|2,0:0|0:0,0:0:0:0:
8,116,61431,1,8,0:0:0:0:
89,170,61851,2,0,L|67:272,1,98.9999969787599,2|0,0:0|0:0,0:0:0:0:
60,315,62480,2,0,P|103:359|196:341,1,148.49999546814,2|10,0:0|0:0,0:0:0:0:
247,273,63529,1,2,0:0:0:0:
173,206,63949,6,0,L|205:54,1,148.49999546814,2|2,0:0|0:0,0:0:0:0:
215,12,64788,1,8,0:0:0:0:
298,65,65207,2,0,P|341:73|396:27,1,98.9999969787599,2|0,0:0|0:0,0:0:0:0:
427,17,65837,2,0,B|461:58|461:58|435:156,1,148.49999546814,2|10,0:0|0:0,0:0:0:0:
474,241,66886,2,0,L|485:293,1,49.4999984893799,2|0,0:0|0:0,0:0:0:0:
450,333,67305,6,0,P|408:305|349:322,1,110,6|0,3:2|0:0,0:0:0:0:
310,351,67935,2,0,P|280:353|247:332,1,55,2|8,3:2|0:0,0:0:0:0:
217,305,68354,2,0,L|253:123,1,165,2|0,0:0|3:2,0:0:0:0:
260,89,69193,2,0,B|214:60|214:60|161:78,1,110,2|0,0:0|3:2,0:0:0:0:
110,99,69823,1,10,0:0:0:0:
30,22,70242,2,0,L|15:95,1,55,2|0,0:0|0:0,0:0:0:0:
5,129,70662,6,0,B|25:165|25:165|6:234,1,110,6|2,3:2|0:0,0:0:0:0:
44,278,71291,1,2,3:2:0:0:
44,278,71501,1,8,0:0:0:0:
4,380,71921,2,0,L|135:357,1,110,2|0,0:0|0:0,0:0:0:0:
142,314,72550,2,0,L|272:333,1,110,2|0,0:0|0:0,0:0:0:0:
309,339,73179,1,10,0:0:0:0:
309,339,73389,2,0,P|342:309|336:224,1,110,0|0,3:2|0:0,0:0:0:0:
298,221,74019,6,0,B|255:178|255:178|279:65,1,165,6|2,3:2|3:2,0:0:0:0:
288,22,74858,1,8,0:0:0:0:
395,1,75277,2,0,P|446:-3|496:42,1,110,2|0,0:0|3:2,0:0:0:0:
499,85,75907,2,0,L|478:201,1,110,2|0,0:0|3:2,0:0:0:0:
428,213,76536,2,0,L|449:324,1,110,10|0,0:0|0:0,0:0:0:0:
345,362,77375,6,0,P|306:336|245:345,1,110,6|0,3:2|0:0,0:0:0:0:
200,315,78005,2,0,P|161:341|97:330,1,110,2|2,3:2|0:0,0:0:0:0:
51,308,78634,2,0,B|25:263|25:263|57:150,1,165,2|2,0:0|0:0,0:0:0:0:
73,103,79473,1,2,3:2:0:0:
165,172,79893,1,10,0:0:0:0:
165,172,80102,2,0,L|273:154,1,110,0|0,3:2|0:0,0:0:0:0:
320,182,80732,6,0,P|366:215|426:197,1,110,6|2,3:2|0:0,0:0:0:0:
469,186,81361,1,2,3:2:0:0:
469,186,81571,1,8,0:0:0:0:
509,83,81991,2,0,L|386:57,1,110,2|0,0:0|3:2,0:0:0:0:
358,24,82620,2,0,L|238:51,1,110,2|0,0:0|3:2,0:0:0:0:
220,93,83249,2,0,P|171:100|122:57,1,110,10|0,0:0|0:0,0:0:0:0:
33,3,84088,6,0,B|3:43|3:43|22:106,1,110,2|2,3:2|0:0,0:0:0:0:
56,141,84718,2,0,L|29:262,1,110,2|2,3:2|0:0,0:0:0:0:
23,305,85347,1,2,0:0:0:0:
23,305,85557,1,0,3:2:0:0:
123,349,85977,2,0,P|174:359|231:318,1,110,2|0,0:0|0:0,0:0:0:0:
254,286,86606,2,0,L|240:231,2,55,10|0|2,0:0|3:2|0:0,0:0:0:0:
335,356,87445,6,0,P|373:335|451:356,1,110,6|2,3:2|0:0,0:0:0:0:
487,366,88074,2,0,P|507:344|506:301,1,55,2|8,3:2|0:0,0:0:0:0:
490,274,88494,1,2,0:0:0:0:
490,274,88704,2,0,L|516:157,1,110,2|0,0:0|3:2,0:0:0:0:
494,114,89333,2,0,P|456:93|382:115,1,110,2|0,0:0|3:2,0:0:0:0:
367,154,89963,2,0,B|331:164|331:164|311:189|311:189|269:201,1,110,10|0,0:0|0:0,0:0:0:0:
176,145,90802,5,6,3:2:0:0:
100,224,91221,1,2,0:0:0:0:
100,224,91431,2,0,P|42:234|0:193,1,110,2|2,3:2|0:0,0:0:0:0:
1,148,92060,2,0,L|31:34,1,110,2|0,0:0|0:0,0:0:0:0:
82,28,92690,2,0,B|119:57|119:57|197:42,1,110,2|0,0:0|0:0,0:0:0:0:
224,78,93319,2,0,L|288:95,2,55,10|0|2,0:0|3:2|0:0,0:0:0:0:
169,160,94158,5,2,0:0:0:0:
169,356,107604,5,6,3:2:0:0:
251,283,108023,2,0,P|266:255|246:182,1,110,2|8,0:0|0:0,0:0:0:0:
175,100,108862,2,0,P|168:78|175:42,1,55,2|2,0:0|0:0,0:0:0:0:
219,16,109282,1,2,3:2:0:0:
312,73,109701,2,0,L|369:88,1,55,2|2,0:0|3:2,0:0:0:0:
419,73,110121,2,0,L|435:133,1,55,10|2,0:0|0:0,0:0:0:0:
473,164,110541,2,0,L|459:221,1,55,2|2,0:0|0:0,0:0:0:0:
446,270,110960,5,6,3:2:0:0:
412,374,111380,2,0,B|377:354|377:354|307:373,1,110,2|8,0:0|0:0,0:0:0:0:
218,315,112219,2,0,P|196:319|157:303,1,55,2|2,0:0|3:2,0:0:0:0:
121,341,112638,2,0,P|99:337|59:355,1,55,2|2,0:0|0:0,0:0:0:0:
22,377,113058,1,2,3:2:0:0:
3,268,113478,2,0,B|23:157,1,110,10|2,0:0|0:0,0:0:0:0:
45,51,114317,5,6,3:2:0:0:
135,113,114736,2,0,P|184:121|246:74,1,110,2|8,0:0|0:0,0:0:0:0:
279,59,115366,2,0,L|391:78,1,110,2|0,0:0|0:0,0:0:0:0:
412,126,115995,2,0,B|388:159|388:159|406:227,1,110,2|2,3:2|0:0,0:0:0:0:
420,283,116624,1,2,3:2:0:0:
420,283,116834,1,8,0:0:0:0:
325,339,117254,2,0,L|308:278,1,55,2|0,0:0|0:0,0:0:0:0:
295,232,117673,6,0,L|179:208,1,110,6|2,3:2|0:0,0:0:0:0:
132,201,118303,2,0,P|116:180|115:141,1,55,2|8,3:2|0:0,0:0:0:0:
157,119,118722,1,2,0:0:0:0:
157,119,118932,1,2,0:0:0:0:
96,26,119352,2,0,P|47:23|7:73,1,110,2|2,0:0|3:2,0:0:0:0:
8,119,119981,2,0,L|28:235,1,110,2|0,0:0|3:2,0:0:0:0:
52,275,120610,2,0,L|36:335,2,55,2|0|0,0:0|0:0|0:0,0:0:0:0:
453,333,124387,5,2,0:0:0:0:
453,333,125226,6,0,L|420:216,1,110,8|2,0:0|0:0,0:0:0:0:
408,179,125855,1,0,3:2:0:0:
408,179,126065,2,0,P|356:172|302:215,1,110,2|0,0:0|3:2,0:0:0:0:
237,285,126904,1,10,0:0:0:0:
237,285,127114,2,0,L|126:265,1,110,0|0,3:2|0:0,0:0:0:0:
75,286,127743,6,0,B|109:240|109:240|78:132,1,165,6|0,3:2|3:2,0:0:0:0:
63,83,128583,1,8,0:0:0:0:
152,19,129002,1,2,0:0:0:0:
241,83,129422,2,0,P|311:35|381:61,1,165,2|0,3:2|3:2,0:0:0:0:
416,100,130261,2,0,P|383:167|426:248,1,165,10|0,0:0|0:0,0:0:0:0:
463,277,131100,6,0,L|446:340,2,55,6|2|2,3:2|0:0|0:0,0:0:0:0:
492,170,131939,1,8,0:0:0:0:
406,100,132359,2,0,L|343:117,1,55,2|0,0:0|3:2,0:0:0:0:
305,142,132778,2,0,L|196:124,1,110,2|0,0:0|3:2,0:0:0:0:
131,41,133617,1,10,0:0:0:0:
131,41,133827,2,0,L|16:61,1,110,0|0,3:2|0:0,0:0:0:0:
9,107,134457,6,0,B|43:152|43:152|12:292,1,197.99999395752,2|8,0:0|0:0,0:0:0:0:
68,371,135715,1,2,0:0:0:0:
140,313,136135,1,2,0:0:0:0:
206,372,136555,1,2,0:0:0:0:
280,323,136974,2,0,P|367:306|420:358,1,148.49999546814,10|0,0:0|0:0,0:0:0:0:
450,359,137813,6,0,B|491:309|491:309|449:163,1,197.99999395752,2|10,0:0|0:0,0:0:0:0:
324,303,139492,1,2,0:0:0:0:
248,255,139911,2,0,L|136:236,1,98.9999969787599,2|8,0:0|0:0,0:0:0:0:
73,283,140750,2,0,L|51:177,1,98.9999969787599,2|0,0:0|0:0,0:0:0:0:
28,100,141590,5,2,0:0:0:0:
91,37,142009,1,10,0:0:0:0:
174,69,142429,1,2,0:0:0:0:
253,28,142848,2,0,P|302:22|350:51,1,98.9999969787599,2|2,0:0|0:0,0:0:0:0:
404,110,143687,1,10,0:0:0:0:
343,175,144107,2,0,L|327:277,1,98.9999969787599,2|2,0:0|0:0,0:0:0:0:
256,326,144946,6,0,P|208:332|158:294,1,98.9999969787599,2|10,0:0|0:0,0:0:0:0:
99,248,145785,1,2,0:0:0:0:
158,181,146205,2,0,L|267:162,1,98.9999969787599,2|2,0:0|0:0,0:0:0:0:
302,156,146834,1,2,0:0:0:0:
302,156,147044,1,10,0:0:0:0:
389,136,147464,1,2,0:0:0:0:
467,59,147883,6,0,B|418:21|418:21|301:40,1,165,6|0,3:2|3:2,0:0:0:0:
262,50,148722,1,10,0:0:0:0:
202,142,149142,1,2,0:0:0:0:
117,71,149562,2,0,P|63:81|30:148,1,110,2|2,3:2|0:0,0:0:0:0:
97,211,150401,2,0,L|85:271,1,55,10|2,0:0|0:0,0:0:0:0:
75,320,150820,1,2,0:0:0:0:
170,374,151240,6,0,P|216:381|269:346,1,110,6|2,3:2|0:0,0:0:0:0:
297,303,151869,1,0,3:2:0:0:
297,303,152079,2,0,L|406:317,1,110,10|2,0:0|0:0,0:0:0:0:
454,217,152918,2,0,L|344:204,1,110,2|2,0:0|3:2,0:0:0:0:
247,151,153757,2,0,L|188:166,1,55,10|2,0:0|3:2,0:0:0:0:
140,180,154177,1,2,0:0:0:0:
75,90,154597,6,0,P|113:43|176:49,1,110,6|2,3:2|0:0,0:0:0:0:
212,17,155226,1,0,3:2:0:0:
212,17,155436,2,0,L|275:32,1,55,10|2,0:0|0:0,0:0:0:0:
295,75,155855,2,0,L|357:60,1,55,2|2,0:0|0:0,0:0:0:0:
400,44,156275,1,2,3:2:0:0:
471,127,156694,2,0,P|471:153|458:182,1,55,2|2,0:0|3:2,0:0:0:0:
412,208,157114,1,10,0:0:0:0:
478,295,157534,1,2,0:0:0:0:
376,336,157953,6,0,B|324:354|324:354|266:323,1,110,6|2,3:2|0:0,0:0:0:0:
242,291,158583,1,0,3:2:0:0:
242,291,158792,2,0,L|184:305,1,55,10|2,0:0|0:0,0:0:0:0:
134,317,159212,1,2,0:0:0:0:
26,342,159631,2,0,P|15:321|19:274,1,55,2|2,0:0|0:0,0:0:0:0:
53,252,160051,2,0,P|63:231|60:186,1,55,2|2,3:2|0:0,0:0:0:0:
40,149,160471,2,0,P|29:128|32:86,1,55,10|2,0:0|3:2,0:0:0:0:
57,50,160890,1,2,0:0:0:0:
137,107,161310,5,2,0:0:0:0:
149,350,174759,5,6,3:2:0:0:
75,268,175178,2,0,P|60:240|80:167,1,110,2|8,0:0|0:0,0:0:0:0:
174,222,176017,2,0,L|230:232,1,55,2|2,0:0|0:0,0:0:0:0:
283,238,176437,1,2,3:2:0:0:
359,316,176856,2,0,P|382:316|412:295,1,55,2|2,0:0|3:2,0:0:0:0:
437,252,177276,2,0,L|421:192,1,55,10|2,0:0|0:0,0:0:0:0:
459,157,177696,2,0,L|472:103,1,55,2|2,0:0|0:0,0:0:0:0:
444,56,178115,5,6,3:2:0:0:
348,109,178535,2,0,B|313:129|313:129|243:110,1,110,2|8,0:0|0:0,0:0:0:0:
161,39,179374,2,0,P|139:35|100:51,1,55,2|2,0:0|3:2,0:0:0:0:
76,89,179793,2,0,P|80:111|62:151,1,55,2|2,0:0|0:0,0:0:0:0:
39,187,180213,1,2,3:2:0:0:
107,273,180633,2,0,B|218:253,1,110,10|2,0:0|0:0,0:0:0:0:
324,238,181472,5,6,3:2:0:0:
392,151,181891,2,0,P|441:143|503:190,1,110,2|8,0:0|0:0,0:0:0:0:
502,226,182521,2,0,L|483:338,1,110,2|0,0:0|0:0,0:0:0:0:
431,353,183150,2,0,B|398:329|398:329|330:347,1,110,2|2,3:2|0:0,0:0:0:0:
283,369,183779,1,2,3:2:0:0:
283,369,183989,1,8,0:0:0:0:
198,298,184409,2,0,P|168:295|132:312,1,55,2|0,0:0|0:0,0:0:0:0:
94,325,184828,6,0,P|52:288|69:220,1,110,6|2,3:2|0:0,0:0:0:0:
94,198,185458,2,0,L|83:133,1,55,2|8,3:2|0:0,0:0:0:0:
81,93,185877,1,2,0:0:0:0:
81,93,186087,1,2,0:0:0:0:
156,13,186507,2,0,P|208:4|257:45,1,110,2|2,0:0|3:2,0:0:0:0:
279,83,187136,2,0,L|396:62,1,110,2|0,0:0|3:2,0:0:0:0:
440,50,187765,2,0,P|463:62|488:111,1,55,2|0,0:0|0:0,0:0:0:0:
501,129,188185,5,6,3:2:0:0:
433,201,188605,2,0,L|367:181,2,55,2|0|8,0:0|3:2|0:0,0:0:0:0:
453,246,189234,2,0,P|453:309|404:355,1,110,2|0,0:0|0:0,0:0:0:0:
382,368,189863,1,0,3:2:0:0:
295,319,190283,2,0,L|315:253,2,55,2|0|8,0:0|3:2|0:0,0:0:0:0:
251,342,190912,2,0,P|197:349|151:310,1,110,2|0,0:0|0:0,0:0:0:0:
119,281,191542,5,0,3:2:0:0:
150,187,191961,2,0,L|130:121,2,55,2|0|8,0:0|3:2|0:0,0:0:0:0:
197,201,192590,2,0,P|251:208|297:169,1,110,2|0,0:0|3:2,0:0:0:0:
321,135,193220,1,0,0:0:0:0:
289,41,193640,2,0,B|255:49|255:49|235:80|235:80|188:94,1,110,2|8,3:2|0:0,0:0:0:0:
159,69,194269,1,0,3:2:0:0:
159,69,194479,1,2,0:0:0:0:
76,123,194898,5,2,3:2:0:0:
113,214,195318,2,0,L|172:200,2,55,2|0|8,0:0|3:2|0:0,0:0:0:0:
82,252,195947,2,0,P|63:300|102:359,1,110,2|0,0:0|0:0,0:0:0:0:
128,377,196577,1,0,3:2:0:0:
202,311,196996,2,0,L|188:252,2,55,2|0|8,0:0|3:2|0:0,0:0:0:0:
241,340,197625,2,0,P|295:347|341:311,1,110,2|0,0:0|0:0,0:0:0:0:
365,274,198255,5,0,3:2:0:0:
412,187,198675,2,0,L|481:201,2,55,2|0|8,0:0|3:2|0:0,0:0:0:0:
395,140,199304,2,0,P|346:127|288:166,1,110,2|0,0:0|3:2,0:0:0:0:
255,181,199933,2,0,L|118:159,1,110,0|2,0:0|3:2,0:0:0:0:
95,84,200772,1,10,0:0:0:0:
95,84,200982,2,0,L|232:62,1,110,0|0,3:2|0:0,0:0:0:0:
252,55,201612,5,2,0:0:0:0:
