osu file format v14

[General]
AudioFilename: audio.mp3
AudioLeadIn: 0
PreviewTime: 41364
Countdown: 0
SampleSet: Soft
StackLeniency: 0.4
Mode: 0
LetterboxInBreaks: 0
WidescreenStoryboard: 1

[Editor]
DistanceSpacing: 0.2
BeatDivisor: 16
GridSize: 32
TimelineZoom: 1.9

[Metadata]
Title:Righteous
TitleUnicode:Righteous
Artist:Juice WRLD
ArtistUnicode:Juice WRLD
Creator:Smoke
Version:Insane
Source:
Tags:hip hop hip-hop rap world english legends never die jasontime jasontime12345
BeatmapID:2604746
BeatmapSetID:1253361

[Difficulty]
HPDrainRate:4.8
CircleSize:4.4
OverallDifficulty:7.7
ApproachRate:8
SliderMultiplier:2.8
SliderTickRate:1

[Events]
//Background and Video events
0,0,"juice wrld righteous wallpaper.jpg",0,0
//Break Periods
2,94358,106854
2,121230,123637
2,161510,174009
//Storyboard Layer 0 (Background)
//Storyboard Layer 1 (Fail)
//Storyboard Layer 2 (Pass)
//Storyboard Layer 3 (Foreground)
//Storyboard Layer 4 (Overlay)
//Storyboard Sound Samples

[TimingPoints]
27026,839.160839160839,4,2,1,70,1,0
27026,-100,4,2,1,70,0,0
27078,-100,4,2,1,55,0,0
27235,-100,4,2,1,70,0,0
30435,-100,4,2,1,55,0,0
30592,-100,4,2,1,70,0,0
33791,-100,4,2,1,55,0,0
33948,-100,4,2,1,70,0,0
37148,-100,4,2,1,55,0,0
37305,-100,4,2,1,70,0,0
40505,-100,4,2,1,55,0,0
40662,-100,4,2,1,70,0,0
43861,-100,4,2,1,55,0,0
44018,-100,4,2,1,70,0,0
47060,-100,4,2,1,5,0,0
47165,-100,4,2,1,70,0,0
47218,-100,4,2,1,55,0,0
47375,-100,4,2,1,70,0,0
50574,-100,4,2,1,55,0,0
50731,-100,4,2,1,70,0,0
53879,-125,4,2,1,60,0,0
57550,-125,4,2,1,5,0,0
57655,-125,4,2,1,60,0,0
67305,-100,4,2,1,70,0,0
94158,-100,4,2,1,50,0,0
107604,839.160839160839,4,2,1,70,1,0
107604,-100,4,2,1,70,0,0
107656,-100,4,2,1,55,0,0
107813,-100,4,2,1,70,0,0
111013,-100,4,2,1,55,0,0
111170,-100,4,2,1,70,0,0
114211,-100,4,2,1,70,0,0
114212,-100,4,2,1,5,0,0
114317,-100,4,2,1,70,0,0
114369,-100,4,2,1,55,0,0
114526,-100,4,2,1,70,0,0
117726,-100,4,2,1,55,0,0
117883,-100,4,2,1,70,0,0
121031,-100,4,2,1,50,0,0
124387,-142.857142857143,4,2,1,55,0,0
125016,-142.857142857143,4,2,1,5,0,0
125226,-100,4,2,1,60,0,0
134457,-111.111111111111,4,2,1,50,0,0
143583,-111.111111111111,4,2,1,50,0,0
143687,-111.111111111111,4,2,1,50,0,0
145261,-111.111111111111,4,2,1,50,0,0
145366,-111.111111111111,4,2,1,50,0,0
145680,-111.111111111111,4,2,1,50,0,0
145785,-111.111111111111,4,2,1,50,0,0
147883,-100,4,2,1,70,0,0
149876,-100,4,2,1,5,0,0
149981,-100,4,2,1,70,0,0
152394,-100,4,2,1,5,0,0
152499,-100,4,2,1,70,0,0
153233,-100,4,2,1,5,0,0
153338,-100,4,2,1,70,0,0
159946,-100,4,2,1,5,0,0
160051,-100,4,2,1,70,0,0
160366,-100,4,2,1,5,0,0
160471,-100,4,2,1,70,0,0
161310,-100,4,2,1,50,0,0
174759,839.160839160839,4,2,1,70,1,0
174759,-100,4,2,1,70,0,0
174811,-100,4,2,1,55,0,0
174968,-100,4,2,1,70,0,0
178168,-100,4,2,1,55,0,0
178325,-100,4,2,1,70,0,0
181367,-100,4,2,1,5,0,0
181472,-100,4,2,1,70,0,0
181524,-100,4,2,1,55,0,0
181681,-100,4,2,1,70,0,0
184881,-100,4,2,1,55,0,0
185038,-100,4,2,1,70,0,0
188185,-111.111111111111,4,2,1,55,0,0
201612,-111.111111111111,4,2,1,50,0,0
215038,-111.111111111111,4,2,1,40,0,0

[Colours]
Combo1 : 136,136,136
Combo2 : 170,170,170

[HitObjects]
75,317,27026,6,0,L|79:343,4,17.5,4|0|0|0|0,3:2|0:0|0:0|0:0|0:0,0:0:0:0:
150,217,27445,2,0,L|246:235,1,70,2|0,0:0|3:2,0:0:0:0:
38,197,27865,1,8,0:0:0:0:
137,121,28074,2,0,L|278:145,1,140,2|0,0:0|0:0,0:0:0:0:
425,217,28704,1,2,3:2:0:0:
370,69,28914,1,2,0:0:0:0:
425,231,29123,1,2,0:0:0:0:
478,78,29333,1,2,3:2:0:0:
337,216,29543,2,0,P|337:259|362:300,1,70,10|2,0:0|0:0,0:0:0:0:
487,367,29963,2,0,P|499:334|497:299,1,70,2|2,0:0|0:0,0:0:0:0:
447,139,30382,6,0,L|453:110,4,17.5,6|0|0|0|0,3:2|0:0|0:0|0:0|0:0,0:0:0:0:
337,216,30802,2,0,L|244:198,1,70,2|0,0:0|3:2,0:0:0:0:
197,99,31221,2,0,L|265:85,1,70,8|2,0:0|0:0,0:0:0:0:
169,198,31641,2,0,P|153:231|160:282,1,70,2|0,0:0|3:2,0:0:0:0:
19,120,32060,1,2,0:0:0:0:
57,271,32270,1,2,0:0:0:0:
103,99,32480,1,2,3:2:0:0:
0,208,32690,1,2,0:0:0:0:
48,27,32900,2,0,P|80:9|131:16,1,70,10|2,0:0|3:2,0:0:0:0:
252,124,33319,2,0,P|217:123|187:105,1,70,2|2,0:0|0:0,0:0:0:0:
340,17,33739,6,0,L|336:0,4,17.5,6|0|0|0|0,3:2|0:0|0:0|0:0|0:0,0:0:0:0:
443,100,34158,2,0,L|424:189,1,70,2|0,0:0|3:2,0:0:0:0:
442,291,34578,2,0,L|353:272,1,70,8|2,0:0|0:0,0:0:0:0:
258,194,34998,2,0,L|326:179,1,70,2|0,0:0|0:0,0:0:0:0:
228,298,35417,1,2,3:2:0:0:
172,156,35627,1,2,0:0:0:0:
233,309,35837,2,0,L|147:294,1,70,2|0,0:0|3:2,0:0:0:0:
29,357,36256,2,0,B|64:317|64:317|49:210,1,140,10|2,0:0|0:0,0:0:0:0:
33,105,36886,1,2,0:0:0:0:
172,156,37095,6,0,L|176:139,4,17.5,6|0|0|0|0,3:2|0:0|0:0|0:0|0:0,0:0:0:0:
155,1,37515,2,0,P|133:33|136:76,1,70,2|0,0:0|3:2,0:0:0:0:
261,114,37935,2,0,P|243:79|204:60,1,70,8|2,0:0|0:0,0:0:0:0:
89,163,38354,2,0,L|75:250,1,70,2|0,0:0|3:2,0:0:0:0:
143,367,38774,1,2,0:0:0:0:
11,305,38984,1,2,0:0:0:0:
164,262,39193,1,2,3:2:0:0:
0,304,39403,1,2,0:0:0:0:
157,376,39613,2,0,P|189:378|233:350,1,70,10|2,0:0|3:2,0:0:0:0:
329,251,40032,2,0,P|298:235|263:236,1,70,2|2,0:0|0:0,0:0:0:0:
396,357,40452,6,0,L|400:374,4,17.5,6|0|0|0|0,3:2|0:0|0:0|0:0|0:0,0:0:0:0:
480,272,40872,2,0,L|461:194,1,70,2|0,0:0|3:2,0:0:0:0:
382,82,41291,2,0,L|365:150,1,70,8|0,0:0|0:0,0:0:0:0:
323,334,41711,1,2,0:0:0:0:
278,113,41921,1,2,0:0:0:0:
228,324,42130,1,2,3:2:0:0:
365,149,42340,1,2,0:0:0:0:
171,230,42550,2,0,P|130:229|94:203,1,70,2|2,0:0|3:2,0:0:0:0:
278,113,42969,1,10,0:0:0:0:
228,324,43179,1,2,0:0:0:0:
172,92,43389,1,2,0:0:0:0:
323,306,43599,1,2,0:0:0:0:
386,96,43809,6,0,L|403:100,4,17.5,6|0|0|0|0,3:2|0:0|0:0|0:0|0:0,0:0:0:0:
291,200,44228,2,0,L|376:188,1,70,2|2,0:0|3:2,0:0:0:0:
499,317,44648,2,0,L|414:305,1,70,8|0,0:0|0:0,0:0:0:0:
240,333,45067,1,2,0:0:0:0:
360,190,45277,1,2,3:2:0:0:
346,365,45487,2,0,L|332:276,1,70,2|2,0:0|0:0,0:0:0:0:
196,143,45907,1,2,3:2:0:0:
360,190,46116,1,2,0:0:0:0:
180,264,46326,2,0,L|91:250,1,70,10|0,0:0|3:2,0:0:0:0:
186,76,46746,1,2,0:0:0:0:
186,76,46851,2,0,P|199:110|184:164,1,70,2|0,0:0|0:0,0:0:0:0:
151,164,47165,6,0,L|133:161,4,17.5,6|0|0|0|0,3:2|0:0|0:0|0:0|0:0,0:0:0:0:
282,246,47585,2,0,L|371:232,1,70,2|0,0:0|3:2,0:0:0:0:
204,308,48005,1,8,0:0:0:0:
304,150,48214,2,0,L|459:126,1,140,2|0,0:0|0:0,0:0:0:0:
512,317,48844,2,0,B|469:310|469:310|421:336|421:336|364:326,1,140,2|2,3:2|0:0,0:0:0:0:
204,308,49473,1,2,3:2:0:0:
398,243,49683,2,0,L|308:224,1,70,8|0,0:0|0:0,0:0:0:0:
163,141,50102,2,0,L|231:126,1,70,2|0,0:0|0:0,0:0:0:0:
106,288,50522,6,0,L|103:306,4,17.5,6|0|0|0|0,3:2|0:0|0:0|0:0|0:0,0:0:0:0:
3,178,50942,1,2,0:0:0:0:
3,178,51151,2,0,L|71:192,1,70,2|8,3:2|0:0,0:0:0:0:
227,261,51571,1,2,0:0:0:0:
37,302,51781,2,0,L|105:288,1,70,2|0,0:0|3:2,0:0:0:0:
209,176,52200,2,0,B|252:164|288:187|270:197|302:219|348:202,1,140,2|2,0:0|3:2,0:0:0:0:
485,135,52830,1,2,0:0:0:0:
341,46,53039,2,0,L|329:128,1,70,8|0,0:0|3:2,0:0:0:0:
439,276,53459,2,0,L|428:206,1,70,2|0,0:0|0:0,0:0:0:0:
277,321,53879,6,0,P|222:333|135:274,1,168,6|2,0:0|0:0,0:0:0:0:
51,307,54718,2,0,L|37:236,1,56,8|0,0:0|0:0,0:0:0:0:
103,189,55137,2,0,B|70:156|70:156|88:78,1,112,2|0,0:0|0:0,0:0:0:0:
48,0,55767,2,0,L|218:32,1,168,2|10,0:0|0:0,0:0:0:0:
213,31,56816,1,2,0:0:0:0:
343,153,57235,6,0,P|367:115|351:56,1,84,2|2,0:0|0:0,0:0:0:0:
359,74,57655,1,0,0:0:0:0:
442,23,57865,1,2,0:0:0:0:
442,23,58074,2,0,L|460:89,1,56,8|0,0:0|0:0,0:0:0:0:
509,150,58494,2,0,L|485:270,1,112,2|0,0:0|0:0,0:0:0:0:
507,349,59123,2,0,P|467:303|362:315,1,168,2|10,0:0|0:0,0:0:0:0:
218,209,60172,2,0,L|238:288,1,56,2|0,0:0|0:0,0:0:0:0:
140,340,60592,6,0,L|96:158,1,168,2|2,0:0|0:0,0:0:0:0:
160,109,61431,2,0,P|186:95|225:99,1,56,8|0,0:0|0:0,0:0:0:0:
292,135,61851,2,0,B|336:154|336:154|409:129,1,112,2|0,0:0|0:0,0:0:0:0:
481,194,62480,2,0,P|439:147|476:51,1,168,2|10,0:0|0:0,0:0:0:0:
297,2,63529,2,0,L|315:68,1,56,2|0,0:0|0:0,0:0:0:0:
342,150,63949,6,0,P|290:91|194:131,1,168,2|2,0:0|0:0,0:0:0:0:
157,181,64788,2,0,P|172:210|170:248,1,56,8|0,0:0|0:0,0:0:0:0:
83,274,65207,2,0,B|45:230|45:230|65:165,1,112,2|0,0:0|0:0,0:0:0:0:
0,87,65837,2,0,L|174:56,1,168,2|10,0:0|0:0,0:0:0:0:
165,57,66886,2,0,P|199:73|235:70,1,56,2|0,0:0|0:0,0:0:0:0:
385,0,67305,6,0,B|346:43|346:43|372:152,1,140,6|0,3:2|0:0,0:0:0:0:
453,193,67935,2,0,P|459:228|440:271,1,70,2|8,3:2|0:0,0:0:0:0:
343,324,68354,2,0,B|213:303|213:303|176:339|123:322,1,210,2|0,0:0|3:2,0:0:0:0:
25,217,69193,2,0,L|42:304,1,70,2|0,0:0|0:0,0:0:0:0:
220,199,69613,1,0,3:2:0:0:
136,118,69823,2,0,L|119:205,1,70,10|0,0:0|0:0,0:0:0:0:
291,295,70242,2,0,L|305:227,1,70,2|0,0:0|0:0,0:0:0:0:
469,94,70662,6,0,B|428:101|396:74|422:70|389:40|334:50,1,140,6|2,3:2|0:0,0:0:0:0:
225,176,71291,1,2,3:2:0:0:
400,237,71501,2,0,P|399:202|383:170,1,70,8|0,0:0|0:0,0:0:0:0:
247,83,71921,1,2,0:0:0:0:
290,258,72130,2,0,L|304:331,1,70,0|0,3:2|0:0,0:0:0:0:
383,171,72550,1,2,0:0:0:0:
199,258,72760,2,0,L|126:244,1,70,0|0,3:2|0:0,0:0:0:0:
20,116,73179,1,10,0:0:0:0:
20,116,73389,2,0,B|61:87|61:87|172:110,1,140,0|0,3:2|0:0,0:0:0:0:
345,12,74019,6,0,P|295:65|309:148,1,140,6|0,3:2|0:0,0:0:0:0:
391,254,74648,1,2,3:2:0:0:
449,89,74858,2,0,P|413:84|366:110,1,70,8|0,0:0|0:0,0:0:0:0:
255,212,75277,2,0,B|167:198|167:198|135:219|97:198,1,140,2|0,0:0|3:2,0:0:0:0:
3,302,75907,2,0,B|54:293|54:293|92:317|92:317|151:309,1,140,2|0,0:0|3:2,0:0:0:0:
329,368,76536,2,0,B|326:327|300:305|300:305|262:310|236:369,1,140,10|0,0:0|0:0,0:0:0:0:
108,78,77375,6,0,B|86:155|86:155|120:209,1,140,6|0,3:2|0:0,0:0:0:0:
319,97,78005,1,2,3:2:0:0:
194,26,78214,2,0,L|206:101,1,70,8|2,0:0|0:0,0:0:0:0:
234,267,78634,2,0,L|222:197,1,70,2|0,0:0|3:2,0:0:0:0:
222,197,79263,1,2,0:0:0:0:
330,242,79473,2,0,P|366:245|415:214,1,70,2|0,3:2|0:0,0:0:0:0:
404,43,79893,1,10,0:0:0:0:
404,43,80102,2,0,P|351:87|366:170,1,140,0|0,3:2|0:0,0:0:0:0:
501,337,80732,6,0,B|424:323|424:323|395:351|349:338,1,140,6|2,3:2|0:0,0:0:0:0:
234,220,81361,1,2,3:2:0:0:
353,153,81571,2,0,L|333:239,1,70,8|0,0:0|0:0,0:0:0:0:
159,317,81991,2,0,L|125:174,1,140,2|0,0:0|3:2,0:0:0:0:
261,47,82620,2,0,B|215:80|215:80|123:59,1,140,2|0,0:0|3:2,0:0:0:0:
20,212,83249,2,0,B|-9:188|-5:154|-5:154|54:131|114:153|142:202,1,210,10|0,0:0|0:0,0:0:0:0:
35,333,84088,6,0,L|195:311,1,140,2|2,3:2|0:0,0:0:0:0:
269,154,84718,2,0,P|241:181|232:219,1,70,2|8,3:2|0:0,0:0:0:0:
321,358,85137,1,2,0:0:0:0:
173,313,85347,1,2,0:0:0:0:
320,232,85557,2,0,L|390:242,1,70,0|0,3:2|0:0,0:0:0:0:
512,259,85977,1,2,0:0:0:0:
436,123,86186,2,0,L|366:133,1,70,0|0,3:2|0:0,0:0:0:0:
231,216,86606,1,10,0:0:0:0:
389,241,86816,1,0,3:2:0:0:
256,107,87025,2,0,L|186:117,1,70,2|0,0:0|0:0,0:0:0:0:
38,246,87445,6,0,B|64:230|71:197|71:197|31:167|50:102,1,140,6|2,3:2|0:0,0:0:0:0:
25,22,88074,2,0,P|60:20|102:41,1,70,2|8,3:2|0:0,0:0:0:0:
186,116,88494,1,2,0:0:0:0:
255,28,88704,2,0,P|311:-8|396:24,1,140,2|0,0:0|3:2,0:0:0:0:
456,88,89333,2,0,L|425:229,1,140,2|0,0:0|3:2,0:0:0:0:
478,375,89963,2,0,B|508:366|506:327|506:327|415:285|362:353,1,210,10|0,0:0|0:0,0:0:0:0:
217,186,90802,6,0,B|254:231|254:231|233:319,1,140,6|2,3:2|0:0,0:0:0:0:
71,366,91431,2,0,L|58:293,1,70,2|8,3:2|0:0,0:0:0:0:
31,132,91851,1,2,0:0:0:0:
148,256,92060,1,2,0:0:0:0:
130,90,92270,2,0,L|117:158,1,70,0|0,3:2|0:0,0:0:0:0:
157,351,92690,1,2,0:0:0:0:
265,229,92900,2,0,L|333:213,1,70,0|0,3:2|0:0,0:0:0:0:
490,353,93319,1,10,0:0:0:0:
320,318,93529,1,0,3:2:0:0:
437,194,93739,2,0,L|423:263,1,70,2|0,0:0|0:0,0:0:0:0:
396,384,94158,5,2,0:0:0:0:
74,346,107604,6,0,L|78:363,4,17.5,6|0|0|0|0,3:2|0:0|0:0|0:0|0:0,0:0:0:0:
180,251,108024,2,0,P|209:248|249:265,1,70,2|0,0:0|3:2,0:0:0:0:
392,358,108443,2,0,L|378:289,1,70,8|0,0:0|0:0,0:0:0:0:
335,74,108863,1,2,0:0:0:0:
466,244,109073,1,2,0:0:0:0:
416,37,109282,1,2,3:2:0:0:
322,211,109492,1,2,0:0:0:0:
512,150,109702,2,0,L|439:139,1,70,2|2,0:0|3:2,0:0:0:0:
257,108,110121,1,10,0:0:0:0:
465,245,110331,1,2,0:0:0:0:
242,314,110541,1,2,0:0:0:0:
356,116,110751,1,2,0:0:0:0:
397,337,110961,6,0,L|402:358,4,17.5,6|0|0|0|0,3:2|0:0|0:0|0:0|0:0,0:0:0:0:
242,199,111380,2,0,L|157:187,1,70,2|0,0:0|3:2,0:0:0:0:
70,41,111800,2,0,L|0:50,1,70,8|0,0:0|0:0,0:0:0:0:
86,233,112219,1,2,0:0:0:0:
161,57,112429,1,2,3:2:0:0:
14,184,112639,2,0,P|-1:216|0:253,1,70,2|2,0:0|0:0,0:0:0:0:
132,308,113059,1,2,3:2:0:0:
86,126,113268,1,2,0:0:0:0:
136,318,113478,2,0,L|214:331,1,70,10|0,0:0|3:2,0:0:0:0:
328,192,113898,1,2,0:0:0:0:
328,192,114003,2,0,L|240:204,1,70,2|0,0:0|0:0,0:0:0:0:
213,206,114317,6,0,L|195:203,4,17.5,6|0|0|0|0,3:2|0:0|0:0|0:0|0:0,0:0:0:0:
326,292,114737,2,0,L|415:279,1,70,2|0,0:0|3:2,0:0:0:0:
512,265,115157,1,8,0:0:0:0:
407,122,115366,2,0,P|350:87|264:104,1,140,2|0,0:0|0:0,0:0:0:0:
98,194,115996,2,0,B|74:168|74:168|100:110|173:132,1,140,2|2,3:2|0:0,0:0:0:0:
328,192,116625,1,2,3:2:0:0:
198,289,116835,2,0,L|188:219,1,70,8|0,0:0|0:0,0:0:0:0:
294,26,117254,2,0,L|279:93,1,70,2|0,0:0|0:0,0:0:0:0:
88,40,117674,6,0,L|91:58,4,17.5,6|0|0|0|0,3:2|0:0|0:0|0:0|0:0,0:0:0:0:
42,174,118094,1,2,0:0:0:0:
42,174,118303,2,0,P|74:195|110:196,1,70,2|8,3:2|0:0,0:0:0:0:
260,110,118723,1,2,0:0:0:0:
88,40,118933,2,0,L|102:108,1,70,2|0,0:0|3:2,0:0:0:0:
245,202,119352,2,0,B|288:214|324:191|306:181|338:159|384:176,1,140,2|2,0:0|3:2,0:0:0:0:
491,241,119982,1,2,0:0:0:0:
373,321,120191,2,0,L|288:307,1,70,8|0,0:0|3:2,0:0:0:0:
198,359,120610,2,0,L|113:345,1,70,2|0,0:0|0:0,0:0:0:0:
41,373,121030,5,0,0:0:0:0:
422,24,124387,6,0,P|438:99|389:93,1,146.999995513916,2|0,0:0|0:0,0:0:0:0:
334,30,125226,6,0,L|236:47,1,70,8|0,0:0|0:0,0:0:0:0:
142,151,125645,2,0,L|210:162,1,70,2|0,0:0|3:2,0:0:0:0:
86,70,126065,2,0,B|55:80|34:110|34:110|58:199,1,140,2|0,0:0|3:2,0:0:0:0:
5,348,126904,1,10,0:0:0:0:
5,348,127114,2,0,P|59:303|142:320,1,140,0|0,3:2|0:0,0:0:0:0:
330,382,127743,6,0,B|294:334|294:334|335:167,1,210,6|0,3:2|3:2,0:0:0:0:
392,314,128583,2,0,L|407:244,1,70,8|0,0:0|0:0,0:0:0:0:
496,172,129002,2,0,L|482:104,1,70,2|0,0:0|0:0,0:0:0:0:
270,10,129422,2,0,B|231:56|273:109|330:115|404:51,1,210,2|0,3:2|3:2,0:0:0:0:
500,261,130261,2,0,P|443:210|309:230,1,210,10|0,0:0|0:0,0:0:0:0:
220,303,131100,6,0,L|239:397,2,70,6|2|2,3:2|0:0|0:0,0:0:0:0:
151,239,131729,1,0,3:2:0:0:
151,239,131939,2,0,L|164:170,1,70,8|0,0:0|0:0,0:0:0:0:
224,57,132359,2,0,L|155:43,1,70,2|0,0:0|3:2,0:0:0:0:
26,191,132778,2,0,L|180:167,1,140,2|0,0:0|3:2,0:0:0:0:
406,315,133617,1,10,0:0:0:0:
406,315,133827,2,0,B|366:290|366:290|350:239|400:199,1,140,0|0,3:2|0:0,0:0:0:0:
512,197,134457,6,0,P|423:187|468:65,1,251.999992309571,2|8,0:0|0:0,0:0:0:0:
460,66,135715,1,2,0:0:0:0:
359,13,136135,2,0,L|225:37,1,125.999996154785,2|2,0:0|0:0,0:0:0:0:
125,151,136974,2,0,B|157:149|177:109|177:109|134:40|57:83,1,188.999994232178,10|0,0:0|0:0,0:0:0:0:
132,161,137813,6,0,B|165:209|165:209|134:345,1,188.999994232178,2|2,0:0|0:0,0:0:0:0:
135,336,138652,1,10,0:0:0:0:
352,267,139492,1,2,0:0:0:0:
267,190,139911,2,0,L|239:321,1,125.999996154785,2|8,0:0|0:0,0:0:0:0:
467,353,140750,2,0,L|426:150,1,188.999994232178,2|0,0:0|0:0,0:0:0:0:
356,128,141590,5,2,0:0:0:0:
425,23,142009,1,10,0:0:0:0:
356,128,142429,1,2,0:0:0:0:
244,70,142848,1,2,0:0:0:0:
138,136,143268,1,2,0:0:0:0:
136,150,143373,1,2,0:0:0:0:
50,101,143687,1,10,0:0:0:0:
10,220,144107,2,0,L|30:353,1,125.999996154785,2|2,0:0|0:0,0:0:0:0:
145,292,144946,5,2,0:0:0:0:
142,276,145051,1,2,0:0:0:0:
238,324,145366,1,10,0:0:0:0:
236,338,145471,1,2,0:0:0:0:
320,275,145785,1,2,0:0:0:0:
445,317,146205,2,0,L|463:192,1,125.999996154785,2|2,0:0|0:0,0:0:0:0:
478,108,146834,1,2,0:0:0:0:
478,108,147044,1,10,0:0:0:0:
320,187,147464,2,0,P|292:170|254:168,1,62.9999980773926,2|0,0:0|0:0,0:0:0:0:
50,323,147883,6,0,B|23:275|56:225|117:210|170:265|191:305,1,210,6|0,3:2|3:2,0:0:0:0:
303,371,148722,2,0,L|293:295,1,70,10|0,0:0|0:0,0:0:0:0:
423,187,149142,2,0,L|413:256,1,70,2|0,0:0|0:0,0:0:0:0:
213,134,149562,1,2,3:2:0:0:
213,134,149666,2,0,P|248:116|295:127,1,70,2|0,0:0|0:0,0:0:0:0:
318,139,149981,2,0,L|327:208,1,70,2|0,0:0|3:2,0:0:0:0:
219,356,150401,1,10,0:0:0:0:
136,186,150610,1,2,0:0:0:0:
46,331,150820,2,0,L|115:321,1,70,2|0,0:0|0:0,0:0:0:0:
253,234,151240,6,0,L|408:259,1,140,6|2,3:2|0:0,0:0:0:0:
512,180,151869,1,0,3:2:0:0:
395,87,152079,1,10,0:0:0:0:
395,87,152184,2,0,P|379:116|383:170,1,70,2|0,0:0|0:0,0:0:0:0:
416,176,152499,2,0,L|500:162,1,70,2|0,0:0|3:2,0:0:0:0:
267,41,152918,1,2,0:0:0:0:
267,41,153023,2,0,P|283:70|279:124,1,70,2|0,0:0|0:0,0:0:0:0:
246,130,153338,2,0,L|162:116,1,70,2|0,3:2|0:0,0:0:0:0:
0,92,153757,1,10,0:0:0:0:
126,219,153967,1,2,3:2:0:0:
97,48,154177,2,0,L|85:130,1,70,2|0,0:0|0:0,0:0:0:0:
14,364,154597,6,0,B|-8:323|-8:323|29:282|81:296,1,140,6|2,3:2|0:0,0:0:0:0:
242,359,155226,1,0,3:2:0:0:
160,215,155436,1,10,0:0:0:0:
246,369,155645,1,2,0:0:0:0:
283,179,155855,1,2,0:0:0:0:
163,321,156065,1,2,0:0:0:0:
203,129,156275,2,0,L|221:42,1,70,2|0,3:2|0:0,0:0:0:0:
283,179,156694,1,2,0:0:0:0:
120,87,156904,1,2,3:2:0:0:
303,5,157114,2,0,L|317:73,1,70,10|0,0:0|0:0,0:0:0:0:
188,197,157534,2,0,L|202:129,1,70,2|0,0:0|0:0,0:0:0:0:
5,9,157953,6,0,L|39:165,1,140,6|2,3:2|0:0,0:0:0:0:
79,318,158583,1,0,3:2:0:0:
124,120,158792,1,10,0:0:0:0:
0,249,159002,1,2,0:0:0:0:
188,197,159212,2,0,L|277:211,1,70,2|0,0:0|3:2,0:0:0:0:
406,304,159631,1,2,0:0:0:0:
406,304,159736,2,0,L|389:228,1,70,2|0,0:0|0:0,0:0:0:0:
338,167,160051,1,2,3:2:0:0:
338,167,160156,2,0,L|355:91,1,70,2|0,0:0|0:0,0:0:0:0:
296,31,160471,1,10,0:0:0:0:
441,94,160680,1,2,3:2:0:0:
257,207,160890,2,0,L|187:217,1,70,2|0,0:0|0:0,0:0:0:0:
122,288,161310,5,2,0:0:0:0:
58,325,174759,6,0,L|62:342,4,17.5,6|0|0|0|0,3:2|0:0|0:0|0:0|0:0,0:0:0:0:
166,223,175179,6,0,P|203:221|244:242,1,70,2|0,0:0|3:2,0:0:0:0:
67,96,175598,2,0,P|32:93|0:106,1,70,8|2,0:0|0:0,0:0:0:0:
143,26,176018,1,2,0:0:0:0:
76,225,176228,1,2,0:0:0:0:
25,7,176437,1,2,3:2:0:0:
165,209,176647,1,2,0:0:0:0:
235,13,176856,2,0,L|324:26,1,70,2|2,0:0|3:2,0:0:0:0:
442,177,177276,1,10,0:0:0:0:
257,132,177486,1,2,0:0:0:0:
421,75,177696,1,2,0:0:0:0:
245,133,177906,1,2,0:0:0:0:
453,267,178116,6,0,L|472:271,4,17.5,6|0|0|0|0,3:2|0:0|0:0|0:0|0:0,0:0:0:0:
285,350,178535,2,0,P|285:318|256:281,1,70,2|2,0:0|3:2,0:0:0:0:
88,182,178955,2,0,L|3:170,1,70,8|0,0:0|0:0,0:0:0:0:
96,78,179374,1,2,0:0:0:0:
183,239,179584,1,2,3:2:0:0:
227,65,179794,2,0,L|296:54,1,70,2|2,0:0|0:0,0:0:0:0:
429,177,180214,1,2,3:2:0:0:
370,2,180423,1,2,0:0:0:0:
278,153,180633,2,0,P|271:187|299:237,1,70,10|0,0:0|3:2,0:0:0:0:
403,341,181053,1,2,0:0:0:0:
403,341,181158,2,0,P|375:317|319:312,1,70,2|0,0:0|0:0,0:0:0:0:
302,329,181472,6,0,L|284:326,4,17.5,6|0|0|0|0,3:2|0:0|0:0|0:0|0:0,0:0:0:0:
399,226,181892,2,0,L|488:212,1,70,2|0,0:0|3:2,0:0:0:0:
403,341,182312,1,8,0:0:0:0:
293,189,182521,2,0,L|138:165,1,140,2|0,0:0|0:0,0:0:0:0:
22,309,183151,2,0,B|64:326|64:326|106:276|62:221,1,140,2|2,3:2|0:0,0:0:0:0:
8,88,183780,1,2,3:2:0:0:
154,167,183990,2,0,L|244:148,1,70,8|0,0:0|0:0,0:0:0:0:
312,29,184409,2,0,L|244:14,1,70,2|0,0:0|0:0,0:0:0:0:
360,127,184829,6,0,L|363:145,4,17.5,6|0|0|0|0,3:2|0:0|0:0|0:0|0:0,0:0:0:0:
487,32,185249,1,2,0:0:0:0:
487,32,185458,2,0,L|473:100,1,70,2|8,3:2|0:0,0:0:0:0:
447,275,185878,1,2,0:0:0:0:
360,127,186088,2,0,P|326:126|292:141,1,70,2|0,0:0|3:2,0:0:0:0:
178,287,186507,2,0,B|221:275|257:298|239:308|271:330|317:313,1,140,2|2,0:0|3:2,0:0:0:0:
448,267,187137,1,2,0:0:0:0:
305,159,187346,2,0,L|293:241,1,70,8|0,0:0|3:2,0:0:0:0:
188,356,187766,2,0,L|177:286,1,70,2|0,0:0|0:0,0:0:0:0:
20,155,188185,6,0,B|-4:169|-10:192|-10:192|21:235|74:225,1,125.999996154785,6|2,3:2|0:0,0:0:0:0:
135,176,188814,1,0,3:2:0:0:
135,176,189024,1,8,0:0:0:0:
226,198,189234,2,0,L|365:231,1,125.999996154785,2|0,0:0|0:0,0:0:0:0:
463,294,189863,2,0,P|438:246|463:170,1,125.999996154785,0|2,3:2|0:0,0:0:0:0:
501,97,190493,1,0,3:2:0:0:
501,97,190703,1,8,0:0:0:0:
432,32,190912,2,0,L|287:57,1,125.999996154785,2|0,0:0|0:0,0:0:0:0:
174,143,191542,6,0,B|204:101|204:101|186:13,1,125.999996154785,0|2,3:2|0:0,0:0:0:0:
102,3,192171,1,0,3:2:0:0:
102,3,192381,1,8,0:0:0:0:
45,79,192591,2,0,P|23:130|51:202,1,125.999996154785,2|0,0:0|3:2,0:0:0:0:
109,262,193220,1,0,0:0:0:0:
271,165,193640,2,0,B|311:172|311:172|346:209|346:209|400:220,1,125.999996154785,2|8,3:2|0:0,0:0:0:0:
430,301,194269,1,0,3:2:0:0:
430,301,194479,2,0,L|354:316,1,62.9999980773926,2|0,0:0|0:0,0:0:0:0:
212,383,194898,6,0,P|241:329|208:247,1,125.999996154785,2|2,3:2|0:0,0:0:0:0:
147,316,195528,1,0,3:2:0:0:
147,316,195738,1,8,0:0:0:0:
75,255,195947,2,0,L|94:117,1,125.999996154785,2|0,0:0|0:0,0:0:0:0:
18,38,196577,2,0,L|149:17,1,125.999996154785,0|2,3:2|0:0,0:0:0:0:
228,68,197206,1,0,3:2:0:0:
228,68,197416,1,8,0:0:0:0:
310,21,197626,2,0,P|368:6|430:55,1,125.999996154785,2|0,0:0|0:0,0:0:0:0:
497,138,198255,6,0,B|465:139|455:169|455:169|481:250,1,125.999996154785,0|2,3:2|0:0,0:0:0:0:
437,323,198884,1,0,3:2:0:0:
437,323,199094,1,8,0:0:0:0:
352,281,199304,2,0,P|294:271|237:317,1,125.999996154785,2|0,0:0|3:2,0:0:0:0:
179,379,199933,2,0,P|198:327|135:276,1,125.999996154785,0|2,0:0|3:2,0:0:0:0:
10,327,200772,1,10,0:0:0:0:
10,327,200982,2,0,P|48:376|95:327,1,125.999996154785,0|0,3:2|0:0,0:0:0:0:
70,265,201612,5,2,0:0:0:0:
