osu file format v14

[General]
AudioFilename: audio.mp3
AudioLeadIn: 0
PreviewTime: 41364
Countdown: 0
SampleSet: Soft
StackLeniency: 0.4
Mode: 0
LetterboxInBreaks: 0
WidescreenStoryboard: 0

[Editor]
DistanceSpacing: 1
BeatDivisor: 16
GridSize: 32
TimelineZoom: 1.9

[Metadata]
Title:Righteous
TitleUnicode:Righteous
Artist:Juice WRLD
ArtistUnicode:Juice WRLD
Creator:Smoke
Version:Anxiety
Source:
Tags:hip hop hip-hop rap world english legends never die jasontime jasontime12345
BeatmapID:2604745
BeatmapSetID:1253361

[Difficulty]
HPDrainRate:5.2
CircleSize:4.7
OverallDifficulty:8
ApproachRate:8.2
SliderMultiplier:3.2
SliderTickRate:1

[Events]
//Background and Video events
0,0,"juice wrld righteous wallpaper.jpg",0,0
//Break Periods
2,94358,106884
2,161510,174039
//Storyboard Layer 0 (Background)
//Storyboard Layer 1 (Fail)
//Storyboard Layer 2 (Pass)
//Storyboard Layer 3 (Foreground)
//Storyboard Layer 4 (Overlay)
//Storyboard Sound Samples

[TimingPoints]
27026,839.160839160839,4,2,1,70,1,0
27026,-100,4,2,1,70,0,0
27078,-100,4,2,1,55,0,0
27235,-100,4,2,1,70,0,0
29858,-100,4,2,1,5,0,0
29963,-100,4,2,1,70,0,0
30277,-100,4,2,1,5,0,0
30382,-100,4,2,1,70,0,0
30435,-100,4,2,1,55,0,0
30592,-100,4,2,1,70,0,0
33791,-100,4,2,1,55,0,0
33948,-100,4,2,1,70,0,0
37148,-100,4,2,1,55,0,0
37305,-100,4,2,1,70,0,0
40505,-100,4,2,1,55,0,0
40662,-100,4,2,1,70,0,0
47060,-100,4,2,1,5,0,0
47165,-100,4,2,1,70,0,0
47218,-100,4,2,1,55,0,0
47375,-100,4,2,1,70,0,0
50574,-100,4,2,1,55,0,0
50731,-100,4,2,1,70,0,0
53879,-125,4,2,1,60,0,0
57550,-125,4,2,1,5,0,0
57655,-125,4,2,1,60,0,0
67305,-100,4,2,1,70,0,0
70714,-100,4,2,1,55,0,0
70871,-100,4,2,1,70,0,0
80784,-100,4,2,1,55,0,0
80941,-100,4,2,1,70,0,0
84141,-100,4,2,1,55,0,0
84298,-100,4,2,1,70,0,0
87498,-100,4,2,1,55,0,0
87655,-100,4,2,1,70,0,0
90854,-100,4,2,1,55,0,0
91011,-100,4,2,1,70,0,0
94158,-100,4,2,1,50,0,0
107604,839.160839160839,4,2,1,70,1,0
107604,-100,4,2,1,70,0,0
107656,-100,4,2,1,55,0,0
107813,-100,4,2,1,70,0,0
111013,-100,4,2,1,55,0,0
111170,-100,4,2,1,70,0,0
114211,-100,4,2,1,70,0,0
114212,-100,4,2,1,5,0,0
114317,-100,4,2,1,70,0,0
114369,-100,4,2,1,55,0,0
114526,-100,4,2,1,70,0,0
117726,-100,4,2,1,55,0,0
117883,-100,4,2,1,70,0,0
121031,-100,4,2,1,50,0,0
124387,-142.857142857143,4,2,1,55,0,0
124911,-142.857142857143,4,2,1,5,0,0
125016,-142.857142857143,4,2,1,55,0,0
125121,-142.857142857143,4,2,1,5,0,0
125226,-100,4,2,1,60,0,0
134457,-111.111111111111,4,2,1,50,0,0
143583,-111.111111111111,4,2,1,50,0,0
143687,-111.111111111111,4,2,1,50,0,0
145261,-111.111111111111,4,2,1,50,0,0
145366,-111.111111111111,4,2,1,50,0,0
145680,-111.111111111111,4,2,1,50,0,0
145785,-111.111111111111,4,2,1,50,0,0
147883,-100,4,2,1,70,0,0
149876,-100,4,2,1,5,0,0
149981,-100,4,2,1,70,0,0
151292,-100,4,2,1,55,0,0
151449,-100,4,2,1,70,0,0
152394,-100,4,2,1,5,0,0
152499,-100,4,2,1,70,0,0
153233,-100,4,2,1,5,0,0
153338,-100,4,2,1,70,0,0
154649,-100,4,2,1,55,0,0
154806,-100,4,2,1,70,0,0
158006,-100,4,2,1,55,0,0
158163,-100,4,2,1,70,0,0
159946,-100,4,2,1,5,0,0
160051,-100,4,2,1,70,0,0
160366,-100,4,2,1,5,0,0
160471,-100,4,2,1,70,0,0
161310,-100,4,2,1,50,0,0
174759,839.160839160839,4,2,1,70,1,0
174759,-100,4,2,1,70,0,0
174811,-100,4,2,1,55,0,0
174968,-100,4,2,1,70,0,0
178168,-100,4,2,1,55,0,0
178325,-100,4,2,1,70,0,0
181367,-100,4,2,1,5,0,0
181472,-100,4,2,1,70,0,0
181524,-100,4,2,1,55,0,0
181681,-100,4,2,1,70,0,0
184881,-100,4,2,1,55,0,0
185038,-100,4,2,1,70,0,0
188185,-111.111111111111,4,2,1,55,0,0
201612,-111.111111111111,4,2,1,50,0,0
215038,-111.111111111111,4,2,1,40,0,0

[Colours]
Combo1 : 136,136,136
Combo2 : 170,170,170

[HitObjects]
25,143,27026,6,0,L|20:111,4,20.0753333333333,4|0|0|0|0,3:2|0:0|0:0|0:0|0:0,0:0:0:0:
196,80,27445,2,0,L|178:165,1,80.2213333333333,2|0,0:0|3:2,0:0:0:0:
69,290,27865,1,8,0:0:0:0:
5,249,28074,2,0,B|52:274|99:249|72:239|120:213|174:246,1,160.061333333334,2|0,0:0|0:0,0:0:0:0:
330,290,28704,5,2,3:2:0:0:
303,217,28914,1,2,0:0:0:0:
455,119,29123,1,2,0:0:0:0:
432,190,29333,1,2,3:2:0:0:
295,10,29543,1,10,0:0:0:0:
295,10,29648,2,0,L|379:27,1,80,2|0,0:0|0:0,0:0:0:0:
267,93,29963,1,2,0:0:0:0:
267,93,30067,2,0,P|234:110|189:98,1,80,2|0,0:0|0:0,0:0:0:0:
125,58,30382,6,0,L|118:26,4,20.0753333333333,6|0|0|0|0,3:2|0:0|0:0|0:0|0:0,0:0:0:0:
0,216,30802,2,0,P|32:211|86:238,1,80.2213333333333,2|0,0:0|3:2,0:0:0:0:
174,363,31221,2,0,P|182:327|196:277,1,80.2213333333333,8|2,0:0|0:0,0:0:0:0:
297,170,31641,2,0,P|307:208|316:247,1,80.2213333333333,2|0,0:0|3:2,0:0:0:0:
119,111,32060,5,2,0:0:0:0:
53,63,32270,1,2,0:0:0:0:
242,3,32480,1,2,3:2:0:0:
217,95,32690,1,2,0:0:0:0:
361,56,32900,1,10,0:0:0:0:
412,128,33109,1,2,3:2:0:0:
512,100,33319,1,2,0:0:0:0:
447,212,33529,1,2,0:0:0:0:
512,342,33739,6,0,L|505:373,4,20.0753333333333,6|0|0|0|0,3:2|0:0|0:0|0:0|0:0,0:0:0:0:
349,272,34158,2,0,P|310:266|260:294,1,80.3013333333333,2|0,0:0|3:2,0:0:0:0:
146,375,34578,2,0,P|137:333|127:286,1,80.3013333333333,8|2,0:0|0:0,0:0:0:0:
18,186,34998,2,0,P|8:225|-1:265,1,80.3013333333333,2|0,0:0|0:0,0:0:0:0:
176,138,35417,5,2,3:2:0:0:
128,73,35627,1,2,0:0:0:0:
176,9,35837,2,0,P|212:-6|252:-1,1,80.3013333333333,2|0,0:0|0:0,0:0:0:0:
416,97,36256,2,0,P|363:71|356:155,1,160,10|2,0:0|0:0,0:0:0:0:
429,182,36886,1,2,0:0:0:0:
281,304,37095,6,0,L|284:324,4,20.0753333333333,6|0|0|0|0,3:2|0:0|0:0|0:0|0:0,0:0:0:0:
418,377,37515,2,0,P|449:352|463:316,1,80.3013333333333,2|0,0:0|3:2,0:0:0:0:
324,174,37935,2,0,P|329:213|354:245,1,80.3013333333333,8|2,0:0|0:0,0:0:0:0:
496,110,38354,2,0,L|407:92,1,80,2|0,0:0|3:2,0:0:0:0:
197,172,38774,5,2,0:0:0:0:
123,209,38984,1,2,0:0:0:0:
171,329,39193,1,2,3:2:0:0:
75,299,39403,1,2,0:0:0:0:
241,250,39613,1,10,0:0:0:0:
197,172,39823,1,2,3:2:0:0:
330,82,40032,1,2,0:0:0:0:
298,169,40242,1,2,0:0:0:0:
159,53,40452,6,0,L|151:23,4,20.0753333333333,6|0|0|0|0,3:2|0:0|0:0|0:0|0:0,0:0:0:0:
0,165,40872,2,0,P|39:165|75:186,1,80.3013333333333,2|0,0:0|0:0,0:0:0:0:
184,324,41291,2,0,P|192:287|205:239,1,80,8|0,0:0|0:0,0:0:0:0:
367,345,41711,1,2,0:0:0:0:
329,246,41921,1,2,0:0:0:0:
452,356,42130,5,2,3:2:0:0:
498,224,42340,1,2,0:0:0:0:
421,100,42550,1,2,0:0:0:0:
455,26,42760,1,2,3:2:0:0:
321,144,42970,1,10,0:0:0:0:
224,109,43179,1,2,0:0:0:0:
74,59,43389,1,2,0:0:0:0:
169,21,43599,1,2,0:0:0:0:
118,200,43809,6,0,L|110:232,4,20.0753333333333,6|0|0|0|0,3:2|0:0|0:0|0:0|0:0,0:0:0:0:
224,109,44228,2,0,P|264:98|316:89,1,80,2|2,0:0|3:2,0:0:0:0:
461,208,44648,2,0,P|421:198|377:189,1,80,8|0,0:0|0:0,0:0:0:0:
243,268,45067,1,2,0:0:0:0:
291,365,45277,1,2,3:2:0:0:
109,384,45487,5,2,0:0:0:0:
161,250,45697,1,2,0:0:0:0:
0,149,45907,1,2,3:2:0:0:
46,240,46116,1,2,0:0:0:0:
200,124,46326,2,0,P|240:131|281:139,1,80,10|0,0:0|3:2,0:0:0:0:
408,38,46746,1,2,0:0:0:0:
408,38,46851,2,0,P|375:58|326:53,1,80,2|0,0:0|0:0,0:0:0:0:
255,19,47165,6,0,L|247:-9,4,20.0753333333333,6|0|0|0|0,3:2|0:0|0:0|0:0|0:0,0:0:0:0:
357,156,47585,2,0,L|340:235,1,80,2|0,0:0|3:2,0:0:0:0:
266,166,48005,1,8,0:0:0:0:
375,321,48214,2,0,P|450:335|512:281,1,160.221333333333,2|0,0:0|0:0,0:0:0:0:
287,370,48844,6,0,P|250:360|210:352,1,80,2|0,3:2|0:0,0:0:0:0:
122,382,49263,1,2,0:0:0:0:
205,264,49473,1,2,3:2:0:0:
139,180,49683,2,0,P|98:188|58:198,1,80,8|0,0:0|0:0,0:0:0:0:
180,53,50102,2,0,P|223:53|264:82,1,80,2|0,0:0|0:0,0:0:0:0:
414,19,50522,6,0,L|406:-13,4,20.0753333333333,6|0|0|0|0,3:2|0:0|0:0|0:0|0:0,0:0:0:0:
505,134,50942,1,2,0:0:0:0:
440,187,51151,2,0,P|418:146|424:100,1,80,2|8,3:2|0:0,0:0:0:0:
293,241,51571,1,2,0:0:0:0:
216,202,51781,2,0,L|135:217,1,80,2|0,0:0|3:2,0:0:0:0:
13,309,52200,6,0,P|50:250|5:166,1,160,2|2,0:0|3:2,0:0:0:0:
130,66,52830,1,2,0:0:0:0:
52,5,53039,2,0,L|34:91,1,80,8|0,0:0|3:2,0:0:0:0:
130,190,53459,2,0,L|147:268,1,80,2|0,0:0|0:0,0:0:0:0:
223,80,53879,6,0,P|276:115|354:98,1,128,6|0,0:0|0:0,0:0:0:0:
441,53,54508,1,2,0:0:0:0:
441,53,54718,2,0,P|426:83|426:120,1,64.2410666666667,8|0,0:0|0:0,0:0:0:0:
504,184,55137,2,0,B|364:212,1,128,2|0,0:0|0:0,0:0:0:0:
242,300,55767,2,0,P|309:287|304:351,1,128,2|0,0:0|0:0,0:0:0:0:
164,375,56396,2,0,L|149:312,1,64,10|0,0:0|0:0,0:0:0:0:
66,233,56816,2,0,L|52:295,1,64,2|0,0:0|0:0,0:0:0:0:
184,178,57235,6,0,B|237:172|229:202|289:195,1,96,2|2,0:0|0:0,0:0:0:0:
282,202,57655,1,0,0:0:0:0:
357,151,57865,1,2,0:0:0:0:
357,151,58074,2,0,L|345:86,1,64,8|0,0:0|0:0,0:0:0:0:
232,16,58494,2,0,B|155:37|155:37|108:14,1,128.177066666667,2|0,0:0|0:0,0:0:0:0:
16,155,59123,2,0,P|5:84|58:85,1,128,2|0,0:0|0:0,0:0:0:0:
145,158,59753,2,0,L|129:220,1,64,10|0,0:0|0:0,0:0:0:0:
23,319,60172,2,0,L|6:251,1,64,2|0,0:0|0:0,0:0:0:0:
214,373,60592,6,0,B|251:362|251:362|295:379|295:379|341:367,1,128.177066666667,2|0,0:0|0:0,0:0:0:0:
421,344,61221,1,2,0:0:0:0:
421,344,61431,2,0,P|403:320|401:271,1,64,8|0,0:0|0:0,0:0:0:0:
475,198,61851,2,0,P|413:205|365:165,1,128.177066666667,2|0,0:0|0:0,0:0:0:0:
413,13,62480,2,0,B|453:53|453:53|436:135,1,128.177066666667,2|0,0:0|0:0,0:0:0:0:
289,204,63109,2,0,P|260:190|214:195,1,64.2410666666667,10|0,0:0|0:0,0:0:0:0:
128,235,63529,2,0,L|111:313,1,64.2410666666667,2|0,0:0|0:0,0:0:0:0:
1,115,63949,6,0,B|32:125|69:109|47:96|88:78|131:93,1,128.177066666667,2|0,0:0|0:0,0:0:0:0:
199,4,64578,1,2,0:0:0:0:
199,4,64788,2,0,P|196:37|220:73,1,64,8|0,0:0|0:0,0:0:0:0:
314,140,65207,2,0,P|331:79|353:19,1,128,2|0,0:0|0:0,0:0:0:0:
496,173,65837,2,0,P|479:111|413:130,1,128,2|0,0:0|0:0,0:0:0:0:
353,218,66466,2,0,P|383:220|425:198,1,64.2410666666667,10|0,0:0|0:0,0:0:0:0:
510,318,66886,2,0,P|481:305|446:307,1,64.2410666666667,2|0,0:0|0:0,0:0:0:0:
265,360,67305,6,0,B|223:373|194:342|194:342|192:289|256:278,1,160,6|0,3:2|0:0,0:0:0:0:
353,218,67935,2,0,P|331:191|336:125,1,80,2|0,3:2|0:0,0:0:0:0:
367,8,68354,2,0,P|307:57|209:37,1,160,2|0,0:0|0:0,0:0:0:0:
159,0,68984,5,0,3:2:0:0:
0,135,69193,2,0,B|48:114|92:136|69:148|110:166|168:137,1,160.221333333333,2|0,0:0|3:2,0:0:0:0:
255,250,69823,2,0,L|236:327,1,80,10|0,0:0|0:0,0:0:0:0:
149,383,70242,2,0,L|130:302,1,80,2|0,0:0|0:0,0:0:0:0:
324,188,70662,6,0,L|357:195,4,20.0753333333333,6|0|0|0|0,3:2|0:0|0:0|0:0|0:0,0:0:0:0:
409,258,71081,1,2,0:0:0:0:
235,327,71291,1,2,3:2:0:0:
348,384,71501,2,0,L|329:306,1,80,8|0,0:0|0:0,0:0:0:0:
445,78,71921,1,2,0:0:0:0:
492,132,72130,6,0,P|454:126|404:158,1,80.2213333333333,0|0,3:2|0:0,0:0:0:0:
257,18,72550,1,2,0:0:0:0:
210,72,72760,2,0,P|248:66|298:98,1,80.2213333333333,0|0,3:2|0:0,0:0:0:0:
124,192,73179,1,10,0:0:0:0:
124,192,73389,2,0,P|120:114|71:144,1,160,0|0,3:2|0:0,0:0:0:0:
0,329,74019,6,0,B|11:285|60:286|60:286|86:327|143:316,1,160,6|0,3:2|0:0,0:0:0:0:
198,271,74648,1,2,3:2:0:0:
360,359,74858,2,0,P|364:317|398:276,1,80.2213333333333,8|0,0:0|0:0,0:0:0:0:
494,188,75277,2,0,P|456:205|366:136,1,160.061333333334,2|0,0:0|3:2,0:0:0:0:
408,63,75907,6,0,L|488:72,1,80,2|0,0:0|0:0,0:0:0:0:
284,167,76326,1,0,3:2:0:0:
182,122,76536,2,0,B|134:100|134:100|30:129,1,160,10|0,0:0|0:0,0:0:0:0:
269,336,77375,6,0,P|325:282|414:304,1,160.061333333333,6|0,3:2|0:0,0:0:0:0:
352,367,78005,1,2,3:2:0:0:
186,305,78214,2,0,L|209:203,1,80,8|2,0:0|0:0,0:0:0:0:
67,131,78634,2,0,L|82:211,1,80,2|0,0:0|3:2,0:0:0:0:
81,209,79263,5,2,0:0:0:0:
20,291,79473,2,0,P|59:289|100:322,1,80.2213333333333,2|0,3:2|0:0,0:0:0:0:
259,160,79893,1,10,0:0:0:0:
259,160,80102,2,0,P|197:151|222:232,1,160,0|0,3:2|0:0,0:0:0:0:
401,326,80732,6,0,B|408:354,4,20,6|2|0|0|0,3:2|0:0|0:0|0:0|0:0,0:0:0:0:
496,260,81151,1,2,0:0:0:0:
378,122,81361,1,2,3:2:0:0:
441,62,81571,2,0,P|464:97|464:144,1,80,8|0,0:0|0:0,0:0:0:0:
277,58,81991,2,0,P|226:42|115:17,1,160,2|0,0:0|3:2,0:0:0:0:
0,167,82620,6,0,P|38:158|78:147,1,80,2|0,0:0|0:0,0:0:0:0:
181,265,83039,1,0,3:2:0:0:
109,308,83249,2,0,B|167:272|244:313|201:336|279:372|335:328,1,240.141333333333,10|0,0:0|0:0,0:0:0:0:
438,102,84088,6,0,L|430:69,4,20,6|0|0|0|0,3:2|0:0|0:0|0:0|0:0,0:0:0:0:
340,205,84508,1,2,0:0:0:0:
392,281,84718,2,0,P|411:315|408:354,1,80,2|8,3:2|0:0,0:0:0:0:
224,275,85137,1,2,0:0:0:0:
66,338,85347,1,2,0:0:0:0:
154,363,85557,6,0,L|137:280,1,80,0|0,3:2|0:0,0:0:0:0:
0,134,85977,1,2,0:0:0:0:
86,95,86186,2,0,L|73:175,1,80,0|0,3:2|0:0,0:0:0:0:
224,275,86606,1,10,0:0:0:0:
316,229,86816,1,0,3:2:0:0:
447,300,87026,2,0,P|451:260|482:219,1,79.92,2|0,0:0|0:0,0:0:0:0:
282,94,87445,6,0,L|273:57,4,20.0753333333333,6|0|0|0|0,3:2|0:0|0:0|0:0|0:0,0:0:0:0:
160,156,87865,1,2,0:0:0:0:
98,94,88074,2,0,L|114:15,1,80,2|8,3:2|0:0,0:0:0:0:
276,210,88494,1,2,0:0:0:0:
352,166,88704,2,0,B|401:140|450:163|419:172|466:194|507:175,1,160.221333333333,2|0,0:0|0:0,0:0:0:0:
287,306,89333,6,0,P|266:236|195:250,1,160,2|0,0:0|3:2,0:0:0:0:
126,366,89963,2,0,P|162:283|48:194,1,240,10|0,0:0|0:0,0:0:0:0:
213,40,90802,6,0,L|208:15,4,20.0753333333333,6|0|0|0|0,3:2|0:0|0:0|0:0|0:0,0:0:0:0:
286,89,91221,1,2,0:0:0:0:
383,30,91431,2,0,L|473:51,1,80,2|8,3:2|0:0,0:0:0:0:
512,118,91851,1,2,0:0:0:0:
390,254,92060,1,2,0:0:0:0:
481,291,92270,6,0,L|463:210,1,80,0|0,3:2|0:0,0:0:0:0:
250,322,92690,1,2,0:0:0:0:
175,275,92900,2,0,L|193:194,1,80,0|0,3:2|0:0,0:0:0:0:
135,113,93319,1,10,0:0:0:0:
287,188,93529,1,0,3:2:0:0:
95,305,93739,2,0,P|57:319|-4:302,1,80,2|0,0:0|0:0,0:0:0:0:
149,368,94158,5,2,0:0:0:0:
66,323,107604,6,0,L|58:353,4,20.0753333333333,6|0|0|0|0,3:2|0:0|0:0|0:0|0:0,0:0:0:0:
202,246,108024,6,0,P|241:246|276:266,1,80.3013333333333,2|0,0:0|0:0,0:0:0:0:
404,338,108443,2,0,P|393:302|383:253,1,80,8|0,0:0|0:0,0:0:0:0:
440,106,108863,1,2,0:0:0:0:
470,29,109073,1,2,0:0:0:0:
335,134,109282,5,2,3:2:0:0:
281,10,109492,1,2,0:0:0:0:
164,139,109702,1,2,0:0:0:0:
195,42,109912,1,2,3:2:0:0:
27,18,110122,1,10,0:0:0:0:
65,106,110331,1,2,0:0:0:0:
126,240,110541,1,2,0:0:0:0:
96,337,110751,1,2,0:0:0:0:
251,216,110961,6,0,L|283:208,4,20.0753333333333,6|0|0|0|0,3:2|0:0|0:0|0:0|0:0,0:0:0:0:
404,340,111380,2,0,P|384:305|383:266,1,80,2|2,0:0|3:2,0:0:0:0:
512,167,111800,2,0,P|472:159|428:148,1,80,8|0,0:0|0:0,0:0:0:0:
313,40,112219,1,2,0:0:0:0:
235,77,112429,1,2,3:2:0:0:
89,10,112639,5,2,0:0:0:0:
144,109,112849,1,2,0:0:0:0:
4,234,113059,1,2,3:2:0:0:
47,138,113268,1,2,0:0:0:0:
202,248,113478,2,0,P|240:241|283:233,1,80,10|0,0:0|3:2,0:0:0:0:
419,328,113898,1,2,0:0:0:0:
419,328,114003,2,0,P|386:308|337:313,1,80,2|0,0:0|0:0,0:0:0:0:
267,350,114317,6,0,L|259:378,4,20.0753333333333,6|0|0|0|0,3:2|0:0|0:0|0:0|0:0,0:0:0:0:
202,248,114737,2,0,P|196:212|185:169,1,80,2|0,0:0|3:2,0:0:0:0:
124,286,115157,1,8,0:0:0:0:
274,158,115366,2,0,P|349:144|411:198,1,160.221333333333,2|0,0:0|0:0,0:0:0:0:
500,79,115996,6,0,P|463:70|423:61,1,80,2|0,3:2|0:0,0:0:0:0:
305,29,116415,1,2,0:0:0:0:
162,108,116625,1,2,3:2:0:0:
83,58,116835,2,0,P|42:66|2:76,1,80,8|0,0:0|0:0,0:0:0:0:
140,217,117254,2,0,P|174:198|214:199,1,80,2|0,0:0|0:0,0:0:0:0:
410,299,117673,6,0,L|402:331,4,20.0753333333333,6|0|0|0|0,3:2|0:0|0:0|0:0|0:0,0:0:0:0:
318,113,118093,1,0,0:0:0:0:
420,63,118303,2,0,P|398:102|404:147,1,80,2|8,3:2|0:0,0:0:0:0:
205,273,118723,1,2,0:0:0:0:
285,292,118933,2,0,P|285:252|266:218,1,80,2|0,0:0|3:2,0:0:0:0:
34,350,119352,6,0,P|48:268|63:191,1,160,2|2,0:0|3:2,0:0:0:0:
7,33,119982,1,2,0:0:0:0:
75,70,120191,2,0,P|117:74|152:53,1,80,8|0,0:0|3:2,0:0:0:0:
230,152,120611,2,0,P|272:147|317:175,1,80,2|0,0:0|0:0,0:0:0:0:
368,207,121030,1,0,0:0:0:0:
73,123,124387,6,0,L|90:277,1,139.999995727539,2|0,0:0|0:0,0:0:0:0:
82,268,125016,2,0,L|76:224,1,27.9999991455078,0|0,0:2|0:0,0:0:0:0:
170,138,125226,6,0,L|183:228,1,80.2213333333333,8|0,0:0|0:0,0:0:0:0:
307,305,125645,2,0,L|318:225,1,80.2213333333333,2|0,0:0|3:2,0:0:0:0:
440,146,126065,2,0,B|399:168|352:147|378:139|328:115|284:140,1,160.061333333333,2|0,0:0|3:2,0:0:0:0:
129,330,126904,1,10,0:0:0:0:
63,291,127114,2,0,B|104:269|151:290|125:298|175:322|219:297,1,160.061333333333,0|0,3:2|0:0,0:0:0:0:
192,0,127743,6,0,B|148:57|148:57|184:224,1,240.282666666666,6|0,3:2|3:2,0:0:0:0:
80,372,128583,1,8,0:0:0:0:
80,372,129002,2,0,P|103:346|164:337,1,80,2|0,0:0|0:0,0:0:0:0:
409,370,129422,6,0,B|378:400|339:397|301:365|310:298|315:250|383:204,1,240,2|0,3:2|0:0,0:0:0:0:
508,99,130261,2,0,B|455:132|375:89|417:57|347:19|265:71,1,240,10|0,0:0|0:0,0:0:0:0:
169,9,131100,6,0,P|160:51|149:97,2,80.0306666666666,6|2|2,3:2|0:0|0:0,0:0:0:0:
14,88,131729,1,0,3:2:0:0:
14,88,131939,2,0,P|25:132|34:176,1,80.2213333333333,8|0,0:0|0:0,0:0:0:0:
161,255,132359,2,0,P|169:215|179:177,1,80.2213333333333,2|0,0:0|3:2,0:0:0:0:
41,328,132778,6,0,B|82:306|129:327|103:335|153:359|193:335,1,160.061333333334,2|0,0:0|3:2,0:0:0:0:
387,172,133617,1,10,0:0:0:0:
455,204,133827,2,0,B|414:226|367:205|393:197|343:173|299:198,1,160.061333333334,0|0,3:2|0:0,0:0:0:0:
193,336,134457,6,0,P|171:229|144:112,1,216.254393408203,2|0,0:0|0:0,0:0:0:0:
126,33,135296,1,8,0:0:0:0:
126,33,135715,2,0,P|161:15|214:30,1,72.1991978027344,2|0,0:0|0:0,0:0:0:0:
264,77,136135,2,0,P|299:95|352:80,1,72.1991978027344,2|0,0:0|0:0,0:0:0:0:
408,38,136555,2,0,P|416:74|428:119,1,72.1991978027344,2|0,0:0|0:0,0:0:0:0:
502,174,136974,2,0,P|485:251|458:396,1,216.254393408203,10|0,0:0|0:0,0:0:0:0:
289,276,137813,6,0,P|323:230|344:330,1,216.254393408203,2|2,0:0|0:0,0:0:0:0:
281,368,138652,2,0,B|215:389|161:339|201:338|150:287|71:312,1,216.254393408203,10|0,0:0|0:0,0:0:0:0:
6,357,139492,2,0,P|-2:318|-12:272,1,72.1991978027344,2|0,0:0|0:0,0:0:0:0:
57,220,139911,2,0,P|73:151|94:70,1,144.055195605469,2|8,0:0|0:0,0:0:0:0:
248,182,140750,2,0,P|312:192|339:56,1,216.254393408203,2|0,0:0|0:0,0:0:0:0:
213,0,141590,6,0,P|176:6|121:20,1,72.1991978027344,2|0,0:0|0:0,0:0:0:0:
158,92,142009,2,0,P|194:83|229:78,1,71.9999978027344,10|0,0:0|0:0,0:0:0:0:
366,1,142429,2,0,P|403:7|458:21,1,72.1991978027344,2|0,0:0|0:0,0:0:0:0:
425,93,142848,2,0,P|390:85|355:80,1,72.1991978027344,2|0,0:0|0:0,0:0:0:0:
425,236,143268,1,2,0:0:0:0:
425,236,143373,2,0,P|456:238|486:203,1,71.9999978027344,2|0,0:0|0:0,0:0:0:0:
354,349,143687,2,0,P|347:313|340:278,1,72.1991978027344,10|0,0:0|0:0,0:0:0:0:
259,295,144107,2,0,P|267:330|272:365,1,72.1991978027344,2|0,0:0|0:0,0:0:0:0:
388,211,144527,6,0,P|356:194|320:196,1,72.1991978027344,2|0,0:0|0:0,0:0:0:0:
135,366,144946,1,2,0:0:0:0:
135,366,145051,2,0,P|153:328|143:290,1,71.9999978027344,2|0,0:0|0:0,0:0:0:0:
66,282,145366,1,10,0:0:0:0:
66,282,145471,2,0,P|48:320|57:360,1,71.9999978027344,2|0,0:0|0:0,0:0:0:0:
148,299,145785,2,0,P|157:264|165:229,1,72.1991978027344,2|0,0:0|0:0,0:0:0:0:
15,45,146205,2,0,P|24:79|32:114,1,72.1991978027344,2|0,0:0|0:0,0:0:0:0:
70,286,146624,1,2,0:0:0:0:
70,286,146834,1,2,0:0:0:0:
10,218,147044,2,0,P|37:200|95:205,1,72.1991978027344,10|0,0:0|0:0,0:0:0:0:
197,317,147464,2,0,P|167:302|143:249,1,72.1991978027344,2|0,0:0|0:0,0:0:0:0:
284,93,147883,6,0,B|332:84|353:138|353:138|322:183|263:196|210:142,1,240,6|0,3:2|3:2,0:0:0:0:
89,23,148722,2,0,P|114:54|107:99,1,80,10|0,0:0|0:0,0:0:0:0:
21,120,149142,2,0,P|-3:93|5:43,1,80,2|0,0:0|0:0,0:0:0:0:
112,199,149562,1,2,3:2:0:0:
119,197,149666,2,0,P|155:194|199:222,1,80,2|0,0:0|0:0,0:0:0:0:
228,289,149981,2,0,P|240:324|252:366,1,80.2213333333334,2|0,0:0|3:2,0:0:0:0:
415,235,150401,1,10,0:0:0:0:
358,159,150610,1,2,0:0:0:0:
428,39,150820,2,0,P|466:33|506:58,1,80,2|0,0:0|0:0,0:0:0:0:
285,199,151240,6,0,L|278:230,4,20,6|0|0|0|0,3:2|0:0|0:0|0:0|0:0,0:0:0:0:
200,153,151659,2,0,P|157:150|113:180,1,80.2213333333333,2|0,0:0|3:2,0:0:0:0:
2,35,152079,1,10,0:0:0:0:
9,32,152184,2,0,P|52:29|95:56,1,80,2|0,0:0|0:0,0:0:0:0:
31,118,152499,2,0,P|19:159|9:205,1,80.2213333333334,2|0,0:0|0:0,0:0:0:0:
215,301,152918,1,10,0:0:0:0:
207,297,153023,2,0,P|164:294|121:321,1,80,2|0,0:0|0:0,0:0:0:0:
60,367,153338,2,0,P|51:327|39:289,1,80.2213333333334,2|0,3:2|0:0,0:0:0:0:
209,204,153757,1,10,0:0:0:0:
296,252,153967,1,2,3:2:0:0:
406,202,154177,2,0,P|416:164|438:95,1,80.2213333333333,2|0,0:0|0:0,0:0:0:0:
266,38,154597,6,0,L|258:7,4,20,6|0|0|0|0,3:2|0:0|0:0|0:0|0:0,0:0:0:0:
192,97,155016,2,0,P|155:117|107:106,1,80,2|0,0:0|3:2,0:0:0:0:
23,270,155436,1,10,0:0:0:0:
3,191,155645,1,2,0:0:0:0:
153,299,155855,1,2,0:0:0:0:
219,250,156065,1,2,0:0:0:0:
357,319,156275,2,0,L|443:304,1,80,2|0,3:2|0:0,0:0:0:0:
492,242,156694,1,2,0:0:0:0:
389,95,156904,1,2,3:2:0:0:
483,28,157114,2,0,P|489:77|455:119,1,80,10|0,0:0|0:0,0:0:0:0:
308,180,157534,2,0,P|273:169|227:158,1,80,2|0,0:0|0:0,0:0:0:0:
76,273,157953,6,0,L|44:281,4,20,6|0|0|0|0,3:2|0:0|0:0|0:0|0:0,0:0:0:0:
129,193,158373,2,0,P|133:156|114:109,1,80.2213333333333,2|0,0:0|3:2,0:0:0:0:
238,14,158792,1,10,0:0:0:0:
313,50,159002,1,2,0:0:0:0:
446,2,159212,2,0,P|431:45|418:94,1,80,2|0,0:0|3:2,0:0:0:0:
489,217,159631,1,2,0:0:0:0:
485,224,159736,2,0,P|498:264|509:301,1,80,2|0,0:0|0:0,0:0:0:0:
358,266,160051,1,2,3:2:0:0:
362,272,160156,2,0,P|349:309|339:348,1,80.2213333333333,2|0,0:0|0:0,0:0:0:0:
264,377,160471,1,10,0:0:0:0:
146,320,160680,1,2,3:2:0:0:
77,364,160890,2,0,P|40:383|-6:378,1,80,2|0,0:0|0:0,0:0:0:0:
113,226,161310,5,2,0:0:0:0:
456,321,174759,6,0,L|464:351,4,20.0753333333333,6|0|0|0|0,3:2|0:0|0:0|0:0|0:0,0:0:0:0:
340,255,175179,2,0,P|301:255|266:275,1,80.3013333333333,2|0,0:0|0:0,0:0:0:0:
160,193,175598,2,0,P|171:153|179:115,1,80,8|0,0:0|0:0,0:0:0:0:
32,0,176018,1,2,0:0:0:0:
80,102,176228,1,2,0:0:0:0:
233,0,176437,5,2,3:2:0:0:
179,115,176647,1,2,0:0:0:0:
314,218,176857,1,2,0:0:0:0:
280,133,177067,1,2,3:2:0:0:
146,257,177277,1,10,0:0:0:0:
250,285,177486,1,2,0:0:0:0:
436,332,177696,1,2,0:0:0:0:
330,368,177906,1,2,0:0:0:0:
368,160,178116,6,0,L|373:127,4,20.0753333333333,6|0|0|0|0,3:2|0:0|0:0|0:0|0:0,0:0:0:0:
250,285,178535,2,0,L|168:269,1,80,2|2,0:0|3:2,0:0:0:0:
0,164,178955,2,0,P|40:156|84:145,1,80,8|0,0:0|0:0,0:0:0:0:
195,40,179374,1,2,0:0:0:0:
107,16,179584,1,2,3:2:0:0:
205,141,179794,5,2,0:0:0:0:
308,98,180004,1,2,0:0:0:0:
418,170,180214,1,2,3:2:0:0:
499,136,180423,1,2,0:0:0:0:
399,287,180633,2,0,P|411:325|421:366,1,80,10|0,0:0|3:2,0:0:0:0:
261,228,181053,1,2,0:0:0:0:
261,228,181158,2,0,P|228:248|179:243,1,80,2|0,0:0|0:0,0:0:0:0:
126,184,181472,6,0,L|134:156,4,20.0753333333333,6|0|0|0|0,3:2|0:0|0:0|0:0|0:0,0:0:0:0:
14,242,181892,2,0,P|24:280|30:320,1,80,2|0,0:0|3:2,0:0:0:0:
108,366,182312,1,8,0:0:0:0:
261,229,182521,2,0,P|336:215|398:269,1,160.221333333333,2|0,0:0|0:0,0:0:0:0:
490,102,183151,6,0,P|455:120|415:116,1,80,2|0,3:2|0:0,0:0:0:0:
348,178,183570,1,2,0:0:0:0:
437,337,183780,1,2,3:2:0:0:
358,384,183990,2,0,P|319:372|277:366,1,80,8|0,0:0|0:0,0:0:0:0:
127,279,184409,2,0,P|146:245|145:205,1,80,2|0,0:0|0:0,0:0:0:0:
31,72,184828,6,0,L|-1:80,4,20.0753333333333,6|0|0|0|0,3:2|0:0|0:0|0:0|0:0,0:0:0:0:
195,128,185248,1,2,0:0:0:0:
301,9,185458,2,0,L|284:90,1,80,2|8,3:2|0:0,0:0:0:0:
471,209,185878,1,2,0:0:0:0:
490,120,186088,2,0,P|450:120|414:137,1,80,2|0,0:0|3:2,0:0:0:0:
242,225,186507,6,0,P|301:187|329:252,1,160,2|2,0:0|3:2,0:0:0:0:
173,361,187137,1,2,0:0:0:0:
90,327,187346,2,0,P|48:323|13:344,1,80,8|0,0:0|3:2,0:0:0:0:
138,207,187766,2,0,P|143:165|115:120,1,80,2|0,0:0|0:0,0:0:0:0:
0,26,188185,6,0,B|44:43|85:19|61:9|101:-15|149:4,1,144.055195605469,6|2,3:2|0:0,0:0:0:0:
216,92,188814,1,0,3:2:0:0:
307,22,189024,1,8,0:0:0:0:
307,22,189234,2,0,P|372:8|442:66,1,144.055195605469,2|0,0:0|0:0,0:0:0:0:
483,156,189863,6,0,B|480:189|450:206|450:206|474:249|441:295,1,143.999995605469,0|2,3:2|0:0,0:0:0:0:
347,359,190493,1,0,3:2:0:0:
250,293,190703,1,8,0:0:0:0:
250,293,190912,2,0,B|205:304|205:304|174:347|174:347|124:361,1,144.055195605469,2|0,0:0|0:0,0:0:0:0:
27,206,191542,6,0,P|98:203|115:277,1,144.055195605469,0|2,3:2|0:0,0:0:0:0:
14,327,192171,1,0,3:2:0:0:
131,361,192381,1,8,0:0:0:0:
131,361,192591,2,0,P|146:289|224:287,1,143.999995605469,2|0,0:0|3:2,0:0:0:0:
207,277,193220,5,0,0:0:0:0:
476,160,193640,2,0,B|438:144|398:160|422:172|373:193|329:166,1,144.055195605469,2|8,3:2|0:0,0:0:0:0:
258,69,194269,1,0,3:2:0:0:
328,10,194479,2,0,P|346:44|347:87,1,71.9999978027344,2|0,0:0|0:0,0:0:0:0:
255,214,194898,6,0,P|180:196|92:181,1,144.055195605469,2|2,3:2|0:0,0:0:0:0:
40,102,195528,1,0,3:2:0:0:
132,33,195738,1,8,0:0:0:0:
132,33,195947,2,0,B|179:21|179:21|221:44|221:44|274:33,1,144.055195605469,2|0,0:0|0:0,0:0:0:0:
411,10,196577,6,0,B|377:22|374:64|374:64|418:86|416:143,1,143.999995605469,0|2,3:2|0:0,0:0:0:0:
478,218,197206,1,0,3:2:0:0:
393,296,197416,1,8,0:0:0:0:
393,296,197626,2,0,P|457:312|451:381,1,144.055195605469,2|0,0:0|0:0,0:0:0:0:
294,273,198255,6,0,B|253:264|217:287|242:295|198:324|150:305,1,144.055195605469,0|2,3:2|0:0,0:0:0:0:
70,243,198884,1,0,3:2:0:0:
136,149,199094,1,8,0:0:0:0:
136,149,199304,2,0,P|121:78|101:-4,1,144.055195605469,2|0,0:0|3:2,0:0:0:0:
253,92,199933,6,0,P|322:98|378:55,1,144.055195605469,0|2,0:0|3:2,0:0:0:0:
512,217,200772,1,10,0:0:0:0:
512,217,200982,2,0,P|487:162|432:207,1,143.999995605469,0|0,3:2|0:0,0:0:0:0:
457,278,201612,5,2,0:0:0:0:
