osu file format v14

[General]
AudioFilename: audio.mp3
AudioLeadIn: 0
PreviewTime: 44386
Countdown: 0
SampleSet: Soft
StackLeniency: 0.4
Mode: 0
LetterboxInBreaks: 0
WidescreenStoryboard: 1

[Editor]
Bookmarks: 119558
DistanceSpacing: 1.6
BeatDivisor: 4
GridSize: 16
TimelineZoom: 1.5

[Metadata]
Title:Man Of The Year
TitleUnicode:Man Of The Year
Artist:Juice WRLD
ArtistUnicode:Juice WRLD
Creator:Smoke
Version:Insane
Source:
Tags:legends never die world english rap hip hop hip-hop rock pop 999
BeatmapID:4040005
BeatmapSetID:1947359

[Difficulty]
HPDrainRate:5
CircleSize:3.6
OverallDifficulty:7.5
ApproachRate:8.3
SliderMultiplier:1.6
SliderTickRate:1

[Events]
//Background and Video events
0,0,"man of the world.jpg",0,0
//Break Periods
//Storyboard Layer 0 (Background)
//Storyboard Layer 1 (Fail)
//Storyboard Layer 2 (Pass)
//Storyboard Layer 3 (Foreground)
//Storyboard Layer 4 (Overlay)
//Storyboard Sound Samples

[TimingPoints]
11283,344.827586206897,4,2,1,75,1,0
11283,-100,4,2,1,75,0,0
20938,-333.333333333333,4,2,1,45,0,0
22317,-100,4,2,1,75,0,0
33351,-90.9090909090909,4,2,1,80,0,0
42920,-90.9090909090909,4,2,1,80,0,0
43007,-166.666666666667,4,2,1,50,0,0
44386,-142.857142857143,4,2,2,65,0,0
48869,-166.666666666667,4,2,2,65,0,0
49558,-200,4,2,2,65,0,0
49903,-142.857142857143,4,2,2,65,0,0
59903,-166.666666666667,4,2,2,65,0,0
60593,-200,4,2,2,65,0,0
60938,-142.857142857143,4,2,2,65,0,0
66455,-99.9999999999999,4,2,1,75,0,0
69472,-99.9999999999999,4,2,1,5,0,0
69558,-99.9999999999999,4,2,1,75,0,0
72231,-99.9999999999999,4,2,1,5,0,0
72317,-99.9999999999999,4,2,1,75,0,0
76110,-200,4,2,1,55,0,0
77489,-99.9999999999999,4,2,1,75,0,0
80507,-99.9999999999999,4,2,1,5,0,0
80593,-99.9999999999999,4,2,1,75,0,0
81886,-99.9999999999999,4,2,1,75,0,0
81972,-99.9999999999999,4,2,1,75,0,0
82231,-99.9999999999999,4,2,1,75,0,0
82317,-99.9999999999999,4,2,1,75,0,0
83007,-111.111111111111,4,2,1,75,0,0
86024,-111.111111111111,4,2,1,5,0,0
86110,-99.9999999999999,4,2,1,80,0,0
87748,-99.9999999999999,4,2,1,80,0,0
87834,-99.9999999999999,4,2,1,80,0,0
88093,-99.9999999999999,4,2,1,80,0,0
88179,-99.9999999999999,4,2,1,80,0,0
88524,-90.9090909090909,4,2,1,80,0,0
98093,-90.9090909090909,4,2,1,80,0,0
98179,-90.9090909090909,4,2,1,80,0,0
109127,-90.9090909090909,4,2,1,80,0,0
109214,-166.666666666667,4,2,1,65,0,0
110593,-142.857142857143,4,2,2,65,0,0
115076,-166.666666666667,4,2,2,65,0,0
115765,-200,4,2,2,65,0,0
116110,-142.857142857143,4,2,2,65,0,0
126110,-200,4,2,2,65,0,0
126800,-166.666666666667,4,2,2,65,0,0
127145,-142.857142857143,4,2,2,65,0,0

[Colours]
Combo1 : 100,185,98
Combo2 : 222,182,88
Combo3 : 166,132,51
Combo4 : 113,213,163

[HitObjects]
426,336,11283,6,0,P|436:291|448:234,1,80,6|0,3:2|0:0,0:0:0:0:
505,380,11627,1,10,0:0:0:0:
340,279,11800,1,2,0:0:0:0:
493,165,11972,2,0,P|450:165|411:144,1,80,2|0,3:2|3:2,0:0:0:0:
277,52,12317,1,8,0:0:0:0:
277,52,12662,6,0,P|268:93|261:133,1,80,2|0,3:2|0:0,0:0:0:0:
88,199,13007,2,0,P|96:240|103:278,1,80,10|0,0:0|0:0,0:0:0:0:
172,68,13351,2,0,P|130:59|89:48,1,80,2|0,3:2|3:2,0:0:0:0:
237,234,13696,2,0,P|276:227|315:220,1,80,10|0,0:0|1:0,0:0:0:0:
361,249,13955,1,8,0:0:0:0:
361,249,14041,5,2,3:2:0:0:
201,328,14214,1,2,0:0:0:0:
286,376,14386,1,10,0:0:0:0:
237,234,14558,1,2,0:0:0:0:
52,315,14731,2,0,B|62:277|62:277|40:242,1,80,2|0,3:2|3:2,0:0:0:0:
121,0,15076,1,8,0:0:0:0:
121,0,15420,6,0,P|97:36|96:85,1,80,2|0,3:2|0:0,0:0:0:0:
277,212,15765,2,0,P|274:170|250:136,1,80,10|0,0:0|0:0,0:0:0:0:
12,258,16110,2,0,P|51:261|83:285,1,80,2|0,3:2|3:2,0:0:0:0:
277,212,16455,2,0,P|238:216|202:237,1,80,10|0,0:0|1:0,0:0:0:0:
179,278,16714,1,8,0:0:0:0:
179,278,16800,5,2,3:2:0:0:
369,158,16972,1,2,0:0:0:0:
327,301,17145,1,10,0:0:0:0:
277,212,17317,1,2,0:0:0:0:
489,288,17489,2,0,P|479:248|469:198,1,80,2|0,3:2|3:2,0:0:0:0:
328,55,17834,1,8,0:0:0:0:
328,55,18179,5,2,3:2:0:0:
384,147,18352,1,2,0:0:0:0:
509,32,18524,2,0,B|469:21|469:21|428:46,1,80,10|0,0:0|0:0,0:0:0:0:
285,140,18869,2,0,B|250:160|250:160|208:151,1,80,2|0,3:2|3:2,0:0:0:0:
59,19,19214,2,0,B|93:0|93:0|133:8,1,80,10|0,0:0|1:0,0:0:0:0:
172,37,19472,1,8,0:0:0:0:
172,37,19558,6,0,P|159:78|145:133,1,80,2|0,3:2|0:0,0:0:0:0:
82,282,19903,2,0,P|72:240|59:202,1,80,10|0,0:0|0:0,0:0:0:0:
181,285,20248,1,2,3:2:0:0:
24,364,20420,1,0,3:2:0:0:
191,281,20593,1,8,0:0:0:0:
191,281,20938,6,0,P|197:253|204:229,3,47.9999985351563,2|2|2|2,3:2|0:0|0:0|0:0,0:0:0:0:
478,373,22317,6,0,B|426:286|504:303|451:211,2,160,6|10|2,3:2|0:0|3:2,0:0:0:0:
372,260,23179,1,2,3:2:0:0:
212,363,23351,1,10,0:0:0:0:
277,235,23524,1,2,0:2:0:0:
380,378,23696,6,0,P|329:379|290:354,1,80,2|0,3:2|0:0,0:0:0:0:
184,213,24041,2,0,P|147:198|107:201,1,80,8|0,0:0|0:0,0:0:0:0:
133,292,24386,1,2,3:2:0:0:
94,105,24558,1,2,3:2:0:0:
227,127,24731,1,10,0:0:0:0:
29,251,24903,1,2,1:2:0:0:
29,251,24989,1,8,0:0:0:0:
29,251,25076,6,0,B|7:213|7:213|21:167,1,80,2|0,3:2|0:0,0:0:0:0:
75,4,25420,1,8,0:0:0:0:
75,4,25765,2,0,P|116:12|174:25,1,80,2|0,3:2|3:2,0:0:0:0:
313,137,26110,2,0,P|273:128|234:120,1,80,10|0,0:0|0:0,0:0:0:0:
29,251,26455,6,0,P|92:220|192:235,1,160,2|8,3:2|0:0,0:0:0:0:
342,330,26972,1,0,0:0:0:0:
224,382,27145,2,0,P|236:344|253:291,1,80,2|0,3:2|3:2,0:0:0:0:
301,168,27489,1,10,0:0:0:0:
440,297,27662,1,0,1:0:0:0:
440,297,27748,1,8,0:0:0:0:
440,297,27834,6,0,P|462:227|493:131,1,160,2|8,3:2|0:0,0:0:0:0:
446,51,28351,1,0,0:0:0:0:
301,168,28524,1,2,3:2:0:0:
393,136,28696,1,2,3:2:0:0:
290,27,28869,2,0,P|253:5|202:1,1,80,10|0,0:0|0:0,0:0:0:0:
90,182,29214,6,0,B|185:207|127:246|216:272,1,160,2|8,3:2|0:0,0:0:0:0:
237,181,29731,1,0,0:0:0:0:
87,352,29903,2,0,P|78:313|72:274,1,80,2|0,3:2|3:2,0:0:0:0:
314,243,30248,2,0,P|304:281|298:321,1,80,10|0,0:0|1:0,0:0:0:0:
330,359,30507,1,8,0:0:0:0:
330,359,30593,6,0,P|388:376|472:323,1,160,2|8,3:2|0:0,0:0:0:0:
409,251,31110,1,0,0:0:0:0:
512,116,31283,1,2,3:2:0:0:
493,208,31455,1,2,3:2:0:0:
410,54,31627,1,10,0:0:0:0:
344,179,31800,1,2,0:0:0:0:
205,15,31972,6,0,P|141:31|17:57,2,160,2|8|0,3:2|0:0|3:2,0:0:0:0:
67,145,32834,1,0,3:2:0:0:
207,245,33007,2,0,P|206:204|182:169,1,80,8|0,0:0|1:0,0:0:0:0:
165,132,33265,1,8,0:0:0:0:
165,132,33351,6,0,P|247:167|346:155,1,176.000005371094,6|8,3:2|0:0,0:0:0:0:
404,91,33869,1,0,0:0:0:0:
493,276,34041,6,0,B|462:261|432:250|432:250|404:285|404:285|372:292|339:302,1,176.000005371094,2|8,3:2|0:0,0:0:0:0:
271,371,34558,1,0,0:0:0:0:
102,224,34731,6,0,B|28:247|24:330|24:330|36:315|63:304,1,176.000005371094,2|8,3:2|0:0,0:0:0:0:
119,362,35248,1,0,0:0:0:0:
281,197,35420,6,0,P|262:117|242:23,1,176.000005371094,2|8,3:2|0:0,0:0:0:0:
3,127,35938,1,0,1:2:0:0:
3,127,36024,1,8,0:0:0:0:
3,127,36110,6,0,B|93:147|93:147|112:172|112:172|98:241,1,176.000005371094,2|8,3:2|0:0,0:0:0:0:
28,276,36627,1,0,0:0:0:0:
205,370,36800,6,0,B|286:352|286:352|291:356|291:356|392:335,1,176.000005371094,2|8,3:2|0:0,0:0:0:0:
458,375,37317,1,0,0:0:0:0:
299,227,37489,6,0,B|380:209|380:209|385:213|385:213|486:192,1,176.000005371094,2|8,3:2|0:0,0:0:0:0:
449,288,38007,1,0,0:0:0:0:
263,132,38179,6,0,B|189:114|189:114|172:175|104:176,1,176.000005371094,2|8,3:2|0:0,0:0:0:0:
285,31,38696,1,0,1:2:0:0:
285,31,38783,1,8,0:0:0:0:
285,31,38869,6,0,B|390:38|325:95|443:103,1,176.000005371094,2|8,3:2|0:0,0:0:0:0:
499,174,39386,1,0,0:0:0:0:
331,341,39558,6,0,B|252:327|245:245|245:245|291:227,1,176.000005371094,2|8,3:2|0:0,0:0:0:0:
368,199,40076,1,0,0:0:0:0:
187,56,40248,6,0,P|168:142|148:237,1,176.000005371094,2|8,3:2|0:0,0:0:0:0:
63,191,40765,1,0,0:0:0:0:
155,354,40938,2,0,P|233:306|331:329,1,176.000005371094,2|8,3:2|0:0,0:0:0:0:
512,153,41455,1,0,1:2:0:0:
512,153,41541,1,8,0:0:0:0:
512,153,41627,6,0,B|405:171|478:216|333:236,1,176.000005371094,2|8,3:2|0:0,0:0:0:0:
428,313,42145,1,0,0:0:0:0:
313,149,42317,2,0,P|272:130|219:135,1,88.000002685547,2|0,3:2|3:2,0:0:0:0:
326,8,42662,1,8,0:0:0:0:
326,8,42834,1,2,0:0:0:0:
432,122,43007,6,0,P|478:121|516:88,2,95.9999970703126,2|2|2,3:2|0:0|0:0,0:0:0:0:
37,366,44386,6,0,P|52:280|70:197,1,167.999994873047,6|0,3:2|0:0,0:0:0:0:
141,147,45076,1,10,3:2:0:0:
141,147,45420,2,0,P|183:170|246:170,1,111.999996582031,2|0,0:0|3:2,0:0:0:0:
381,288,46110,2,0,P|325:286|276:311,1,111.999996582031,2|8,0:0|3:2,0:0:0:0:
447,365,46800,2,0,P|469:343|474:305,1,55.9999982910157,2|0,0:0|0:0,0:0:0:0:
359,194,47145,6,0,B|373:126|373:126|380:121|380:121|400:24,1,167.999994873047,2|0,3:2|0:0,0:0:0:0:
483,4,47834,1,10,3:2:0:0:
483,4,48179,2,0,P|493:63|506:129,1,111.999996582031,2|0,0:0|3:2,0:0:0:0:
341,99,48869,2,0,P|351:158|361:206,1,95.9999970703126,2|8,0:0|3:2,0:0:0:0:
208,191,49558,2,0,P|214:230|224:285,1,80,2|0,0:0|3:2,0:0:0:0:
221,269,50248,6,0,P|192:270|156:290,1,55.9999982910157,2|0,0:0|0:0,0:0:0:0:
1,204,50593,2,0,P|30:205|66:225,1,55.9999982910157,10|0,3:2|0:0,0:0:0:0:
160,129,50938,2,0,P|150:160|142:192,1,55.9999982910157,2|0,0:0|0:0,0:0:0:0:
236,322,51283,6,0,P|228:294|220:268,1,55.9999982910157,2|0,3:2|0:0,0:0:0:0:
236,322,51627,2,0,P|228:294|220:268,1,55.9999982910157,2|0,0:0|0:0,0:0:0:0:
82,342,51972,2,0,P|89:314|97:288,1,55.9999982910157,10|0,3:2|0:0,0:0:0:0:
82,342,52316,2,0,P|89:314|97:288,1,55.9999982910157,2|0,0:0|0:0,0:0:0:0:
53,206,52662,5,0,3:2:0:0:
53,206,53007,2,0,P|61:181|93:154,1,55.9999982910157,2|0,0:0|0:0,0:0:0:0:
225,75,53351,2,0,P|217:50|185:23,1,55.9999982910157,10|0,3:2|0:0,0:0:0:0:
291,143,53696,2,0,P|320:135|355:128,1,55.9999982910157,2|0,0:0|0:0,0:0:0:0:
434,22,54041,6,0,P|427:52|422:79,1,55.9999982910157,2|0,3:2|0:0,0:0:0:0:
434,22,54386,2,0,P|427:52|422:79,1,55.9999982910157,2|0,0:0|0:0,0:0:0:0:
512,237,54731,2,0,P|506:209|500:182,1,55.9999982910157,10|0,3:2|0:0,0:0:0:0:
329,264,55076,2,0,B|357:258|357:258|397:286,1,55.9999982910157,2|0,0:0|0:0,0:0:0:0:
401,318,55334,1,0,0:0:0:0:
401,318,55420,6,0,P|338:362|234:340,1,167.999994873047,6|0,3:2|0:0,0:0:0:0:
184,291,56110,1,10,3:2:0:0:
184,291,56454,2,0,P|207:249|207:186,1,111.999996582031,2|0,0:0|3:2,0:0:0:0:
39,136,57144,2,0,P|95:138|144:113,1,111.999996582031,2|8,0:0|3:2,0:0:0:0:
298,5,57834,2,0,P|276:27|271:65,1,55.9999982910157,2|0,0:0|0:0,0:0:0:0:
428,167,58179,6,0,B|401:149|360:153|360:153|341:119|341:119|320:144|271:146,1,167.999994873047,2|0,3:2|0:0,0:0:0:0:
209,189,58868,1,10,3:2:0:0:
209,189,59213,2,0,P|219:248|232:314,1,111.999996582031,2|0,0:0|3:2,0:0:0:0:
371,357,59903,2,0,P|361:298|351:250,1,95.9999970703126,2|8,0:0|3:2,0:0:0:0:
461,164,60593,2,0,P|464:187|470:209,1,40,2|0,0:0|0:0,0:0:0:0:
512,285,60937,5,2,3:2:0:0:
512,285,61282,2,0,P|483:286|447:306,1,55.9999982910157,2|0,0:0|0:0,0:0:0:0:
345,351,61627,2,0,P|374:352|410:372,1,55.9999982910157,10|0,3:2|0:0,0:0:0:0:
300,230,61972,2,0,P|290:261|282:293,1,55.9999982910157,2|0,0:0|0:0,0:0:0:0:
141,355,62317,6,0,P|133:327|125:301,1,55.9999982910157,2|0,3:2|0:0,0:0:0:0:
141,355,62661,2,0,P|133:327|125:301,1,55.9999982910157,2|0,0:0|0:0,0:0:0:0:
222,138,63006,2,0,P|215:166|207:192,1,55.9999982910157,10|0,3:2|0:0,0:0:0:0:
222,138,63350,2,0,P|215:166|207:192,1,55.9999982910157,2|0,0:0|0:0,0:0:0:0:
153,73,63696,5,0,3:2:0:0:
153,73,64041,2,0,P|161:48|193:21,1,55.9999982910157,2|0,0:0|0:0,0:0:0:0:
308,111,64385,2,0,P|300:86|268:59,1,55.9999982910157,10|0,3:2|0:0,0:0:0:0:
348,0,64730,2,0,P|374:7|402:13,1,55.9999982910157,2|0,0:0|0:0,0:0:0:0:
508,130,65075,6,0,P|478:137|451:142,1,55.9999982910157,2|0,3:2|0:0,0:0:0:0:
508,130,65420,2,0,P|478:137|451:142,1,55.9999982910157,2|0,0:0|0:0,0:0:0:0:
327,214,65765,2,0,B|397:207|435:270|435:270|392:281,1,167.999994873047,2|0,3:2|0:0,0:0:0:0:
283,381,66455,6,0,P|288:339|325:302,1,80,2|0,3:2|0:0,0:0:0:0:
113,176,66800,2,0,P|122:222|131:270,1,80,10|2,0:0|0:0,0:0:0:0:
184,115,67145,1,2,3:2:0:0:
24,231,67317,1,2,3:2:0:0:
195,107,67489,2,0,P|234:114|273:122,1,80,10|0,0:0|0:0,0:0:0:0:
134,0,67834,6,0,P|108:31|109:89,1,80,2|0,3:2|0:0,0:0:0:0:
236,232,68179,1,8,0:0:0:0:
112,333,68351,2,0,P|119:293|127:254,1,80,2|2,0:0|3:2,0:0:0:0:
284,384,68696,1,2,3:2:0:0:
127,254,68869,1,10,0:0:0:0:
332,172,69041,1,2,1:2:0:0:
332,172,69127,1,8,0:0:0:0:
332,172,69214,6,0,P|391:174|443:203,1,120,2|0,3:2|0:0,0:0:0:0:
493,283,69558,2,0,P|455:289|411:298,1,80,10|0,0:0|0:0,0:0:0:0:
278,347,69903,1,2,3:2:0:0:
330,263,70076,1,2,3:2:0:0:
189,367,70248,1,10,0:0:0:0:
124,226,70420,1,2,0:0:0:0:
18,358,70593,6,0,P|60:353|101:317,1,80,2|0,3:2|0:0,0:0:0:0:
0,173,70938,1,8,0:0:0:0:
136,88,71110,2,0,P|177:97|229:108,1,80,2|0,0:0|3:2,0:0:0:0:
86,6,71455,1,2,3:2:0:0:
154,187,71627,1,10,0:0:0:0:
290,43,71800,1,2,1:2:0:0:
290,43,71886,1,8,0:0:0:0:
290,43,71972,6,0,B|323:91|323:91|294:160,1,120,2|0,3:2|0:0,0:0:0:0:
360,213,72317,2,0,P|403:204|469:193,1,80,10|0,0:0|0:0,0:0:0:0:
156,295,72662,2,0,P|113:304|47:315,1,80,2|0,3:2|3:2,0:0:0:0:
365,350,73007,2,0,P|404:357|443:365,1,80,10|0,0:0|0:0,0:0:0:0:
237,384,73351,5,2,3:2:0:0:
360,213,73524,1,2,0:0:0:0:
156,295,73696,2,0,P|153:255|170:213,1,80,10|0,0:0|0:0,0:0:0:0:
255,268,74041,1,2,3:2:0:0:
139,122,74214,2,0,P|126:86|133:40,1,80,2|8,3:2|0:0,0:0:0:0:
377,116,74558,1,2,1:2:0:0:
377,116,74645,1,8,0:0:0:0:
377,116,74731,6,0,P|334:125|278:139,1,80,2|2,3:2|0:0,0:0:0:0:
446,46,75076,1,10,0:0:0:0:
408,201,75248,1,2,0:0:0:0:
512,131,75420,1,2,3:2:0:0:
464,287,75593,1,2,3:2:0:0:
298,133,75765,1,10,0:0:0:0:
298,133,76110,5,0,3:2:0:0:
298,133,76283,2,0,P|256:141|215:150,1,80,0|0,3:2|0:0,0:0:0:0:
160,209,76800,5,0,3:2:0:0:
160,209,76973,2,0,P|118:217|77:226,1,80,0|0,3:2|0:0,0:0:0:0:
309,377,77489,6,0,B|297:282|360:321|348:221,1,160,6|8,3:2|0:0,0:0:0:0:
269,151,78007,1,2,0:0:0:0:
457,48,78179,1,2,3:2:0:0:
335,0,78351,2,0,P|345:46|355:91,1,80,2|8,3:2|0:0,0:0:0:0:
496,209,78696,2,0,P|504:169|513:130,1,80,2|2,0:0|3:2,0:0:0:0:
410,256,79041,5,2,0:0:0:0:
457,48,79214,1,10,0:0:0:0:
357,175,79386,1,2,0:0:0:0:
246,33,79558,1,2,3:2:0:0:
246,33,79731,2,0,B|206:21|206:21|173:49,1,80,2|8,3:2|0:0,0:0:0:0:
16,148,80076,1,2,1:2:0:0:
16,148,80162,1,8,0:0:0:0:
16,148,80248,6,0,B|63:135|63:135|82:166|82:166|129:186,1,120,2|0,3:2|0:0,0:0:0:0:
159,259,80593,2,0,P|136:293|131:343,1,80,8|0,0:0|0:0,0:0:0:0:
340,384,80938,2,0,P|333:344|310:312,1,80,2|0,3:2|3:2,0:0:0:0:
365,174,81283,1,10,0:0:0:0:
252,233,81455,1,2,0:0:0:0:
432,345,81627,6,0,P|438:309|450:254,1,80,2|2,3:2|0:0,0:0:0:0:
350,95,81972,2,0,P|358:134|364:173,1,80,10|2,0:0|0:0,0:0:0:0:
500,43,82317,2,0,P|463:24|417:29,1,80,2|0,3:2|3:2,0:0:0:0:
258,167,82662,1,10,0:0:0:0:
141,8,82834,1,2,1:2:0:0:
141,8,82920,1,8,0:0:0:0:
141,8,83007,6,0,B|177:2|198:18|198:18|200:45|200:45|223:68|254:61,1,143.999995605469,2|8,3:2|0:0,0:0:0:0:
350,95,83524,1,2,0:0:0:0:
258,167,83696,2,0,P|221:176|181:188,1,71.9999978027344,2|2,3:2|3:2,0:0:0:0:
117,114,84041,1,10,0:0:0:0:
29,164,84214,1,2,0:0:0:0:
63,258,84386,6,0,P|100:267|140:279,1,71.9999978027344,2|0,3:2|0:0,0:0:0:0:
263,374,84731,1,8,0:0:0:0:
263,374,84903,2,0,P|226:365|186:353,2,71.9999978027344,2|2|2,0:0|3:2|3:2,0:0:0:0:
304,235,85420,2,0,P|309:270|327:302,1,71.9999978027344,8|0,0:0|1:2,0:0:0:0:
365,337,85679,1,8,0:0:0:0:
365,337,85765,6,0,B|409:365|409:365|443:322,1,107.999996704102,2|0,3:2|0:0,0:0:0:0:
468,276,86110,1,10,0:0:0:0:
304,235,86283,1,2,0:0:0:0:
473,155,86455,1,2,3:2:0:0:
298,221,86627,1,2,3:2:0:0:
402,56,86800,1,10,0:0:0:0:
293,207,86972,1,2,0:0:0:0:
115,31,87145,6,0,P|161:42|202:50,1,80,2|0,3:2|0:0,0:0:0:0:
48,181,87489,2,0,B|31:144|31:144|48:96,1,80,8|2,0:0|0:0,0:0:0:0:
211,260,87834,2,0,B|224:297|224:297|207:334,1,80,2|2,3:2|3:2,0:0:0:0:
43,285,88179,2,0,P|83:271|131:255,1,80,10|0,0:0|1:2,0:0:0:0:
156,177,88438,1,8,0:0:0:0:
156,177,88524,6,0,P|214:163|305:231,1,176.000005371094,6|8,3:2|0:0,0:0:0:0:
211,260,89041,1,0,0:0:0:0:
382,107,89214,6,0,P|395:193|411:280,1,176.000005371094,2|8,3:2|0:0,0:0:0:0:
427,375,89731,1,0,0:0:0:0:
211,260,89903,6,0,B|142:240|142:240|122:285|122:285|65:310,1,176.000005371094,2|8,3:2|0:0,0:0:0:0:
0,235,90420,1,0,0:0:0:0:
131,71,90593,6,0,B|132:27|95:-7|95:-7|46:12|33:64,1,176.000005371094,2|8,3:2|0:0,0:0:0:0:
203,155,91110,1,0,1:2:0:0:
203,155,91196,1,8,0:0:0:0:
203,155,91283,6,0,B|230:114|285:128|285:128|297:160|297:160|319:182|360:181,1,176.000005371094,2|8,3:2|0:0,0:0:0:0:
438,215,91800,1,0,0:0:0:0:
280,344,91972,6,0,B|263:365|263:365|261:304|241:249|241:249|267:264,1,176.000005371094,2|8,3:2|0:0,0:0:0:0:
361,294,92489,1,0,0:0:0:0:
182,163,92662,6,0,B|115:143|58:196|58:196|84:250,1,176.000005371094,2|8,3:2|0:0,0:0:0:0:
114,318,93179,1,0,0:0:0:0:
340,180,93351,6,0,B|407:162|407:162|429:238|429:238|395:246,1,176.000005371094,2|8,3:2|0:0,0:0:0:0:
253,68,93869,1,0,1:2:0:0:
253,68,93955,1,8,0:0:0:0:
253,68,94041,6,0,P|343:45|433:22,1,176.000005371094,2|8,3:2|0:0,0:0:0:0:
512,71,94558,1,0,0:0:0:0:
402,244,94731,6,0,P|331:213|392:149,1,176.000005371094,2|8,3:2|0:0,0:0:0:0:
468,174,95248,1,0,0:0:0:0:
253,68,95420,6,0,B|217:55|180:75|180:75|161:115|161:115|118:117|94:84,1,176.000005371094,2|8,3:2|0:0,0:0:0:0:
30,40,95938,1,0,0:0:0:0:
0,257,96110,6,0,P|100:233|185:213,1,176.000005371094,2|8,3:2|0:0,0:0:0:0:
402,359,96627,1,0,1:2:0:0:
402,359,96714,1,8,0:0:0:0:
402,359,96800,6,0,B|292:343|356:297|237:283,1,176.000005371094,2|8,3:2|0:0,0:0:0:0:
167,357,97317,1,0,0:0:0:0:
284,189,97489,6,0,B|319:161|319:161|361:170,1,88.000002685547,2|0,3:2|3:2,0:0:0:0:
210,125,97834,1,8,0:0:0:0:
210,125,98007,1,2,0:0:0:0:
410,87,98179,6,0,P|409:43|386:6,1,88.000002685547,2|0,3:2|0:0,0:0:0:0:
210,125,98524,2,0,P|210:168|233:205,1,88.000002685547,10|0,0:0|0:0,0:0:0:0:
427,239,98869,2,0,P|384:250|338:263,1,88.000002685547,2|0,3:2|3:2,0:0:0:0:
79,332,99214,2,0,P|121:320|163:309,1,88.000002685547,8|0,0:0|1:2,0:0:0:0:
267,334,99472,1,8,0:0:0:0:
267,334,99558,6,0,P|246:255|222:162,1,176.000005371094,4|8,3:2|0:0,0:0:0:0:
291,100,100076,1,0,0:0:0:0:
84,28,100249,6,0,B|107:1|152:14|152:14|168:57|168:57|137:107,1,176.000005371094,2|8,3:2|0:0,0:0:0:0:
47,116,100766,1,0,0:0:0:0:
304,8,100938,6,0,B|364:-3|364:-3|386:40|386:40|421:35|448:67,1,176.000005371094,2|8,3:2|0:0,0:0:0:0:
386,135,101455,1,0,0:0:0:0:
500,290,101628,6,0,B|512:237|468:208|468:208|418:220|416:263,1,176.000005371094,2|8,3:2|0:0,0:0:0:0:
192,206,102145,1,0,1:2:0:0:
192,206,102231,1,8,0:0:0:0:
192,206,102318,6,0,B|219:165|274:179|274:179|286:211|286:211|308:233|349:232,1,176.000005371094,2|8,3:2|0:0,0:0:0:0:
366,146,102835,1,0,0:0:0:0:
135,20,103007,6,0,B|109:5|109:5|88:66|131:121|131:121|148:100,1,176.000005371094,2|8,3:2|0:0,0:0:0:0:
227,48,103524,1,0,0:0:0:0:
48,169,103697,6,0,B|67:252|74:281|74:281|44:255|3:269,1,176.000005371094,2|8,3:2|0:0,0:0:0:0:
18,358,104214,1,0,0:0:0:0:
245,375,104386,6,0,B|262:380|271:368|271:368|249:292|249:292|214:281|182:310,1,176.000005371094,2|8,3:2|0:0,0:0:0:0:
410,214,104904,1,0,1:2:0:0:
410,214,104990,1,8,0:0:0:0:
410,214,105076,6,0,B|373:225|339:197|339:197|312:220|312:220|286:196|249:199,1,176.000005371094,2|8,3:2|0:0,0:0:0:0:
356,303,105593,1,0,0:0:0:0:
177,105,105766,6,0,P|162:185|141:287,1,176.000005371094,2|8,3:2|0:0,0:0:0:0:
84,348,106283,1,0,0:0:0:0:
322,130,106455,6,0,P|337:210|357:312,1,176.000005371094,2|8,3:2|0:0,0:0:0:0:
422,366,106973,1,0,0:0:0:0:
177,105,107145,6,0,P|162:185|141:287,1,176.000005371094,2|8,3:2|0:0,0:0:0:0:
330,30,107662,1,0,1:2:0:0:
330,30,107749,1,8,0:0:0:0:
330,30,107835,6,0,B|220:46|284:92|165:106,1,176.000005371094,2|8,3:2|0:0,0:0:0:0:
278,174,108352,1,0,0:0:0:0:
120,27,108524,6,0,P|77:40|35:52,1,88.000002685547,2|0,3:2|3:2,0:0:0:0:
176,104,108869,1,8,0:0:0:0:
176,104,109042,1,2,0:0:0:0:
59,229,109214,6,0,P|60:185|94:136,2,95.9999970703126,2|2|2,3:2|0:0|0:0,0:0:0:0:
512,57,110593,6,0,P|433:78|344:101,1,167.999994873047,6|0,3:2|0:0,0:0:0:0:
297,172,111283,1,10,3:2:0:0:
297,172,111627,2,0,P|255:149|192:149,1,111.999996582031,2|0,0:0|3:2,0:0:0:0:
299,293,112317,2,0,P|243:291|194:316,1,111.999996582031,2|8,0:0|3:2,0:0:0:0:
70,185,113007,2,0,P|92:163|97:125,1,55.9999982910157,2|0,0:0|0:0,0:0:0:0:
0,14,113352,6,0,B|68:28|68:28|73:35|73:35|170:55,1,167.999994873047,2|0,3:2|0:0,0:0:0:0:
242,16,114041,1,10,3:2:0:0:
242,16,114386,2,0,P|252:75|265:141,1,111.999996582031,2|0,0:0|3:2,0:0:0:0:
401,61,115076,2,0,P|411:120|421:168,1,95.9999970703126,2|8,0:0|3:2,0:0:0:0:
290,147,115765,2,0,P|296:186|306:241,1,80,2|0,0:0|3:2,0:0:0:0:
303,225,116455,6,0,P|274:226|238:246,1,55.9999982910157,2|0,0:0|0:0,0:0:0:0:
434,296,116800,2,0,P|408:285|380:284,1,55.9999982910157,10|0,3:2|0:0,0:0:0:0:
278,375,117145,2,0,P|285:347|293:321,1,55.9999982910157,2|0,0:0|0:0,0:0:0:0:
177,155,117490,6,0,P|169:183|161:209,1,55.9999982910157,2|0,3:2|0:0,0:0:0:0:
177,155,117834,2,0,P|169:183|161:209,1,55.9999982910157,2|0,0:0|0:0,0:0:0:0:
336,139,118179,2,0,P|343:111|351:85,1,55.9999982910157,10|0,3:2|0:0,0:0:0:0:
336,139,118523,2,0,P|343:111|351:85,1,55.9999982910157,2|0,0:0|0:0,0:0:0:0:
295,15,118869,5,0,3:2:0:0:
295,15,119214,2,0,P|268:13|232:34,1,55.9999982910157,2|0,0:0|0:0,0:0:0:0:
434,140,119558,2,0,P|459:151|487:150,1,55.9999982910157,10|0,3:2|0:0,0:0:0:0:
369,252,119903,2,0,P|363:224|355:197,1,55.9999982910157,2|0,0:0|0:0,0:0:0:0:
201,303,120248,6,0,P|194:333|189:360,1,55.9999982910157,2|0,3:2|0:0,0:0:0:0:
201,303,120593,2,0,P|194:333|189:360,1,55.9999982910157,2|0,0:0|0:0,0:0:0:0:
264,168,120938,2,0,P|258:140|252:113,1,55.9999982910157,10|0,3:2|0:0,0:0:0:0:
74,13,121283,2,0,B|102:7|102:7|142:35,1,55.9999982910157,2|0,0:0|0:0,0:0:0:0:
160,57,121541,1,0,0:0:0:0:
160,57,121627,6,0,P|223:13|327:35,1,167.999994873047,6|0,3:2|0:0,0:0:0:0:
383,74,122317,1,10,3:2:0:0:
383,74,122661,2,0,P|371:133|357:205,1,111.999996582031,2|0,0:0|3:2,0:0:0:0:
212,285,123351,2,0,P|201:230|190:175,1,111.999996582031,2|8,0:0|3:2,0:0:0:0:
361,183,124041,2,0,P|334:189|306:196,1,55.9999982910157,2|0,0:0|0:0,0:0:0:0:
124,98,124386,6,0,B|159:36|159:36|188:32|214:45|214:45|222:88,1,167.999994873047,2|0,3:2|0:0,0:0:0:0:
190,175,125075,1,10,3:2:0:0:
190,175,125420,2,0,P|181:236|213:300,1,111.999996582031,2|0,0:0|3:2,0:0:0:0:
322,250,126110,2,0,P|331:311|320:341,1,80,2|8,0:0|3:2,0:0:0:0:
454,302,126800,2,0,P|449:321|450:353,1,47.9999985351563,2|0,0:0|0:0,0:0:0:0:
512,232,127144,5,2,3:2:0:0:
512,232,127489,2,0,P|502:200|495:164,1,55.9999982910157,2|0,0:0|0:0,0:0:0:0:
373,40,127834,2,0,P|366:67|358:93,1,55.9999982910157,10|0,3:2|0:0,0:0:0:0:
509,88,128179,2,0,P|481:86|449:102,1,55.9999982910157,2|0,0:0|0:0,0:0:0:0:
295,198,128524,6,0,P|287:170|279:144,1,55.9999982910157,2|0,3:2|0:0,0:0:0:0:
295,198,128868,2,0,P|287:170|279:144,1,55.9999982910157,2|0,0:0|0:0,0:0:0:0:
132,59,129213,2,0,P|139:87|147:113,1,55.9999982910157,10|0,3:2|0:0,0:0:0:0:
132,59,129557,2,0,P|139:87|147:113,1,55.9999982910157,2|0,0:0|0:0,0:0:0:0:
97,188,129903,5,0,3:2:0:0:
97,188,130248,2,0,P|122:196|149:228,1,55.9999982910157,2|0,0:0|0:0,0:0:0:0:
66,348,130593,2,0,P|41:340|14:308,1,55.9999982910157,10|0,3:2|0:0,0:0:0:0:
152,312,130937,2,0,P|178:305|206:299,1,55.9999982910157,2|0,0:0|0:0,0:0:0:0:
341,339,131282,6,0,P|311:346|284:351,1,55.9999982910157,2|0,3:2|0:0,0:0:0:0:
341,339,131627,2,0,P|311:346|284:351,1,55.9999982910157,2|0,0:0|0:0,0:0:0:0:
191,206,131972,2,0,B|187:176|187:176|244:174|288:211|288:211|269:235,1,167.999994873047,2|0,3:2|0:0,0:0:0:0:
206,298,132662,1,2,3:2:0:0:
