osu file format v14

[General]
AudioFilename: audio.mp3
AudioLeadIn: 0
PreviewTime: 44386
Countdown: 0
SampleSet: Soft
StackLeniency: 0.4
Mode: 0
LetterboxInBreaks: 0
WidescreenStoryboard: 0

[Editor]
DistanceSpacing: 1.1
BeatDivisor: 4
GridSize: 16
TimelineZoom: 1.5

[Metadata]
Title:Man Of The Year
TitleUnicode:Man Of The Year
Artist:Juice WRLD
ArtistUnicode:Juice WRLD
Creator:Smoke
Version:Golden Year
Source:
Tags:legends never die world english rap hip hop hip-hop rock pop 999
BeatmapID:4029395
BeatmapSetID:1947359

[Difficulty]
HPDrainRate:5.6
CircleSize:4
OverallDifficulty:8.3
ApproachRate:8.8
SliderMultiplier:1.7
SliderTickRate:1

[Events]
//Background and Video events
0,0,"man of the world.jpg",0,0
//Break Periods
//Storyboard Layer 0 (Background)
//Storyboard Layer 1 (Fail)
//Storyboard Layer 2 (Pass)
//Storyboard Layer 3 (Foreground)
//Storyboard Layer 4 (Overlay)
//Storyboard Sound Samples

[TimingPoints]
11283,344.827586206897,4,2,1,75,1,0
11283,-100,4,2,1,75,0,0
20938,-500,4,2,1,45,0,0
22317,-100,4,2,1,75,0,0
33351,-90.9090909090909,4,2,1,80,0,0
42920,-90.9090909090909,4,2,1,5,0,0
43007,-166.666666666667,4,2,1,50,0,0
44386,-142.857142857143,4,2,2,65,0,0
48869,-166.666666666667,4,2,2,65,0,0
49558,-200,4,2,2,65,0,0
49903,-142.857142857143,4,2,2,65,0,0
59903,-166.666666666667,4,2,2,65,0,0
60593,-200,4,2,2,65,0,0
60938,-142.857142857143,4,2,2,65,0,0
66455,-99.9999999999999,4,2,1,75,0,0
69472,-99.9999999999999,4,2,1,5,0,0
69558,-99.9999999999999,4,2,1,75,0,0
72231,-99.9999999999999,4,2,1,5,0,0
72317,-99.9999999999999,4,2,1,75,0,0
76110,-200,4,2,1,55,0,0
77489,-99.9999999999999,4,2,1,75,0,0
80507,-99.9999999999999,4,2,1,5,0,0
80593,-99.9999999999999,4,2,1,75,0,0
81886,-99.9999999999999,4,2,1,5,0,0
81972,-99.9999999999999,4,2,1,75,0,0
82231,-99.9999999999999,4,2,1,5,0,0
82317,-99.9999999999999,4,2,1,75,0,0
83007,-111.111111111111,4,2,1,75,0,0
86024,-111.111111111111,4,2,1,5,0,0
86110,-99.9999999999999,4,2,1,80,0,0
87748,-99.9999999999999,4,2,1,5,0,0
87834,-99.9999999999999,4,2,1,80,0,0
88093,-99.9999999999999,4,2,1,5,0,0
88179,-99.9999999999999,4,2,1,80,0,0
88524,-90.9090909090909,4,2,1,80,0,0
98093,-90.9090909090909,4,2,1,5,0,0
98179,-90.9090909090909,4,2,1,80,0,0
109127,-90.9090909090909,4,2,1,5,0,0
109214,-166.666666666667,4,2,1,65,0,0
110593,-142.857142857143,4,2,2,65,0,0
115076,-166.666666666667,4,2,2,65,0,0
115765,-200,4,2,2,65,0,0
116110,-142.857142857143,4,2,2,65,0,0
126110,-200,4,2,2,65,0,0
126800,-166.666666666667,4,2,2,65,0,0
127145,-142.857142857143,4,2,2,65,0,0

[Colours]
Combo1 : 100,185,98
Combo2 : 222,182,88
Combo3 : 166,132,51
Combo4 : 113,213,163

[HitObjects]
495,250,11283,6,0,P|455:244|400:234,1,85,6|0,3:2|0:0,0:0:0:0:
251,214,11627,1,10,0:0:0:0:
318,292,11800,1,2,0:0:0:0:
76,257,11972,2,0,P|111:263|159:272,1,85,2|0,3:2|3:2,0:0:0:0:
430,31,12317,1,8,0:0:0:0:
430,31,12662,6,0,P|401:56|388:103,1,85,2|0,3:2|0:0,0:0:0:0:
450,308,13007,2,0,P|442:270|408:235,1,85,10|0,0:0|0:0,0:0:0:0:
187,269,13351,2,0,P|228:261|270:255,1,85,2|0,3:2|3:2,0:0:0:0:
83,99,13696,2,0,P|41:91|-1:85,1,85,10|0,0:0|1:0,0:0:0:0:
30,183,13955,1,8,0:0:0:0:
30,183,14041,5,2,3:2:0:0:
142,30,14214,1,2,0:0:0:0:
259,228,14386,1,10,0:0:0:0:
167,163,14558,1,2,0:0:0:0:
341,68,14731,2,0,B|379:46|379:46|418:59,1,85,2|0,3:2|3:2,0:0:0:0:
278,310,15076,1,8,0:0:0:0:
278,310,15420,6,0,P|268:266|258:225,1,85,2|0,3:2|0:0,0:0:0:0:
13,295,15765,2,0,P|23:336|32:377,1,85,10|0,0:0|0:0,0:0:0:0:
217,112,16110,2,0,P|174:109|136:126,1,85,2|0,3:2|3:2,0:0:0:0:
0,190,16455,2,0,P|38:206|80:204,1,85,10|0,0:0|1:0,0:0:0:0:
155,264,16714,1,8,0:0:0:0:
155,264,16800,5,2,3:2:0:0:
44,70,16972,1,2,0:0:0:0:
217,112,17145,1,10,0:0:0:0:
53,301,17317,1,2,0:0:0:0:
251,351,17489,2,0,P|259:309|270:268,1,85,2|0,3:2|3:2,0:0:0:0:
512,130,17834,1,8,0:0:0:0:
512,130,18179,5,2,3:2:0:0:
394,42,18351,1,2,0:0:0:0:
444,255,18524,2,0,P|434:211|418:149,1,85,10|0,0:0|0:0,0:0:0:0:
250,30,18869,2,0,P|260:71|269:112,1,85,2|0,3:2|3:2,0:0:0:0:
57,249,19214,2,0,P|46:290|37:331,1,85,10|0,0:0|1:0,0:0:0:0:
111,379,19472,1,8,0:0:0:0:
111,379,19558,5,2,3:2:0:0:
193,284,19731,1,0,0:0:0:0:
354,361,19903,1,10,0:0:0:0:
304,243,20076,1,0,0:0:0:0:
460,298,20248,1,2,3:2:0:0:
512,169,20420,1,0,3:2:0:0:
304,243,20593,1,8,0:0:0:0:
304,243,20938,6,0,P|301:226|296:207,3,34,2|2|2|2,3:2|0:0|0:0|0:0,0:0:0:0:
512,26,22317,6,0,B|408:33|478:85|362:98,1,170,6|10,3:2|0:0,0:0:0:0:
249,45,22834,1,0,0:0:0:0:
355,224,23007,1,2,3:2:0:0:
165,126,23179,1,2,3:2:0:0:
368,6,23351,1,10,0:0:0:0:
282,149,23524,1,2,0:2:0:0:
124,0,23696,6,0,P|60:53|52:136,1,170,2|8,3:2|0:0,0:0:0:0:
146,210,24214,1,0,0:0:0:0:
3,312,24386,1,2,3:2:0:0:
173,384,24558,1,2,3:2:0:0:
22,218,24731,1,10,0:0:0:0:
240,306,24903,1,2,1:2:0:0:
240,306,24989,1,8,0:0:0:0:
240,306,25076,6,0,P|287:295|326:286,1,85,2|0,3:2|0:0,0:0:0:0:
70,384,25420,1,8,0:0:0:0:
70,384,25765,2,0,P|66:341|82:302,1,85,2|0,3:2|3:2,0:0:0:0:
257,121,26110,2,0,P|272:160|269:202,1,85,10|0,0:0|0:0,0:0:0:0:
14,113,26455,6,0,B|89:99|89:99|104:81|104:81|176:70,1,170,2|8,3:2|0:0,0:0:0:0:
42,14,26972,1,0,0:0:0:0:
143,242,27145,2,0,B|164:208|164:208|155:164,1,85,2|0,3:2|3:2,0:0:0:0:
66,295,27489,1,10,0:0:0:0:
252,146,27662,1,0,1:0:0:0:
252,146,27748,1,8,0:0:0:0:
252,146,27834,6,0,P|327:153|403:209,1,170,2|8,3:2|0:0,0:0:0:0:
482,374,28351,1,0,0:0:0:0:
289,263,28524,1,2,3:2:0:0:
401,207,28696,1,2,3:2:0:0:
252,377,28869,2,0,P|209:377|173:356,1,85,10|0,0:0|0:0,0:0:0:0:
0,172,29214,6,0,P|82:152|165:134,1,170,2|8,3:2|0:0,0:0:0:0:
88,55,29731,1,0,0:0:0:0:
243,194,29903,2,0,B|266:158|266:158|257:108,1,85,2|0,3:2|3:2,0:0:0:0:
428,3,30248,2,0,B|405:39|405:39|412:80,1,85,10|0,0:0|1:0,0:0:0:0:
483,136,30507,1,8,0:0:0:0:
483,136,30593,6,0,B|529:223|445:209|493:314,1,170,2|8,3:2|0:0,0:0:0:0:
404,373,31110,1,0,0:0:0:0:
249,180,31283,1,2,3:2:0:0:
306,333,31455,1,2,3:2:0:0:
387,122,31627,1,10,0:0:0:0:
155,262,31800,1,2,0:0:0:0:
85,6,31972,6,0,P|106:84|135:194,2,170,2|8|0,3:2|0:0|3:2,0:0:0:0:
23,154,32834,1,0,3:2:0:0:
189,24,33007,2,0,P|231:32|299:41,1,85,8|0,0:0|1:0,0:0:0:0:
335,102,33265,1,8,0:0:0:0:
335,102,33351,6,0,P|377:110|448:121,1,93.5000028533936,6|0,3:2|3:2,0:0:0:0:
227,248,33696,2,0,P|185:256|114:266,1,93.5000028533936,8|0,0:0|0:0,0:0:0:0:
417,376,34041,6,0,P|404:271|322:224,1,187.000005706787,2|8,3:2|0:0,0:0:0:0:
227,248,34558,1,0,0:0:0:0:
451,37,34731,6,0,B|415:17|370:47|370:47|365:103|302:115,1,187.000005706787,2|8,3:2|0:0,0:0:0:0:
233,43,35248,1,0,0:0:0:0:
66,206,35420,6,0,P|130:193|180:181,1,93.5000028533936,2|0,3:2|3:2,0:0:0:0:
429,344,35765,2,0,P|383:333|337:324,1,93.5000028533936,8|0,0:0|1:2,0:0:0:0:
257,384,36024,1,8,0:0:0:0:
257,384,36110,6,0,B|256:343|239:317|239:317|256:288|256:288|237:262|244:205,1,187.000005706787,2|8,3:2|0:0,0:0:0:0:
168,133,36627,1,0,0:0:0:0:
399,0,36800,6,0,B|468:35|468:35|411:66|429:134,1,187.000005706787,2|8,3:2|0:0,0:0:0:0:
458,219,37317,1,0,0:0:0:0:
255,0,37489,6,0,B|183:-20|126:36|126:36|148:32|175:46,1,187.000005706787,2|8,3:2|0:0,0:0:0:0:
252,94,38007,1,0,0:0:0:0:
21,277,38179,2,0,B|2:235|2:235|37:180,1,93.5000028533936,2|0,3:2|3:2,0:0:0:0:
252,94,38524,2,0,B|271:136|271:136|236:191,1,93.5000028533936,8|0,0:0|1:2,0:0:0:0:
200,254,38783,1,8,0:0:0:0:
200,254,38869,6,0,P|276:277|373:238,1,187.000005706787,2|8,3:2|0:0,0:0:0:0:
444,170,39386,1,0,0:0:0:0:
253,18,39558,6,0,B|221:43|228:81|228:81|282:101|282:101|297:135|264:166,1,187.000005706787,2|8,3:2|0:0,0:0:0:0:
200,235,40076,1,0,0:0:0:0:
433,353,40248,6,0,B|402:315|402:315|361:327|361:327|356:323|356:323|320:333|320:333|278:294,1,187.000005706787,2|8,3:2|0:0,0:0:0:0:
200,235,40765,1,0,0:0:0:0:
15,343,40938,6,0,P|27:299|43:246,1,93.5000028533936,2|0,3:2|3:2,0:0:0:0:
239,149,41283,1,8,0:0:0:0:
0,20,41455,1,0,1:2:0:0:
0,20,41541,1,8,0:0:0:0:
0,20,41627,6,0,B|37:52|70:42|70:42|94:72|94:72|137:61|179:96,1,187.000005706787,2|8,3:2|0:0,0:0:0:0:
24,136,42145,1,0,0:0:0:0:
235,24,42317,2,0,P|256:69|251:118,1,93.5000028533936,2|0,3:2|3:2,0:0:0:0:
67,231,42662,1,8,0:0:0:0:
67,231,42748,2,0,B|110:216|110:216|169:261,1,93.5000028533936,2|0,0:0|0:0,0:0:0:0:
227,304,43007,6,0,P|237:253|251:190,2,101.999996887207,2|2|2,3:2|0:0|0:0,0:0:0:0:
512,101,44386,6,0,B|401:88|470:37|340:22,1,178.499994552612,6|0,3:2|0:0,0:0:0:0:
279,69,45076,1,10,3:2:0:0:
279,69,45420,2,0,P|228:43|151:46,1,118.999996368408,2|0,0:0|3:2,0:0:0:0:
189,219,46110,2,0,P|240:245|317:242,1,118.999996368408,2|8,0:0|3:2,0:0:0:0:
163,131,46800,2,0,P|136:140|89:154,1,59.4999981842042,2|0,0:0|0:0,0:0:0:0:
3,267,47145,6,0,B|57:174|-26:185|40:76,1,178.499994552612,2|0,3:2|0:0,0:0:0:0:
93,37,47834,1,10,3:2:0:0:
93,37,48179,2,0,P|158:23|224:9,1,118.999996368408,2|0,0:0|3:2,0:0:0:0:
322,116,48869,2,0,P|263:128|213:140,1,101.999996887207,2|8,0:0|3:2,0:0:0:0:
175,256,49558,2,0,P|233:243|271:237,1,85,2|0,0:0|3:2,0:0:0:0:
258,239,50248,6,0,P|285:254|328:259,1,59.4999981842042,2|0,0:0|0:0,0:0:0:0:
452,223,50593,2,0,P|425:208|382:203,1,59.4999981842042,10|0,3:2|0:0,0:0:0:0:
381,360,50938,2,0,P|388:330|399:296,1,59.4999981842042,2|0,0:0|0:0,0:0:0:0:
329,108,51283,6,0,P|320:136|313:165,1,59.4999981842042,2|0,3:2|0:0,0:0:0:0:
512,109,51627,2,0,P|505:80|496:51,1,59.4999981842042,2|0,0:0|0:0,0:0:0:0:
329,108,51972,2,0,P|320:137|314:166,1,59.4999981842042,10|0,3:2|0:0,0:0:0:0:
512,109,52317,2,0,P|505:80|496:51,1,59.4999981842042,2|0,0:0|0:0,0:0:0:0:
421,149,52662,1,0,3:2:0:0:
421,149,53007,6,0,P|436:175|438:213,1,59.4999981842042,2|0,0:0|0:0,0:0:0:0:
275,359,53351,2,0,P|260:333|256:304,1,59.4999981842042,10|0,3:2|0:0,0:0:0:0:
360,245,53696,2,0,P|351:273|344:302,1,59.4999981842042,2|0,0:0|0:0,0:0:0:0:
181,370,54041,6,0,P|174:341|165:312,1,59.4999981842042,2|0,3:2|0:0,0:0:0:0:
210,146,54386,2,0,P|201:174|194:203,1,59.4999981842042,2|0,0:0|0:0,0:0:0:0:
181,370,54731,2,0,P|174:341|165:312,1,59.4999981842042,10|0,3:2|0:0,0:0:0:0:
0,192,55076,2,0,P|34:182|63:161,1,59.4999981842042,2|0,0:0|0:0,0:0:0:0:
85,137,55334,1,0,0:0:0:0:
85,137,55420,6,0,B|95:77|54:31|54:31|86:10|134:35,1,178.499994552612,6|0,3:2|0:0,0:0:0:0:
178,90,56110,1,10,3:2:0:0:
178,90,56455,2,0,B|226:53|226:53|305:70,1,118.999996368408,2|0,0:0|3:2,0:0:0:0:
408,193,57145,2,0,B|360:230|360:230|281:213,1,118.999996368408,2|8,0:0|3:2,0:0:0:0:
442,105,57834,2,0,P|474:112|501:118,1,59.4999981842042,2|0,0:0|0:0,0:0:0:0:
397,21,58179,6,0,P|363:13|238:108,1,178.499994552612,2|0,3:2|0:0,0:0:0:0:
212,163,58869,1,10,3:2:0:0:
212,163,59214,2,0,P|154:174|83:191,1,118.999996368408,2|0,0:0|3:2,0:0:0:0:
263,249,59903,2,0,P|321:260|385:276,1,101.999996887207,2|8,0:0|3:2,0:0:0:0:
206,326,60593,2,0,P|176:331|150:336,1,42.5,2|0,0:0|0:0,0:0:0:0:
279,384,60938,5,2,3:2:0:0:
279,384,61283,2,0,P|291:358|295:321,1,59.4999981842042,2|0,0:0|0:0,0:0:0:0:
423,191,61627,2,0,P|426:220|439:247,1,59.4999981842042,10|0,3:2|0:0,0:0:0:0:
283,230,61972,2,0,P|317:237|347:246,1,59.4999981842042,2|0,0:0|0:0,0:0:0:0:
441,345,62317,6,0,P|412:336|383:331,1,59.4999981842042,2|0,3:2|0:0,0:0:0:0:
221,370,62662,2,0,P|250:375|278:383,1,59.4999981842042,2|0,0:0|0:0,0:0:0:0:
441,345,63007,2,0,P|412:336|383:331,1,59.4999981842042,10|0,3:2|0:0,0:0:0:0:
221,370,63351,2,0,P|250:375|278:383,1,59.4999981842042,2|0,0:0|0:0,0:0:0:0:
192,282,63696,5,0,3:2:0:0:
192,282,64041,2,0,P|158:285|121:308,1,59.4999981842042,2|0,0:0|0:0,0:0:0:0:
13,374,64386,2,0,P|47:371|84:348,1,59.4999981842042,10|0,3:2|0:0,0:0:0:0:
9,222,64731,2,0,P|17:250|22:279,1,59.4999981842042,2|0,0:0|0:0,0:0:0:0:
176,194,65076,6,0,P|181:164|189:136,1,59.4999981842042,2|0,3:2|0:0,0:0:0:0:
22,72,65420,2,0,P|30:100|35:129,1,59.4999981842042,2|0,0:0|0:0,0:0:0:0:
176,194,65765,2,0,P|237:157|355:185,1,178.499994552612,2|0,3:2|0:0,0:0:0:0:
411,228,66455,5,2,3:2:0:0:
411,228,66800,2,0,B|435:193|435:193|423:137,1,85,10|2,0:0|0:0,0:0:0:0:
470,302,67145,1,2,3:2:0:0:
338,172,67317,1,2,3:2:0:0:
477,310,67489,2,0,P|434:320|390:333,1,85,10|0,0:0|0:0,0:0:0:0:
197,384,67834,6,0,P|183:308|110:242,1,170,2|8,3:2|0:0,0:0:0:0:
64,312,68351,1,2,0:0:0:0:
233,219,68524,1,2,3:2:0:0:
52,318,68696,1,2,3:2:0:0:
285,377,68869,1,10,0:0:0:0:
121,156,69041,1,2,1:2:0:0:
121,156,69127,1,8,0:0:0:0:
121,156,69214,6,0,B|158:100|158:100|233:142,1,127.5,2|0,3:2|0:0,0:0:0:0:
294,100,69558,2,0,P|291:57|265:19,1,85,10|0,0:0|0:0,0:0:0:0:
348,168,69903,1,2,3:2:0:0:
180,12,70076,1,2,3:2:0:0:
390,79,70248,1,10,0:0:0:0:
188,211,70420,1,2,0:0:0:0:
405,304,70593,6,0,P|415:264|431:209,1,85,2|0,3:2|0:0,0:0:0:0:
326,351,70938,1,8,0:0:0:0:
503,172,71110,6,0,P|492:130|480:89,1,85,2|0,0:0|3:2,0:0:0:0:
427,221,71455,1,2,3:2:0:0:
274,39,71627,1,10,0:0:0:0:
214,273,71800,1,2,1:2:0:0:
214,273,71886,1,8,0:0:0:0:
214,273,71972,6,0,P|142:279|86:224,1,127.5,2|0,3:2|0:0,0:0:0:0:
21,290,72317,2,0,B|7:329|7:329|32:377,1,85,10|0,0:0|0:0,0:0:0:0:
208,181,72662,2,0,P|198:139|190:97,1,85,2|0,3:2|3:2,0:0:0:0:
427,221,73007,2,0,P|436:263|447:317,1,85,10|0,0:0|0:0,0:0:0:0:
489,140,73351,5,2,3:2:0:0:
338,268,73524,1,2,0:0:0:0:
387,24,73696,2,0,P|378:66|368:107,1,85,10|0,0:0|0:0,0:0:0:0:
163,288,74041,2,0,B|205:281|205:281|244:307,1,85,2|2,3:2|3:2,0:0:0:0:
329,365,74386,1,8,0:0:0:0:
99,207,74558,1,2,1:2:0:0:
99,207,74645,1,8,0:0:0:0:
99,207,74731,6,0,P|108:165|117:123,1,85,2|2,3:2|0:0,0:0:0:0:
9,258,75076,1,10,0:0:0:0:
213,170,75248,1,2,0:0:0:0:
94,352,75420,1,2,3:2:0:0:
6,103,75593,1,2,3:2:0:0:
240,304,75765,1,10,0:0:0:0:
240,304,76110,5,0,3:2:0:0:
240,304,76283,2,0,P|286:298|336:292,1,85,0|0,3:2|0:0,0:0:0:0:
419,291,76800,5,0,3:2:0:0:
419,291,76973,2,0,P|373:297|323:303,1,85,0|0,3:2|0:0,0:0:0:0:
512,74,77489,6,0,B|406:65|481:13|362:-1,1,170,6|8,3:2|0:0,0:0:0:0:
168,152,78007,1,2,0:0:0:0:
370,93,78179,1,2,3:2:0:0:
239,0,78351,2,0,P|249:41|257:82,1,85,2|8,3:2|0:0,0:0:0:0:
409,274,78696,6,0,P|418:232|428:191,1,85,2|2,0:0|3:2,0:0:0:0:
324,210,79041,1,2,0:0:0:0:
497,334,79214,1,10,0:0:0:0:
409,274,79386,1,2,0:0:0:0:
301,361,79558,1,2,3:2:0:0:
301,361,79731,2,0,P|258:342|220:342,1,85,2|8,3:2|0:0,0:0:0:0:
39,378,80076,1,2,1:2:0:0:
39,378,80162,1,8,0:0:0:0:
39,378,80248,6,0,B|61:366|64:343|64:343|28:309|31:255,1,127.5,2|0,3:2|0:0,0:0:0:0:
0,189,80593,2,0,P|44:180|92:171,1,85,8|0,0:0|0:0,0:0:0:0:
247,16,80938,2,0,P|205:23|163:32,1,85,2|0,3:2|3:2,0:0:0:0:
301,89,81283,1,10,0:0:0:0:
79,49,81455,1,2,0:0:0:0:
207,218,81627,5,2,3:2:0:0:
207,218,81714,2,0,P|225:179|221:121,1,85,2|0,0:0|0:0,0:0:0:0:
125,249,81972,1,10,0:0:0:0:
125,249,82059,2,0,P|107:288|111:346,1,85,2|0,0:0|0:0,0:0:0:0:
177,384,82317,2,0,P|222:371|272:361,1,85,2|0,3:2|3:2,0:0:0:0:
432,317,82662,1,10,0:0:0:0:
240,155,82834,1,2,1:2:0:0:
240,155,82920,1,8,0:0:0:0:
240,155,83007,6,0,P|327:133|404:114,1,152.999995330811,2|8,3:2|0:0,0:0:0:0:
491,247,83524,1,2,0:0:0:0:
413,207,83696,1,2,3:2:0:0:
512,162,83869,1,2,3:2:0:0:
389,291,84041,2,0,P|348:279|295:269,1,76.4999976654053,10|2,0:0|0:0,0:0:0:0:
210,128,84386,6,0,B|184:142|152:137|152:137|131:161|131:161|86:153|64:170,1,152.999995330811,2|8,3:2|0:0,0:0:0:0:
0,330,84903,1,2,0:0:0:0:
83,352,85076,1,2,3:2:0:0:
149,299,85248,1,2,3:2:0:0:
70,165,85420,2,0,P|81:123|90:81,1,76.4999976654053,8|0,0:0|1:2,0:0:0:0:
109,54,85679,1,8,0:0:0:0:
109,54,85765,6,0,P|161:30|236:41,1,114.749996498108,2|0,3:2|0:0,0:0:0:0:
258,55,86110,1,10,0:0:0:0:
201,223,86283,1,2,0:0:0:0:
353,29,86455,1,2,3:2:0:0:
424,245,86627,1,2,3:2:0:0:
258,55,86800,1,10,0:0:0:0:
347,314,86972,1,2,0:0:0:0:
511,70,87145,6,0,P|469:81|419:92,1,85,2|0,3:2|0:0,0:0:0:0:
241,224,87489,5,8,0:0:0:0:
241,224,87576,2,0,B|217:187|217:187|235:131,1,85,2|0,0:0|0:0,0:0:0:0:
337,235,87834,1,2,3:2:0:0:
337,235,87921,2,0,B|361:271|361:271|349:328,1,85,2|0,0:0|0:0,0:0:0:0:
288,375,88179,2,0,P|243:362|193:352,1,85,10|0,0:0|1:2,0:0:0:0:
122,384,88438,1,8,0:0:0:0:
122,384,88524,6,0,P|76:331|95:218,1,187.000005706787,6|8,3:2|0:0,0:0:0:0:
27,140,89041,1,0,0:0:0:0:
240,262,89214,6,0,B|391:240|391:240|369:247|357:269,1,187.000005706787,2|8,3:2|0:0,0:0:0:0:
440,339,89731,1,0,0:0:0:0:
512,107,89904,6,0,B|470:71|410:99|410:99|392:53|337:57,1,187.000005706787,2|8,3:2|0:0,0:0:0:0:
270,126,90421,1,0,0:0:0:0:
80,25,90593,6,0,P|94:78|106:136,1,93.5000028533936,2|0,3:2|3:2,0:0:0:0:
348,185,90938,2,0,P|334:238|322:296,1,93.5000028533936,8|0,0:0|1:2,0:0:0:0:
266,338,91197,1,8,0:0:0:0:
266,338,91283,6,0,B|239:306|202:314|202:314|186:351|186:351|146:360|118:329,1,187.000005706787,2|8,3:2|0:0,0:0:0:0:
30,270,91800,1,0,0:0:0:0:
266,121,91973,6,0,B|312:91|312:91|287:242,1,187.000005706787,2|8,3:2|0:0,0:0:0:0:
265,371,92490,1,0,0:0:0:0:
146,147,92662,6,0,B|168:125|168:125|116:82|54:93|54:93|59:126,1,187.000005706787,2|8,3:2|0:0,0:0:0:0:
76,245,93180,1,0,0:0:0:0:
282,89,93351,6,0,P|331:88|388:119,1,93.5000028533936,2|0,3:2|3:2,0:0:0:0:
459,336,93696,2,0,P|410:335|353:366,1,93.5000028533936,8|0,0:0|1:2,0:0:0:0:
279,371,93956,1,8,0:0:0:0:
279,371,94042,6,0,B|243:352|214:343|214:343|219:270|304:285,1,187.000005706787,2|8,3:2|0:0,0:0:0:0:
369,352,94559,1,0,0:0:0:0:
211,151,94731,6,0,B|177:160|154:182|154:182|122:149|122:149|99:185|54:175,1,187.000005706787,2|8,3:2|0:0,0:0:0:0:
111,281,95249,1,0,0:0:0:0:
254,59,95421,6,0,B|334:69|334:69|337:76|337:76|436:89,1,187.000005706787,2|8,3:2|0:0,0:0:0:0:
512,153,95938,1,0,0:0:0:0:
288,237,96111,6,0,P|242:225|196:216,1,93.5000028533936,2|0,3:2|3:2,0:0:0:0:
341,103,96455,1,8,0:0:0:0:
248,384,96628,1,0,1:2:0:0:
248,384,96714,1,8,0:0:0:0:
248,384,96800,6,0,B|219:344|232:312|232:312|204:285|204:285|219:243|187:199,1,187.000005706787,2|8,3:2|0:0,0:0:0:0:
228,125,97318,1,0,0:0:0:0:
11,252,97490,2,0,P|25:205|35:161,1,93.5000028533936,2|0,3:2|3:2,0:0:0:0:
0,6,97835,1,8,0:0:0:0:
0,6,97920,2,0,P|41:29|109:31,1,93.5000028533936,2|0,0:0|0:0,0:0:0:0:
168,2,98179,6,0,B|211:-7|211:-7|257:17,1,93.5000028533936,2|0,3:2|0:0,0:0:0:0:
339,237,98524,2,0,B|295:246|295:246|249:221,1,93.5000028533936,10|0,0:0|0:0,0:0:0:0:
391,128,98869,1,2,3:2:0:0:
459,331,99041,1,0,3:2:0:0:
252,223,99214,1,8,0:0:0:0:
491,72,99386,1,0,1:2:0:0:
491,72,99472,1,8,0:0:0:0:
491,72,99558,6,0,P|509:172|527:265,1,187.000005706787,4|8,3:2|0:0,0:0:0:0:
460,353,100076,1,0,0:0:0:0:
252,223,100248,6,0,B|206:208|173:253|173:253|169:246|169:246|137:290|88:269,1,187.000005706787,2|8,3:2|0:0,0:0:0:0:
9,196,100765,1,0,0:0:0:0:
210,34,100938,6,0,B|259:7|314:54|314:54|287:127,1,187.000005706787,2|8,3:2|0:0,0:0:0:0:
252,223,101455,1,0,0:0:0:0:
460,353,101627,6,0,P|447:305|433:244,1,93.5000028533936,2|0,3:2|3:2,0:0:0:0:
138,151,101972,2,0,P|148:196|161:241,1,93.5000028533936,8|0,0:0|1:2,0:0:0:0:
185,337,102231,1,8,0:0:0:0:
185,337,102317,6,0,B|150:325|118:318|118:318|102:349|102:349|66:355|13:370,1,187.000005706787,2|8,3:2|0:0,0:0:0:0:
0,277,102834,1,0,0:0:0:0:
214,115,103007,6,0,B|246:110|246:110|215:162|215:224|215:224|179:192,1,187.000005706787,2|8,3:2|0:0,0:0:0:0:
102,129,103524,1,0,0:0:0:0:
308,275,103696,6,0,B|398:257|451:248|451:248|427:264|405:279,1,187.000005706787,2|8,3:2|0:0,0:0:0:0:
373,368,104214,1,0,0:0:0:0:
188,200,104385,6,0,P|196:158|257:104,1,93.5000028533936,2|0,3:2|3:2,0:0:0:0:
486,221,104731,2,0,P|478:179|417:125,1,93.5000028533936,8|0,0:0|1:2,0:0:0:0:
487,59,104990,1,8,0:0:0:0:
487,59,105076,6,0,B|402:43|402:43|396:48|396:48|282:25,1,187.000005706787,2|8,3:2|0:0,0:0:0:0:
349,141,105593,1,0,0:0:0:0:
45,0,105765,6,0,B|54:33|76:56|76:56|43:88|43:88|79:111|69:156,1,187.000005706787,2|8,3:2|0:0,0:0:0:0:
4,233,106283,1,0,0:0:0:0:
305,29,106455,6,0,B|295:62|273:85|273:85|306:117|306:117|270:140|280:185,1,187.000005706787,2|8,3:2|0:0,0:0:0:0:
353,253,106972,1,0,0:0:0:0:
99,377,107145,6,0,P|148:345|216:344,1,93.5000028533936,2|0,3:2|3:2,0:0:0:0:
87,163,107489,1,8,0:0:0:0:
447,232,107662,1,0,1:2:0:0:
447,232,107748,1,8,0:0:0:0:
447,232,107834,6,0,B|407:203|375:216|375:216|348:188|348:188|306:203|262:171,1,187.000005706787,2|8,3:2|0:0,0:0:0:0:
219,86,108352,1,0,0:0:0:0:
24,224,108524,2,0,P|13:178|0:133,1,93.5000028533936,2|0,3:2|3:2,0:0:0:0:
196,241,108869,1,8,0:0:0:0:
196,241,108955,2,0,P|150:244|109:269,1,93.5000028533936,2|0,0:0|0:0,0:0:0:0:
178,336,109214,6,0,P|233:350|284:366,2,101.999996887207,2|2|2,3:2|0:0|0:0,0:0:0:0:
512,225,110593,6,0,B|405:224|465:286|348:287,1,178.499994552612,6|0,3:2|0:0,0:0:0:0:
294,218,111283,1,10,3:2:0:0:
294,218,111627,2,0,P|239:208|166:195,1,118.999996368408,2|0,0:0|3:2,0:0:0:0:
42,315,112317,2,0,P|100:325|159:336,1,118.999996368408,2|8,0:0|3:2,0:0:0:0:
86,172,113007,2,0,P|71:196|64:245,1,59.4999981842042,2|0,0:0|0:0,0:0:0:0:
183,183,113352,6,0,B|237:90|154:101|220:-8,1,178.499994552612,2|0,3:2|0:0,0:0:0:0:
281,63,114041,1,10,3:2:0:0:
281,63,114386,2,0,P|342:76|400:90,1,118.999996368408,2|0,0:0|3:2,0:0:0:0:
253,236,115076,2,0,P|233:176|218:124,1,101.999996887207,2|8,0:0|3:2,0:0:0:0:
404,186,115765,2,0,P|362:232|335:260,1,85,2|0,0:0|3:2,0:0:0:0:
346,248,116455,6,0,P|319:263|276:268,1,59.4999981842042,2|0,0:0|0:0,0:0:0:0:
178,317,116800,2,0,P|207:322|232:337,1,59.4999981842042,10|0,3:2|0:0,0:0:0:0:
71,379,117145,2,0,P|78:349|89:315,1,59.4999981842042,2|0,0:0|0:0,0:0:0:0:
0,203,117489,6,0,P|9:231|16:260,1,59.4999981842042,2|0,3:2|0:0,0:0:0:0:
189,216,117834,2,0,P|182:187|173:158,1,59.4999981842042,2|0,0:0|0:0,0:0:0:0:
0,203,118179,2,0,P|9:232|15:261,1,59.4999981842042,10|0,3:2|0:0,0:0:0:0:
189,216,118524,2,0,P|182:187|173:158,1,59.4999981842042,2|0,0:0|0:0,0:0:0:0:
243,95,118869,1,0,3:2:0:0:
243,95,119214,6,0,P|273:95|306:112,1,59.4999981842042,2|0,0:0|0:0,0:0:0:0:
401,200,119558,2,0,P|371:200|344:188,1,59.4999981842042,10|0,3:2|0:0,0:0:0:0:
405,53,119903,2,0,P|396:81|389:110,1,59.4999981842042,2|0,0:0|0:0,0:0:0:0:
500,220,120248,6,0,P|493:191|484:162,1,59.4999981842042,2|0,3:2|0:0,0:0:0:0:
347,288,120593,2,0,P|338:316|331:345,1,59.4999981842042,2|0,0:0|0:0,0:0:0:0:
500,220,120938,2,0,P|493:191|484:162,1,59.4999981842042,10|0,3:2|0:0,0:0:0:0:
306,54,121283,2,0,P|276:54|245:74,1,59.4999981842042,2|0,0:0|0:0,0:0:0:0:
217,96,121541,1,0,0:0:0:0:
217,96,121627,6,0,B|114:71|114:71|74:89|81:130,1,178.499994552612,6|0,3:2|0:0,0:0:0:0:
47,211,122317,1,10,3:2:0:0:
47,211,122662,2,0,B|10:259|10:259|27:338,1,118.999996368408,2|0,0:0|3:2,0:0:0:0:
196,355,123351,2,0,B|233:307|233:307|216:228,1,118.999996368408,2|8,0:0|3:2,0:0:0:0:
366,145,124041,2,0,P|398:152|425:158,1,59.4999981842042,2|0,0:0|0:0,0:0:0:0:
333,57,124386,6,0,P|299:49|174:144,1,178.499994552612,2|0,3:2|0:0,0:0:0:0:
146,198,125076,1,10,3:2:0:0:
146,198,125421,2,0,P|162:263|176:323,1,118.999996368408,2|0,0:0|3:2,0:0:0:0:
318,253,126110,2,0,P|334:318|340:351,1,85,2|8,0:0|3:2,0:0:0:0:
482,297,126800,2,0,P|492:338|498:363,1,50.9999984436036,2|0,0:0|0:0,0:0:0:0:
411,384,127145,5,2,3:2:0:0:
411,384,127490,2,0,P|385:372|348:368,1,59.4999981842042,2|0,0:0|0:0,0:0:0:0:
236,314,127834,2,0,P|265:310|292:297,1,59.4999981842042,10|0,3:2|0:0,0:0:0:0:
159,365,128179,2,0,P|130:356|101:351,1,59.4999981842042,2|0,0:0|0:0,0:0:0:0:
43,212,128524,6,0,P|48:241|56:269,1,59.4999981842042,2|0,3:2|0:0,0:0:0:0:
224,166,128869,2,0,P|229:195|237:223,1,59.4999981842042,2|0,0:0|0:0,0:0:0:0:
43,212,129214,2,0,P|48:241|56:269,1,59.4999981842042,10|0,3:2|0:0,0:0:0:0:
224,166,129558,2,0,P|229:195|237:223,1,59.4999981842042,2|0,0:0|0:0,0:0:0:0:
292,297,129903,5,0,3:2:0:0:
292,297,130248,2,0,P|326:300|363:323,1,59.4999981842042,2|0,0:0|0:0,0:0:0:0:
492,351,130593,2,0,P|464:339|435:337,1,59.4999981842042,10|0,3:2|0:0,0:0:0:0:
429,191,130938,2,0,P|421:219|416:248,1,59.4999981842042,2|0,0:0|0:0,0:0:0:0:
213,375,131283,6,0,P|208:345|200:317,1,59.4999981842042,2|0,3:2|0:0,0:0:0:0:
30,206,131627,2,0,P|38:234|43:263,1,59.4999981842042,2|0,0:0|0:0,0:0:0:0:
213,375,131972,2,0,P|266:323|260:225,1,178.499994552612,2|0,3:2|0:0,0:0:0:0:
181,280,132662,5,2,3:2:0:0:
