osu file format v14

[General]
AudioFilename: audio.mp3
AudioLeadIn: 0
PreviewTime: 22938
Countdown: 0
SampleSet: Soft
StackLeniency: 0.7
Mode: 0
LetterboxInBreaks: 0
WidescreenStoryboard: 0

[Editor]
Bookmarks: 81,11510,22939,34367,45796,57224,68653,80080,91510,102938,114367,125796,137224,148653,160081,171510,182938,194367,205796,217224,228653
DistanceSpacing: 0.8
BeatDivisor: 4
GridSize: 32
TimelineZoom: 1.6

[Metadata]
Title:Lucid Dreams
TitleUnicode:Lucid Dreams
Artist:Juice WRLD
ArtistUnicode:Juice WRLD
Creator:eiri-
Version:Dejection
Source:
Tags:Ayyri Trynna schoolboy Komore Alexsander Seolv Alphabet [_L_u_k_a_s_] Lukas Venax Goodbye & Good Riddance Hip-Hop English Hip Hop Rap
BeatmapID:2252029
BeatmapSetID:1076285

[Difficulty]
HPDrainRate:5
CircleSize:5
OverallDifficulty:7.5
ApproachRate:9
SliderMultiplier:3
SliderTickRate:1

[Events]
//Background and Video events
0,0,"Lucid Dreams.jpg",0,0
//Break Periods
//Storyboard Layer 0 (Background)
//Storyboard Layer 1 (Fail)
//Storyboard Layer 2 (Pass)
//Storyboard Layer 3 (Foreground)
//Storyboard Layer 4 (Overlay)
//Storyboard Sound Samples

[TimingPoints]
81,714.285714285714,4,2,1,50,1,0
22938,-100,4,2,1,80,0,0
68652,-100,4,2,1,60,0,0
80080,-100,4,2,1,65,0,0
91509,-100,4,2,1,70,0,0
114366,-100,4,2,1,75,0,0
137223,-100,4,2,1,60,0,0
148652,-100,4,2,1,65,0,0
160080,-100,4,2,1,80,0,0
205795,-100,4,2,1,50,0,0
217223,-100,4,2,1,70,0,0
228652,-100,4,2,1,50,0,0

[Colours]
Combo1 : 143,185,218
Combo2 : 149,149,255
Combo3 : 199,167,216
Combo4 : 173,181,209

[HitObjects]
256,192,81,5,2,0:0:0:0:
342,253,439,1,0,0:0:0:0:
342,253,617,2,0,L|504:224,1,150,2|2,0:0|0:0,0:0:0:0:
405,212,1331,1,0,0:0:0:0:
405,212,1510,2,0,L|445:56,1,150,2|0,0:0|0:0,0:0:0:0:
395,132,2046,2,0,L|309:96,1,75,2|0,0:0|0:0,0:0:0:0:
237,168,2403,2,0,L|66:190,1,150,2|0,0:0|0:0,0:0:0:0:
19,128,2939,6,0,P|97:150|88:223,1,150,2|0,0:0|0:0,0:0:0:0:
50,264,3474,2,0,P|98:255|130:224,1,75,2|0,0:0|0:0,0:0:0:0:
145,209,3831,2,0,P|123:305|120:381,1,150,2|0,0:0|0:0,0:0:0:0:
119,356,4367,5,2,0:0:0:0:
256,320,4724,1,0,0:0:0:0:
392,356,5081,1,2,0:0:0:0:
392,356,5796,6,0,P|411:269|448:161,1,150,2|0,0:0|0:0,0:0:0:0:
455,176,6331,2,0,P|419:182|364:216,1,75,2|0,0:0|0:0,0:0:0:0:
269,148,6689,2,0,P|208:138|101:104,1,150,2|0,0:0|0:0,0:0:0:0:
99,72,7224,2,0,P|177:115|175:194,1,150,2|0,0:0|0:0,0:0:0:0:
172,249,7760,2,0,P|218:193|290:197,1,150,2|0,0:0|0:0,0:0:0:0:
319,225,8296,2,0,L|219:208,1,75,2|0,0:0|0:0,0:0:0:0:
416,160,8653,5,2,0:0:0:0:
450,241,9010,1,0,0:0:0:0:
450,241,9189,2,0,L|470:54,1,150,2|2,0:0|0:0,0:0:0:0:
320,128,9903,1,0,0:0:0:0:
320,128,10081,5,2,0:0:0:0:
256,32,10439,1,0,0:0:0:0:
192,128,10796,1,2,0:0:0:0:
256,256,11331,1,0,0:0:0:0:
256,224,11510,6,0,L|86:206,1,150,2|0,0:0|0:0,0:0:0:0:
21,327,12046,2,0,L|198:296,1,150,2|0,0:0|0:0,0:0:0:0:
270,363,12581,1,2,0:0:0:0:
270,363,12760,2,0,L|447:332,1,150,2|0,0:0|0:0,0:0:0:0:
512,321,13296,5,2,0:0:0:0:
480,160,13653,1,2,0:0:0:0:
224,224,14189,1,0,0:0:0:0:
224,224,14367,6,0,L|389:257,1,150,2|0,0:0|0:0,0:0:0:0:
417,119,14903,2,0,B|358:124|358:124|377:242,1,150,2|0,0:0|0:0,0:0:0:0:
391,345,15439,1,2,0:0:0:0:
391,345,15796,2,0,L|226:378,1,150,2|0,0:0|0:0,0:0:0:0:
143,306,16331,1,2,0:0:0:0:
143,306,16510,2,0,L|132:383,1,75,2|0,0:0|0:0,0:0:0:0:
67,177,17224,6,0,P|93:75|144:17,1,150,2|0,0:0|0:0,0:0:0:0:
147,78,17760,2,0,P|49:94|45:25,1,150,2|0,0:0|0:0,0:0:0:0:
60,26,18296,1,2,0:0:0:0:
60,26,18653,6,0,L|236:2,1,150,2|0,0:0|0:0,0:0:0:0:
309,80,19189,2,0,L|485:104,1,150,2|0,0:0|0:0,0:0:0:0:
469,112,20080,5,2,0:0:0:0:
469,112,20259,2,0,L|455:199,1,75,2|0,0:0|0:0,0:0:0:0:
361,284,22939,5,10,0:0:0:0:
375,304,23296,2,0,L|366:169,1,75,2|8,0:0|0:0,0:0:0:0:
352,96,23653,2,0,L|440:76,1,75,2|0,1:2|0:0,0:0:0:0:
320,160,23921,2,0,L|232:140,1,75,2|0,0:0|0:0,0:0:0:0:
246,143,24189,1,2,0:0:0:0:
464,65,24367,6,0,L|378:33,1,75,2|0,0:0|0:0,0:0:0:0:
398,169,24635,2,0,L|408:313,1,112.5,2|0,0:0|0:0,0:0:0:0:
395,131,25081,2,0,B|368:104|368:104|277:120,1,112.5,2|0,1:2|0:0,0:0:0:0:
294,116,25439,1,2,0:0:0:0:
380,207,25617,1,0,0:0:0:0:
81,185,25796,5,10,0:0:0:0:
114,160,26153,2,0,L|17:183,1,75,2|8,0:0|0:0,0:0:0:0:
215,213,26510,2,0,L|320:237,1,100,2|2,1:2|0:0,0:0:0:0:
343,221,26867,1,8,0:0:0:0:
389,342,27046,1,0,0:0:0:0:
464,190,27224,6,0,L|448:87,1,75,2|8,0:0|0:0,0:0:0:0:
433,14,27581,1,10,0:0:0:0:
405,44,27760,1,2,0:0:0:0:
295,30,27939,2,0,L|407:14,1,75,2|8,1:2|0:0,0:0:0:0:
296,111,28206,2,0,L|170:94,1,112.5,2|0,0:0|0:0,0:0:0:0:
32,192,28653,5,10,0:0:0:0:
32,192,28831,2,0,L|43:270,1,75,2|0,0:0|0:0,0:0:0:0:
69,111,29189,1,10,0:0:0:0:
236,141,29367,2,0,L|159:157,1,75,2|0,1:2|0:0,0:0:0:0:
82,79,29635,2,0,P|136:61|163:112,1,112.5,2|0,0:0|0:0,0:0:0:0:
137,266,30081,6,0,L|119:186,1,75,2|0,0:0|0:0,0:0:0:0:
120,192,30349,1,2,0:0:0:0:
297,245,30528,1,2,0:0:0:0:
234,366,30796,2,0,L|251:279,1,75,2|8,1:2|0:0,0:0:0:0:
268,200,31064,2,0,B|239:223|239:223|151:198,1,112.5,2|0,0:0|0:0,0:0:0:0:
30,168,31510,6,0,L|129:154,1,75,10|0,0:0|0:0,0:0:0:0:
170,94,31778,2,0,L|269:108,1,75,2|0,0:0|0:0,0:0:0:0:
244,104,32046,1,10,0:0:0:0:
284,241,32224,6,0,L|305:339,1,75,2|0,1:2|0:0,0:0:0:0:
312,358,32492,2,0,P|369:332|370:273,1,112.5,2|0,0:0|0:0,0:0:0:0:
143,266,32939,1,2,0:0:0:0:
268,200,33117,2,0,L|258:304,1,75,10|8,0:0|0:0,0:0:0:0:
250,381,33473,1,0,0:0:0:0:
177,128,33653,5,2,1:2:0:0:
152,237,33831,1,8,0:0:0:0:
159,147,34010,2,0,L|174:255,1,75,2|0,0:0|0:0,0:0:0:0:
195,375,34367,6,0,P|249:298|357:264,1,150,10|0,0:0|0:0,0:0:0:0:
296,272,34903,1,8,0:0:0:0:
152,237,35081,2,0,L|167:147,1,75,2|2,1:2|0:0,0:0:0:0:
127,66,35439,1,2,0:0:0:0:
127,66,35617,6,0,L|302:84,1,150,2|0,0:0|0:0,0:0:0:0:
311,66,36153,2,0,L|296:158,1,75,10|0,0:0|0:0,0:0:0:0:
332,310,36510,1,2,1:2:0:0:
231,258,36689,1,10,0:0:0:0:
446,224,36867,1,2,0:0:0:0:
345,172,37046,6,0,L|357:329,1,150,2|0,0:0|0:0,0:0:0:0:
363,367,37581,2,0,L|376:255,1,75,2|8,0:0|0:0,0:0:0:0:
209,324,37939,1,2,1:2:0:0:
242,350,38117,1,2,0:0:0:0:
303,306,38296,1,10,0:0:0:0:
128,288,38474,1,2,0:0:0:0:
128,288,38653,1,2,0:0:0:0:
128,288,38831,6,0,P|83:210|13:174,1,150,10|2,0:0|0:0,0:0:0:0:
4,374,39367,1,2,1:2:0:0:
58,337,39546,1,2,0:0:0:0:
146,366,39724,1,2,0:0:0:0:
107,185,39903,1,2,0:0:0:0:
123,206,40081,6,0,P|222:177|322:69,1,225,10|8,0:0|0:0,0:0:0:0:
330,50,40796,1,2,1:2:0:0:
323,71,40974,1,2,0:0:0:0:
343,113,41153,1,2,0:0:0:0:
307,209,41331,6,0,L|489:246,1,150,2|0,0:0|0:0,0:0:0:0:
480,214,41867,2,0,L|386:244,1,75,10|0,0:0|0:0,0:0:0:0:
330,354,42224,1,2,1:2:0:0:
304,317,42403,1,10,0:0:0:0:
268,326,42581,1,2,0:0:0:0:
294,357,42760,6,0,L|274:176,1,150,2|0,0:0|0:0,0:0:0:0:
272,162,43296,2,0,L|386:194,1,75,2|8,0:0|0:0,0:0:0:0:
150,249,43653,1,2,1:2:0:0:
170,173,43831,1,2,0:0:0:0:
253,299,44010,1,10,0:0:0:0:
273,223,44188,1,2,0:0:0:0:
130,267,44367,6,0,L|21:256,1,75,2|8,0:0|0:0,0:0:0:0:
91,285,44724,1,10,0:0:0:0:
64,81,45081,1,2,1:2:0:0:
156,122,45260,1,10,0:0:0:0:
0,208,45617,1,0,0:0:0:0:
61,111,45796,5,10,0:0:0:0:
61,111,46153,2,0,L|151:97,1,75,2|8,0:0|0:0,0:0:0:0:
243,209,46510,2,0,B|213:225|213:225|152:209,1,75,2|0,1:2|0:0,0:0:0:0:
204,150,46778,2,0,B|234:134|234:134|295:150,1,75,2|0,0:0|0:0,0:0:0:0:
273,144,47046,1,2,0:0:0:0:
206,311,47224,6,0,L|121:293,1,75,2|0,0:0|0:0,0:0:0:0:
288,256,47492,2,0,B|320:281|320:281|303:376,1,112.5,2|0,0:0|0:0,0:0:0:0:
185,194,47938,2,0,L|270:176,1,75,2|0,1:2|0:0,0:0:0:0:
352,218,48205,2,0,L|464:245,1,112.5,2|0,0:0|0:0,0:0:0:0:
77,252,48653,5,10,0:0:0:0:
77,252,49010,2,0,L|61:151,1,75,2|8,0:0|0:0,0:0:0:0:
41,68,49367,2,0,L|152:82,1,100,2|2,1:2|0:0,0:0:0:0:
170,65,49724,1,8,0:0:0:0:
308,218,49903,1,0,0:0:0:0:
296,116,50081,2,0,L|308:220,1,75,2|8,0:0|0:0,0:0:0:0:
326,35,50438,1,8,0:0:0:0:
354,342,50796,1,2,1:2:0:0:
354,342,51510,5,10,0:0:0:0:
360,303,51688,2,0,L|337:199,1,75,2|0,0:0|0:0,0:0:0:0:
186,302,52046,1,10,0:0:0:0:
173,257,52224,2,0,L|199:166,1,75,2|0,1:2|0:0,0:0:0:0:
234,86,52492,2,0,P|194:127|113:118,1,112.5,2|0,0:0|0:0,0:0:0:0:
9,91,52938,6,0,L|90:70,1,75,2|0,0:0|0:0,0:0:0:0:
81,72,53206,1,2,0:0:0:0:
47,240,53385,1,2,0:0:0:0:
47,240,53653,2,0,L|29:149,1,75,2|8,1:2|0:0,0:0:0:0:
26,127,53921,2,0,P|72:131|58:184,1,112.5,2|0,0:0|0:0,0:0:0:0:
60,182,54367,6,0,L|139:198,1,75,10|0,0:0|0:0,0:0:0:0:
205,119,54635,2,0,L|284:102,1,75,2|0,0:0|0:0,0:0:0:0:
278,103,54903,1,10,0:0:0:0:
257,239,55081,2,0,L|238:339,1,75,2|0,1:2|0:0,0:0:0:0:
235,356,55349,2,0,P|210:303|145:301,1,112.5,2|0,0:0|0:0,0:0:0:0:
172,328,55796,1,2,0:0:0:0:
354,270,55974,2,0,L|453:290,1,75,10|8,0:0|0:0,0:0:0:0:
387,303,56330,1,0,0:0:0:0:
433,116,56510,5,2,1:2:0:0:
458,257,56688,1,10,0:0:0:0:
458,151,56867,2,0,L|443:259,1,75,2|0,0:0|0:0,0:0:0:0:
490,28,57224,6,0,P|442:64|333:64,1,150,10|0,0:0|0:0,0:0:0:0:
313,54,57760,1,8,0:0:0:0:
313,54,57938,2,0,L|326:160,1,75,2|2,1:2|0:0,0:0:0:0:
345,291,58296,1,2,0:0:0:0:
366,324,58474,6,0,P|341:241|262:247,1,150,2|0,0:0|0:0,0:0:0:0:
278,262,59010,2,0,P|311:226|368:214,1,75,10|0,0:0|0:0,0:0:0:0:
454,170,59367,1,2,1:2:0:0:
426,201,59546,1,10,0:0:0:0:
343,152,59724,1,2,0:0:0:0:
371,121,59903,6,0,P|317:131|220:213,1,150,2|0,0:0|0:0,0:0:0:0:
173,293,60438,1,2,0:0:0:0:
247,334,60617,1,8,0:0:0:0:
265,208,60796,2,0,L|165:229,1,75,2|0,1:2|0:0,0:0:0:0:
262,306,61153,1,10,0:0:0:0:
239,184,61331,1,2,0:0:0:0:
181,377,61510,1,2,0:0:0:0:
163,350,61688,6,0,P|225:365|412:352,1,225,10|2,0:0|1:2,0:0:0:0:
452,316,62403,1,2,0:0:0:0:
346,262,62581,1,2,0:0:0:0:
428,106,62760,1,2,0:0:0:0:
428,106,63653,5,2,1:2:0:0:
410,138,63831,1,2,0:0:0:0:
358,156,64010,1,2,0:0:0:0:
300,104,64188,6,0,P|382:125|383:204,1,150,2|0,0:0|0:0,0:0:0:0:
384,219,64724,2,0,P|359:192|358:156,1,75,10|0,0:0|0:0,0:0:0:0:
494,209,65081,1,2,1:2:0:0:
412,225,65260,1,10,0:0:0:0:
436,249,65438,1,2,0:0:0:0:
383,306,65617,6,0,P|384:265|449:102,1,150,2|0,0:0|0:0,0:0:0:0:
443,124,66153,2,0,P|431:205|420:226,1,75,2|8,0:0|0:0,0:0:0:0:
275,136,66510,1,2,1:2:0:0:
261,175,66689,1,0,0:0:0:0:
292,161,66867,1,10,0:0:0:0:
197,134,67046,1,0,0:0:0:0:
234,328,67224,6,0,L|253:243,1,75,2|8,0:0|0:0,0:0:0:0:
104,311,67581,2,0,L|123:396,1,75,10|0,0:0|0:0,0:0:0:0:
120,384,67939,1,2,1:2:0:0:
129,284,68117,1,10,0:0:0:0:
318,242,68474,1,0,0:0:0:0:
256,192,68653,5,2,0:0:0:0:
480,192,69188,1,0,0:0:0:0:
448,128,69545,1,0,0:0:0:0:
416,320,70080,5,2,0:0:0:0:
256,288,70616,1,0,0:0:0:0:
192,352,70973,1,0,0:0:0:0:
32,320,71509,5,2,0:0:0:0:
160,288,71955,1,0,0:0:0:0:
128,192,72342,1,0,0:0:0:0:
256,192,72938,5,2,0:0:0:0:
256,32,73414,1,0,0:0:0:0:
256,160,73830,1,0,0:0:0:0:
256,0,74366,5,2,0:0:0:0:
384,64,74902,1,0,0:0:0:0:
480,32,75259,1,0,0:0:0:0:
480,192,75795,5,2,0:0:0:0:
352,128,76330,1,0,0:0:0:0:
320,192,76628,1,0,0:0:0:0:
192,192,77223,5,2,0:0:0:0:
288,192,78652,1,2,0:0:0:0:
224,192,79009,1,0,0:0:0:0:
256,160,79366,1,2,0:0:0:0:
256,192,80080,5,2,0:0:0:0:
384,128,80616,1,0,0:0:0:0:
448,192,80973,1,2,0:0:0:0:
320,128,81509,5,2,0:0:0:0:
256,256,81985,1,0,0:0:0:0:
192,128,82402,1,2,0:0:0:0:
384,32,82938,5,2,0:0:0:0:
128,32,83473,1,0,0:0:0:0:
192,96,83830,1,2,0:0:0:0:
32,192,84366,1,2,0:0:0:0:
192,288,84902,1,0,0:0:0:0:
256,192,85259,1,2,0:0:0:0:
256,352,85795,5,2,0:0:0:0:
256,192,86330,1,0,0:0:0:0:
320,288,86687,1,2,0:0:0:0:
480,192,87223,1,2,0:0:0:0:
320,96,87700,1,0,0:0:0:0:
384,32,88027,1,2,0:0:0:0:
256,32,89009,5,2,0:0:0:0:
256,192,91509,5,10,0:0:0:0:
270,167,91866,1,0,0:0:0:0:
270,167,92045,2,0,L|250:68,1,75,10|0,0:0|1:0,0:0:0:0:
234,3,92402,2,0,P|331:5|377:68,1,150,2|0,0:0|0:0,0:0:0:0:
415,196,92938,2,0,B|337:160|337:160|304:172|304:224,1,150,2|8,0:0|0:0,0:0:0:0:
416,160,93473,2,0,L|404:60,1,75,2|0,0:0|1:0,0:0:0:0:
480,224,93830,2,0,L|424:389,1,150,10|0,0:0|0:0,0:0:0:0:
247,282,94366,6,0,B|335:243|335:243|381:289,1,150,10|0,0:0|0:0,0:0:0:0:
223,352,94902,2,0,L|107:328,1,75,10|0,0:0|1:0,0:0:0:0:
74,367,95259,2,0,L|230:352,1,150,2|0,0:0|0:0,0:0:0:0:
136,246,95795,1,2,0:0:0:0:
136,246,95973,2,0,L|148:149,1,75,8|8,0:0|0:0,0:0:0:0:
159,71,96330,1,2,0:0:0:0:
203,121,96509,1,2,1:2:0:0:
44,148,97223,6,0,P|74:62|162:-4,1,150,10|0,0:0|0:0,0:0:0:0:
23,113,97759,2,0,L|5:11,1,75,10|0,0:0|1:0,0:0:0:0:
129,120,98116,2,0,L|111:222,1,75,2|0,0:0|0:0,0:0:0:0:
90,343,98473,1,0,0:0:0:0:
90,343,98652,2,0,P|28:247|-13:221,1,150,2|8,0:0|0:0,0:0:0:0:
224,97,99188,2,0,P|167:145|141:189,1,75,2|0,0:0|1:0,0:0:0:0:
322,309,99545,2,0,P|271:255|245:186,1,150,10|0,0:0|0:0,0:0:0:0:
480,128,100080,6,0,L|461:297,1,150,10|0,0:0|0:0,0:0:0:0:
447,370,100616,2,0,L|426:254,1,75,10|0,0:0|1:0,0:0:0:0:
409,165,100973,2,0,P|494:154|489:229,1,150,2|0,0:0|0:0,0:0:0:0:
352,224,101509,1,2,0:0:0:0:
439,191,101688,1,8,0:0:0:0:
421,368,101866,1,8,0:0:0:0:
429,322,102045,1,0,0:0:0:0:
433,296,102223,1,8,0:0:0:0:
421,368,102402,6,2,L|393:165,1,150,8|0,0:0|0:0,0:0:0:0:
382,104,102938,6,0,B|483:130|483:130|454:212,1,150,10|0,0:0|0:0,0:0:0:0:
288,224,103473,2,0,P|260:187|258:128,1,75,10|0,0:0|1:0,0:0:0:0:
325,28,103830,2,0,P|283:49|257:102,1,75,2|0,0:0|0:0,0:0:0:0:
385,133,104188,1,0,0:0:0:0:
374,155,104366,6,0,B|310:143|312:74|205:90,1,150,2|8,0:0|0:0,0:0:0:0:
128,192,104902,2,0,L|157:295,1,75,2|0,0:0|1:0,0:0:0:0:
159,80,105259,2,0,L|150:155,1,75,10|0,0:0|0:0,0:0:0:0:
0,144,105616,1,0,0:0:0:0:
26,118,105795,6,0,P|131:82|243:87,1,225,10|10,0:0|0:0,0:0:0:0:
378,129,106509,1,0,1:0:0:0:
350,97,106688,2,0,P|368:57|370:124,1,150,2|0,0:0|0:0,0:0:0:0:
320,224,107223,2,0,L|222:212,2,75,2|8|8,0:0|0:0|0:0,0:0:0:0:
472,241,107759,1,2,0:0:0:0:
419,285,107938,1,2,1:2:0:0:
369,170,108116,2,0,L|467:182,1,75,10|0,0:0|0:0,0:0:0:0:
443,179,108473,1,0,0:0:0:0:
321,248,108652,6,0,P|306:152|334:50,1,150,10|0,0:0|0:0,0:0:0:0:
343,65,109188,2,0,P|331:139|308:168,1,75,10|0,0:0|1:0,0:0:0:0:
169,118,109545,2,0,P|181:44|204:15,1,75,2|0,0:0|0:0,0:0:0:0:
314,100,109902,1,0,0:0:0:0:
133,142,110080,6,0,L|150:259,1,75,2|0,0:0|0:0,0:0:0:0:
234,271,110438,1,8,0:0:0:0:
234,271,110616,2,0,L|217:388,1,75,0|0,0:0|1:0,0:0:0:0:
167,195,110973,2,0,P|265:174|317:215,1,150,10|0,0:0|0:0,0:0:0:0:
130,341,111509,5,10,0:0:0:0:
140,218,111688,1,2,0:0:0:0:
149,320,111866,2,0,L|126:218,1,75,2|0,0:0|0:0,0:0:0:0:
104,125,112223,5,2,1:2:0:0:
134,141,112402,1,0,0:0:0:0:
150,76,112580,1,8,0:0:0:0:
408,125,112938,5,2,0:0:0:0:
378,141,113117,1,10,0:0:0:0:
362,76,113295,1,10,0:0:0:0:
256,192,113652,5,2,1:2:0:0:
256,160,113830,1,8,0:0:0:0:
256,64,114009,1,2,0:0:0:0:
256,352,114366,5,0,3:0:0:0:
268,327,115080,2,0,L|416:352,1,150,2|0,1:2|0:0,0:0:0:0:
453,336,115616,2,0,L|428:250,1,75,2|0,0:0|0:0,0:0:0:0:
404,165,115973,1,2,0:0:0:0:
503,229,116152,1,10,0:0:0:0:
502,186,116330,1,0,0:0:0:0:
329,249,116509,1,2,1:2:0:0:
416,282,116688,1,10,0:0:0:0:
427,134,116866,1,2,0:0:0:0:
427,134,117045,6,0,L|402:48,1,75,2|0,0:0|0:0,0:0:0:0:
416,40,117938,5,2,1:2:0:0:
343,97,118116,1,2,0:0:0:0:
268,66,118295,1,10,0:0:0:0:
288,94,118473,2,0,P|300:151|294:188,1,75,2|0,0:0|0:0,0:0:0:0:
214,274,118830,1,10,0:0:0:0:
214,274,119009,1,10,0:0:0:0:
229,204,119188,1,2,0:0:0:0:
304,332,119366,2,0,L|323:243,1,75,2|8,1:2|0:0,0:0:0:0:
153,224,119723,2,0,L|134:135,1,75,2|0,0:0|0:0,0:0:0:0:
112,12,120080,6,0,B|224:37|224:37|209:101,1,150,10|2,0:0|0:0,0:0:0:0:
215,71,120616,1,8,0:0:0:0:
340,32,120795,2,0,L|416:87,1,75,2|0,1:2|0:0,0:0:0:0:
413,109,121152,1,2,0:0:0:0:
200,93,121330,2,0,L|68:188,1,150,2|0,0:0|0:0,0:0:0:0:
178,301,121866,1,10,0:0:0:0:
103,270,122045,1,2,0:0:0:0:
142,367,122223,2,0,L|158:262,1,75,2|8,1:2|0:0,0:0:0:0:
104,192,122580,1,2,0:0:0:0:
104,192,122759,6,0,L|88:87,1,75,2|0,0:0|0:0,0:0:0:0:
104,86,123652,6,0,L|214:103,2,75,10|0|8,0:0|0:0|0:0,0:0:0:0:
77,48,124188,2,0,P|166:10|283:45,1,150,2|8,0:0|0:0,0:0:0:0:
261,31,124723,1,8,0:0:0:0:
217,282,125080,1,6,0:0:0:0:
233,248,125259,2,0,L|202:70,1,150,8|0,0:0|0:0,0:0:0:0:
207,100,125795,5,10,0:0:0:0:
248,126,125973,1,2,0:0:0:0:
313,121,126152,1,2,0:0:0:0:
370,70,126330,1,10,0:0:0:0:
276,26,126509,1,2,1:2:0:0:
276,39,126688,1,2,0:0:0:0:
285,61,126866,1,2,0:0:0:0:
283,147,127045,6,0,P|373:117|397:32,1,150,2|0,0:0|0:0,0:0:0:0:
346,228,127580,2,0,P|298:204|286:161,1,75,10|0,0:0|0:0,0:0:0:0:
495,120,127938,1,6,1:2:0:0:
478,158,128116,2,0,L|495:325,1,150,10|0,0:0|0:0,0:0:0:0:
493,307,128652,5,10,0:0:0:0:
418,282,128830,1,2,0:0:0:0:
420,180,129009,1,2,0:0:0:0:
495,154,129187,1,10,0:0:0:0:
439,374,129366,2,0,L|427:258,1,75,2|0,1:2|0:0,0:0:0:0:
347,210,129723,2,0,L|359:94,1,75,10|0,0:0|0:0,0:0:0:0:
376,4,130080,5,2,0:0:0:0:
376,4,130259,1,10,0:0:0:0:
376,4,130438,2,0,P|426:56|516:67,1,150,10|2,0:0|1:2,0:0:0:0:
477,98,130973,2,0,L|498:191,2,75,10|0|0,0:0|0:0|0:0,0:0:0:0:
477,98,131509,5,10,0:0:0:0:
378,125,131688,1,2,0:0:0:0:
304,27,131866,1,2,0:0:0:0:
205,0,132045,1,10,0:0:0:0:
220,37,132223,2,0,L|194:203,1,150,2|0,1:2|0:0,0:0:0:0:
188,232,132759,1,0,0:0:0:0:
171,154,132938,6,0,P|150:110|120:67,1,75,2|0,0:0|0:0,0:0:0:0:
32,160,133295,2,0,P|53:71|80:0,1,150,10|2,0:0|1:2,0:0:0:0:
82,31,133830,2,0,L|24:91,2,75,10|0|0,0:0|0:0|0:0,0:0:0:0:
82,31,134366,5,10,0:0:0:0:
214,64,134545,1,2,0:0:0:0:
168,274,134723,1,2,0:0:0:0:
36,241,134902,1,10,0:0:0:0:
288,192,135080,5,10,0:0:0:0:
194,263,135438,1,2,0:0:0:0:
301,212,135616,5,10,0:0:0:0:
20,140,135794,1,10,0:0:0:0:
352,96,136152,5,2,0:0:0:0:
365,116,136330,5,10,0:0:0:0:
47,22,136508,1,10,0:0:0:0:
54,47,136866,5,0,0:0:0:0:
39,88,137223,5,2,0:0:0:0:
256,192,137700,1,0,0:0:0:0:
256,96,138116,1,0,0:0:0:0:
473,88,138652,5,2,0:0:0:0:
256,192,139188,1,0,0:0:0:0:
256,32,140080,5,2,0:0:0:0:
256,192,140616,1,0,0:0:0:0:
256,288,140914,1,0,0:0:0:0:
256,64,141509,5,2,0:0:0:0:
256,192,141866,1,0,0:0:0:0:
256,32,142223,1,0,0:0:0:0:
256,32,142938,5,2,0:0:0:0:
256,192,143429,1,0,0:0:0:0:
256,288,143830,1,0,0:0:0:0:
256,64,144367,5,2,0:0:0:0:
256,320,144902,1,0,0:0:0:0:
256,192,145796,5,2,0:0:0:0:
384,128,146286,1,0,0:0:0:0:
416,224,146643,1,0,0:0:0:0:
96,224,147223,5,2,0:0:0:0:
256,192,147580,1,0,0:0:0:0:
416,224,147938,1,0,0:0:0:0:
256,192,148652,6,0,P|320:153|414:127,1,150,2|0,0:0|0:0,0:0:0:0:
394,146,149188,2,0,P|325:117|306:100,1,75,2|0,0:0|1:0,0:0:0:0:
228,93,149545,2,0,P|199:23|198:-1,1,75,2|0,0:0|0:0,0:0:0:0:
210,11,149902,1,0,0:0:0:0:
144,170,150080,6,0,P|47:153|4:103,1,150,2|0,0:0|0:0,0:0:0:0:
28,111,150616,2,0,L|64:211,1,75,2|0,0:0|1:0,0:0:0:0:
99,316,150973,1,0,0:0:0:0:
99,316,151152,1,0,0:0:0:0:
99,316,151330,1,0,0:0:0:0:
99,316,151509,6,0,B|193:286|152:380|266:349,1,150,2|0,0:0|0:0,0:0:0:0:
298,278,152045,2,0,L|222:294,1,75,2|0,0:0|1:0,0:0:0:0:
321,163,152402,2,0,L|383:215,1,75,2|0,0:0|0:0,0:0:0:0:
206,214,152759,1,0,0:0:0:0:
206,214,152938,6,0,P|173:123|124:60,1,150,2|0,0:0|0:0,0:0:0:0:
141,100,153473,2,0,P|193:115|275:77,1,75,2|0,0:0|1:0,0:0:0:0:
376,78,153830,1,0,0:0:0:0:
376,78,154009,1,0,0:0:0:0:
376,78,154188,1,0,0:0:0:0:
376,78,154366,6,0,P|279:111|200:169,1,150,2|0,0:0|0:0,0:0:0:0:
269,141,154902,2,0,L|319:239,1,75,2|0,0:0|1:0,0:0:0:0:
212,328,155259,2,0,L|231:215,1,75,2|0,0:0|0:0,0:0:0:0:
436,275,155616,1,0,0:0:0:0:
436,275,155795,6,0,L|342:129,1,150,2|0,0:0|0:0,0:0:0:0:
388,152,156330,2,0,L|366:266,1,75,2|0,0:0|1:0,0:0:0:0:
346,256,156688,2,0,L|368:370,1,75,2|0,0:0|0:0,0:0:0:0:
360,329,157045,1,0,0:0:0:0:
360,329,157223,6,0,L|522:367,1,150,2|0,0:0|0:0,0:0:0:0:
497,354,157759,1,0,0:0:0:0:
497,354,157938,2,0,L|401:375,3,75,2|0|0|0,1:2|0:0|0:0|0:0,0:0:0:0:
395,258,158652,2,0,L|299:237,3,75,2|0|0|0,0:0|0:0|0:0|0:0,0:0:0:0:
212,328,159366,5,2,1:2:0:0:
234,313,159545,1,2,0:0:0:0:
275,327,159723,2,0,L|173:353,1,75,2|0,0:0|0:0,0:0:0:0:
19,293,160080,5,10,0:0:0:0:
34,266,160438,2,0,L|5:166,1,75,2|8,0:0|0:0,0:0:0:0:
77,83,160795,2,0,P|140:101|179:88,1,75,2|0,1:2|0:0,0:0:0:0:
190,13,161063,2,0,P|154:41|139:78,1,75,2|0,0:0|0:0,0:0:0:0:
202,160,161331,1,2,0:0:0:0:
384,64,161509,6,0,L|462:85,1,75,2|0,0:0|0:0,0:0:0:0:
384,101,161777,2,0,L|403:237,1,112.5,2|0,0:0|0:0,0:0:0:0:
303,376,162223,2,0,P|259:312|279:271,1,112.5,2|0,1:2|0:0,0:0:0:0:
267,285,162581,1,2,0:0:0:0:
424,316,162759,1,0,0:0:0:0:
480,160,162938,5,10,0:0:0:0:
509,130,163295,2,0,L|412:153,1,75,2|8,0:0|0:0,0:0:0:0:
343,266,163652,2,0,L|448:290,1,100,2|2,1:2|0:0,0:0:0:0:
424,316,164009,1,8,0:0:0:0:
379,190,164188,1,0,0:0:0:0:
185,265,164366,6,0,L|197:357,1,75,2|8,0:0|0:0,0:0:0:0:
220,181,164723,1,2,0:0:0:0:
248,196,164902,1,2,0:0:0:0:
280,160,165080,2,0,L|181:173,1,75,2|8,1:2|0:0,0:0:0:0:
135,111,165348,2,0,L|12:95,1,112.5,2|0,0:0|0:0,0:0:0:0:
246,32,165795,5,10,0:0:0:0:
267,0,165973,2,0,L|257:84,1,75,2|0,0:0|0:0,0:0:0:0:
234,238,166331,1,10,0:0:0:0:
352,192,166509,2,0,L|427:204,1,75,2|0,1:2|0:0,0:0:0:0:
405,312,166777,2,0,P|348:305|345:247,1,112.5,2|0,0:0|0:0,0:0:0:0:
483,133,167223,6,0,L|472:51,1,75,2|0,0:0|0:0,0:0:0:0:
473,58,167491,1,2,0:0:0:0:
487,172,167670,1,2,0:0:0:0:
337,73,167938,2,0,L|347:154,1,75,2|8,1:2|0:0,0:0:0:0:
352,192,168206,2,0,P|328:163|243:167,1,112.5,2|0,0:0|0:0,0:0:0:0:
145,269,168652,6,0,L|244:255,1,75,10|0,0:0|0:0,0:0:0:0:
111,182,168920,2,0,L|12:168,1,75,2|0,0:0|0:0,0:0:0:0:
36,171,169188,1,10,0:0:0:0:
173,94,169366,6,0,L|157:-8,1,75,2|0,1:2|0:0,0:0:0:0:
194,28,169634,2,0,P|177:92|118:93,1,112.5,2|0,0:0|0:0,0:0:0:0:
46,60,170081,1,2,0:0:0:0:
286,13,170259,2,0,L|292:117,1,75,10|8,0:0|0:0,0:0:0:0:
296,194,170616,1,0,0:0:0:0:
488,173,170795,5,2,1:2:0:0:
404,97,170973,1,0,0:0:0:0:
450,168,171152,2,0,L|439:93,1,75,0|0,0:0|0:0,0:0:0:0:
464,305,171509,6,0,P|394:357|304:343,1,150,10|0,0:0|0:0,0:0:0:0:
223,302,172045,1,8,0:0:0:0:
223,302,172223,2,0,L|306:284,1,75,2|2,1:2|0:0,0:0:0:0:
170,378,172580,1,2,0:0:0:0:
170,378,172759,6,0,L|184:206,1,150,2|0,0:0|0:0,0:0:0:0:
193,235,173295,2,0,L|119:289,1,75,10|0,0:0|0:0,0:0:0:0:
17,233,173652,1,2,1:2:0:0:
56,149,173830,1,10,0:0:0:0:
171,195,174009,1,2,0:0:0:0:
132,279,174188,6,0,L|95:97,1,150,2|0,0:0|0:0,0:0:0:0:
93,92,174723,2,0,L|157:185,1,75,2|8,0:0|0:0,0:0:0:0:
218,264,175080,1,2,1:2:0:0:
242,251,175259,1,2,0:0:0:0:
264,207,175438,1,10,0:0:0:0:
236,111,175616,1,2,0:0:0:0:
426,78,175795,1,2,0:0:0:0:
426,78,175973,6,0,P|351:26|165:26,1,225,10|2,0:0|1:2,0:0:0:0:
132,60,176688,1,2,0:0:0:0:
259,94,176866,1,2,0:0:0:0:
95,51,177045,1,2,0:0:0:0:
95,51,177938,5,2,1:2:0:0:
124,70,178116,1,2,0:0:0:0:
177,52,178295,1,2,0:0:0:0:
135,0,178473,6,0,L|162:156,1,150,2|0,0:0|0:0,0:0:0:0:
184,128,179009,2,0,L|108:69,1,75,10|0,0:0|0:0,0:0:0:0:
64,251,179366,1,2,1:2:0:0:
136,228,179545,1,10,0:0:0:0:
165,339,179723,1,2,0:0:0:0:
93,362,179902,6,0,L|238:267,1,150,2|0,0:0|0:0,0:0:0:0:
254,258,180438,2,0,L|137:221,1,75,2|8,0:0|0:0,0:0:0:0:
162,352,180795,1,2,1:2:0:0:
165,339,180973,1,2,0:0:0:0:
155,310,181152,1,10,0:0:0:0:
312,335,181330,1,2,0:0:0:0:
312,335,181509,6,0,L|287:221,1,75,2|8,0:0|0:0,0:0:0:0:
234,384,181866,1,10,0:0:0:0:
288,160,182223,1,2,1:2:0:0:
132,212,182402,1,10,0:0:0:0:
312,151,182759,1,0,0:0:0:0:
77,72,182938,5,10,0:0:0:0:
77,72,183295,2,0,L|69:193,1,75,2|8,0:0|0:0,0:0:0:0:
277,108,183652,2,0,L|365:88,1,75,2|0,1:2|0:0,0:0:0:0:
216,38,183920,2,0,L|167:114,1,75,2|0,0:0|0:0,0:0:0:0:
175,101,184188,1,2,0:0:0:0:
447,68,184366,6,0,L|387:22,1,75,2|0,0:0|0:0,0:0:0:0:
393,56,184634,2,0,P|456:34|479:-7,1,112.5,2|0,0:0|0:0,0:0:0:0:
272,0,185080,2,0,B|245:27|245:27|261:118,1,112.5,2|0,1:2|0:0,0:0:0:0:
257,100,185438,1,2,0:0:0:0:
387,22,185616,1,0,0:0:0:0:
460,236,185795,5,10,0:0:0:0:
487,261,186152,2,0,L|463:163,1,75,2|8,0:0|0:0,0:0:0:0:
287,127,186509,2,0,L|263:232,1,100,2|2,1:2|0:0,0:0:0:0:
279,211,186866,1,8,0:0:0:0:
274,87,187045,1,0,0:0:0:0:
32,108,187223,5,2,0:0:0:0:
35,111,188652,5,10,0:0:0:0:
35,111,188830,2,0,L|134:83,1,75,2|0,0:0|0:0,0:0:0:0:
197,248,189188,1,10,0:0:0:0:
261,158,189366,2,0,L|189:135,1,75,2|0,1:2|0:0,0:0:0:0:
152,123,189634,2,0,P|146:175|194:196,1,112.5,2|0,0:0|0:0,0:0:0:0:
389,128,190080,6,0,L|371:48,1,75,2|0,0:0|0:0,0:0:0:0:
372,54,190348,1,2,0:0:0:0:
412,240,190527,1,2,0:0:0:0:
467,75,190795,2,0,L|450:-12,1,75,2|8,1:2|0:0,0:0:0:0:
473,121,191063,2,0,B|444:144|444:144|356:119,1,112.5,2|0,0:0|0:0,0:0:0:0:
190,75,191509,6,0,L|287:51,1,75,10|0,0:0|0:0,0:0:0:0:
111,21,191777,2,0,L|87:118,1,75,2|0,0:0|0:0,0:0:0:0:
92,93,192045,1,10,0:0:0:0:
265,216,192223,6,0,L|244:118,1,75,2|0,1:2|0:0,0:0:0:0:
345,156,192491,2,0,P|346:210|301:240,1,112.5,2|0,0:0|0:0,0:0:0:0:
153,201,192938,1,2,0:0:0:0:
247,169,193116,1,10,0:0:0:0:
247,169,193295,1,8,0:0:0:0:
226,361,193652,6,0,L|334:346,1,75,2|8,0:0|0:0,0:0:0:0:
325,313,194009,2,0,L|433:298,1,75,2|0,0:0|0:0,0:0:0:0:
507,291,194366,6,0,P|459:245|381:211,1,150,10|0,0:0|0:0,0:0:0:0:
262,291,194902,1,8,0:0:0:0:
262,291,195080,2,0,L|276:198,1,75,2|2,1:2|0:0,0:0:0:0:
295,78,195438,1,2,0:0:0:0:
295,78,195616,6,0,P|244:88|125:136,1,150,2|0,0:0|0:0,0:0:0:0:
149,105,196152,2,0,P|200:123|234:144,1,75,10|0,0:0|0:0,0:0:0:0:
143,261,196509,1,2,1:2:0:0:
113,172,196688,1,10,0:0:0:0:
296,217,196866,1,2,0:0:0:0:
220,279,197045,6,0,P|211:222|176:108,1,150,2|0,0:0|0:0,0:0:0:0:
182,149,197580,2,0,P|240:137|276:123,1,75,2|8,0:0|0:0,0:0:0:0:
359,65,197938,1,2,1:2:0:0:
271,19,198116,1,2,0:0:0:0:
327,240,198295,1,10,0:0:0:0:
474,207,198473,1,2,0:0:0:0:
474,207,198652,1,2,0:0:0:0:
474,207,198830,6,0,P|378:178|342:126,1,150,10|2,0:0|0:0,0:0:0:0:
380,40,199366,1,2,1:2:0:0:
413,164,199545,1,2,0:0:0:0:
218,137,199723,1,2,0:0:0:0:
395,73,199902,1,2,0:0:0:0:
395,73,200080,6,0,P|290:58|150:52,1,225,10|8,0:0|0:0,0:0:0:0:
52,81,200795,1,2,1:2:0:0:
73,117,200973,1,2,0:0:0:0:
77,39,201152,1,2,0:0:0:0:
101,232,201330,6,0,P|201:262|258:288,1,150,2|0,0:0|0:0,0:0:0:0:
247,272,201866,2,0,P|175:292|148:309,1,75,10|0,0:0|0:0,0:0:0:0:
347,350,202223,2,0,L|355:248,2,75,2|10|2,1:2|0:0|0:0,0:0:0:0:
347,362,202759,1,2,0:0:0:0:
347,362,203652,6,0,L|261:369,1,75,2|0,0:0|0:0,0:0:0:0:
234,343,204009,2,0,L|148:336,1,75,2|0,0:0|0:0,0:0:0:0:
38,377,204366,1,2,0:0:0:0:
6,242,204723,1,0,0:0:0:0:
29,344,205080,1,2,0:0:0:0:
13,276,205437,1,0,0:0:0:0:
21,309,205795,5,2,0:0:0:0:
166,240,206152,1,0,0:0:0:0:
166,240,206330,2,0,L|343:268,1,150,2|0,0:0|0:0,0:0:0:0:
249,217,207045,1,0,0:0:0:0:
249,217,207223,2,0,L|286:64,1,150,2|0,0:0|0:0,0:0:0:0:
174,18,207759,2,0,L|203:140,1,75,2|0,0:0|0:0,0:0:0:0:
361,146,208116,2,0,L|400:-13,1,150,2|0,0:0|0:0,0:0:0:0:
506,122,208652,6,0,P|422:191|379:138,1,150,2|0,0:0|0:0,0:0:0:0:
306,78,209188,2,0,P|325:115|323:152,1,75,2|0,0:0|0:0,0:0:0:0:
155,182,209545,2,0,P|136:145|138:108,1,75,2|0,0:0|0:0,0:0:0:0:
320,224,209902,1,0,0:0:0:0:
320,224,210080,5,2,0:0:0:0:
256,96,210438,1,0,0:0:0:0:
192,224,210795,1,2,0:0:0:0:
192,224,211509,6,0,P|218:304|227:374,1,150,2|0,0:0|0:0,0:0:0:0:
220,354,212045,2,0,P|237:309|259:264,1,75,2|0,0:0|0:0,0:0:0:0:
424,257,212402,2,0,P|361:328|304:311,1,150,2|0,0:0|0:0,0:0:0:0:
312,178,212938,2,0,L|244:17,1,150,2|0,0:0|0:0,0:0:0:0:
248,62,213473,2,0,L|358:92,1,75,2|0,0:0|0:0,0:0:0:0:
161,134,213830,2,0,L|-3:178,1,150,2|0,0:0|0:0,0:0:0:0:
104,187,214366,6,0,L|81:353,1,150,2|0,0:0|0:0,0:0:0:0:
5,247,214902,2,0,L|25:111,1,75,2|0,0:0|0:0,0:0:0:0:
182,275,215259,2,0,L|162:411,1,75,2|0,0:0|0:0,0:0:0:0:
108,150,215616,1,0,0:0:0:0:
108,150,215795,5,2,0:0:0:0:
256,64,216152,1,0,0:0:0:0:
404,150,216509,1,2,0:0:0:0:
404,150,217223,5,10,0:0:0:0:
179,199,217759,1,8,0:0:0:0:
207,179,217938,2,0,L|335:205,1,75,2|0,1:2|0:0,0:0:0:0:
478,232,218295,1,0,0:0:0:0:
461,259,218473,6,0,L|490:81,1,150,2|0,0:0|0:0,0:0:0:0:
459,72,219009,2,0,L|474:180,1,75,10|0,0:0|0:0,0:0:0:0:
492,296,219366,1,2,1:2:0:0:
417,250,219545,1,10,0:0:0:0:
499,208,219723,1,2,0:0:0:0:
392,372,219902,6,0,L|220:348,1,150,2|2,0:0|0:0,0:0:0:0:
314,252,220438,1,2,0:0:0:0:
314,252,220616,2,0,L|142:276,1,150,10|0,0:0|0:0,0:0:0:0:
47,192,221152,1,10,0:0:0:0:
47,192,221330,1,0,0:0:0:0:
47,192,221509,1,2,0:0:0:0:
47,192,221688,6,0,L|37:290,2,75,10|8|0,0:0|0:0|0:0,0:0:0:0:
62,55,222223,1,2,1:2:0:0:
144,108,222402,1,10,0:0:0:0:
4,192,222580,1,2,0:0:0:0:
168,292,222759,6,0,L|142:99,1,150,2|0,0:0|0:0,0:0:0:0:
325,131,223295,1,0,0:0:0:0:
325,131,223473,1,10,0:0:0:0:
325,131,223652,2,0,L|309:239,1,75,2|0,1:2|0:0,0:0:0:0:
287,41,224009,1,2,0:0:0:0:
287,41,224188,6,0,L|404:67,1,75,2|0,0:0|0:0,0:0:0:0:
420,112,224545,2,0,L|537:138,1,75,2|10,0:0|0:0,0:0:0:0:
485,141,224902,1,2,0:0:0:0:
501,178,225080,1,0,1:0:0:0:
501,178,225259,2,0,L|513:338,1,150,10|0,0:0|0:0,0:0:0:0:
318,286,225795,5,10,0:0:0:0:
333,215,225973,1,2,0:0:0:0:
404,230,226152,1,2,0:0:0:0:
389,301,226330,1,10,0:0:0:0:
320,190,226509,6,0,L|346:98,1,75,2|0,1:2|0:0,0:0:0:0:
405,80,226866,1,10,0:0:0:0:
405,80,227045,1,2,0:0:0:0:
405,80,227223,2,0,L|379:-12,1,75,2|8,0:0|0:0,0:0:0:0:
320,190,227580,1,10,0:0:0:0:
320,190,228652,5,2,0:0:0:0:
