osu file format v14

[General]
AudioFilename: audio.mp3
AudioLeadIn: 0
PreviewTime: 205719
Countdown: 0
SampleSet: Soft
StackLeniency: 0.5
Mode: 0
LetterboxInBreaks: 0
WidescreenStoryboard: 1

[Editor]
Bookmarks: 23041,32683,45898,55541,68755,91612,107683,114469,137326,160183,169826,183041,188755,197862,205898,215540
DistanceSpacing: 1.6
BeatDivisor: 8
GridSize: 8
TimelineZoom: 1.200001

[Metadata]
Title:Lucid Dreams (Remix) feat. Lil Uzi Vert
TitleUnicode:Lucid Dreams (Remix) feat. Lil Uzi Vert
Artist:Juice WRLD
ArtistUnicode:Juice WRLD
Creator:1103
Version:riffy's Hard
Source:
Tags:goodbye & good riddance english hip hop rap riffy bakari qiyana clubber washedup player dyl-byl shape of my heart sting ft. wont
BeatmapID:3057350
BeatmapSetID:1475832

[Difficulty]
HPDrainRate:4.5
CircleSize:5
OverallDifficulty:7
ApproachRate:7
SliderMultiplier:1.89999990463257
SliderTickRate:1

[Events]
//Background and Video events
0,0,"Uvykh4.png",0,0
//Break Periods
2,77477,79315
2,183239,187855
//Storyboard Layer 0 (Background)
//Storyboard Layer 1 (Fail)
//Storyboard Layer 2 (Pass)
//Storyboard Layer 3 (Foreground)
//Storyboard Layer 4 (Overlay)
//Storyboard Sound Samples

[TimingPoints]
184,714.285714285714,4,2,1,60,1,0
68755,691.64265129683,4,2,1,60,1,0
69273,714.285714285714,4,2,1,60,1,0
69630,670.391061452514,4,2,1,60,1,0
70132,725.075528700906,4,2,1,60,1,0
70675,764.331210191083,4,2,1,60,1,0
71057,679.886685552408,4,2,1,60,1,0
71566,676.056338028169,4,2,1,60,1,0
72073,786.885245901639,4,2,1,60,1,0
72466,707.964601769911,4,2,1,60,1,0
72996,712.166172106825,4,2,1,60,1,0
73530,720.720720720721,4,2,1,60,1,0
73890,705.882352941176,4,2,1,60,1,0
74419,710.059171597633,4,2,1,60,1,0
75306,727.272727272727,4,2,1,60,1,0
75851,703.812316715542,4,2,1,60,1,0
76378,731.70731707317,4,2,1,60,1,0
76743,712.166172106825,4,2,1,60,1,0
77277,738.461538461538,4,2,1,60,1,0
79123,712.166172106825,4,2,1,60,1,0
79835,761.904761904762,4,2,1,60,1,0
80215,668.523676880223,4,2,1,60,1,0
80716,716.417910447761,4,2,1,60,1,0
81074,716.417910447761,4,2,1,60,1,0
81611,648.648648648648,4,2,1,60,1,0
82097,830.449826989619,4,2,1,60,1,0
82512,707.964601769911,4,2,1,60,1,0
83042,718.562874251497,4,2,1,60,1,0
83580,727.272727272727,4,2,1,60,1,0
83943,716.417910447761,4,2,1,60,1,0
84480,703.812316715542,4,2,1,60,1,0
85007,718.562874251497,4,2,1,60,1,0
85366,697.674418604651,4,2,1,60,1,0
85889,670.391061452514,4,2,1,60,1,0
86391,764.331210191083,4,2,1,60,1,0
86773,687.679083094556,4,2,1,60,1,0
88146,650.406504065041,4,2,1,60,1,0
89121,712.166172106825,4,2,1,60,1,0
89477,714.285714285714,4,2,1,60,1,0
91612,714.285714285714,4,2,1,60,1,0
91612,-100,4,2,1,60,0,0
137326,650.406504065041,4,2,1,60,1,0
137326,-100,4,2,1,45,0,0
137813,718.562874251497,4,2,1,60,1,0
138172,727.272727272727,4,2,1,60,1,0
138717,714.285714285714,4,2,1,60,1,0
139252,813.559322033898,4,2,1,60,1,0
139658,853.849437882453,4,2,1,60,1,0
139871,546.697038724374,4,2,1,60,1,0
140144,727.272727272727,4,2,1,60,1,0
140689,677.966101694915,4,2,1,60,1,0
141027,727.272727272727,4,2,1,60,1,0
141572,703.812316715542,4,2,1,60,1,0
142099,674.157303370787,4,2,1,60,1,0
142604,697.674418604651,4,2,1,60,1,0
142778,941.176470588235,4,2,1,60,1,0
143013,703.812316715542,4,2,1,60,1,0
143540,695.652173913043,4,2,1,60,1,0
143887,720.72072072072,4,2,1,60,1,0
144427,685.714285714285,4,2,1,60,1,0
144941,736.196319018405,4,2,1,60,1,0
145861,714.285714285714,4,2,1,60,1,0
146396,699.708454810495,4,2,1,60,1,0
146745,722.89156626506,4,2,1,60,1,0
147287,676.056338028169,4,2,1,60,1,0
147963,821.917808219178,4,2,1,60,1,0
148579,697.674418604651,4,2,1,60,1,0
148755,714.285714285714,4,2,1,60,1,0
148755,-100,4,2,1,45,0,0
160183,-76.9230769230769,4,2,1,45,0,0
183039,679.886685552408,4,2,1,60,1,0
183041,-100,4,2,1,50,0,0
183548,729.483282674772,4,2,1,60,1,0
183912,465.116279069767,4,2,1,60,1,0
184144,776.497994046849,4,2,1,60,1,0
184532,641.711229946524,4,2,1,60,1,0
184852,469.667318982387,4,2,1,60,1,0
185086,586.79706601467,4,2,1,60,1,0
185379,754.716981132075,4,2,1,60,1,0
185756,836.236933797909,4,2,1,60,1,0
185965,695.652173913044,4,2,1,60,1,0
186312,695.652173913043,4,2,1,60,1,0
186485,722.89156626506,4,2,1,60,1,0
186665,776.497994046849,4,2,1,60,1,0
186859,604.534005037783,4,2,1,60,1,0
187161,589.813913710224,4,2,1,60,1,0
187455,589.680589680589,4,2,1,60,1,0
187749,481.05061454216,4,2,1,60,1,0
187989,568.720379146919,4,2,1,60,1,0
188273,641.711229946524,4,2,1,60,1,0
188755,714.285714285714,4,2,1,60,1,0
188755,-66.6666666666667,4,2,1,65,0,0
205897,-76.9230769230769,4,2,1,65,0,0
228755,-66.6666666666667,4,2,1,35,0,0
234469,-66.6666666666667,4,2,1,17,0,0
240183,-66.6666666666667,4,2,1,5,0,0

[Colours]
Combo1 : 75,0,128
Combo2 : 163,59,236
Combo3 : 200,110,34
Combo4 : 209,167,131

[HitObjects]
109,61,23041,22,0,P|117:131|119:163,1,94.9999952316285,12|2,3:0|2:0,0:0:0:0:
68,212,23576,1,12,3:0:0:0:
68,212,23755,1,8,2:0:0:0:
215,175,24112,1,0,0:0:0:0:
357,227,24469,1,2,2:0:0:0:
494,161,24826,2,0,P|497:102|500:53,1,94.9999952316285,12|8,3:0|2:0,0:0:0:0:
407,31,25362,2,0,P|413:98|416:130,1,94.9999952316285,12|0,3:0|0:0,0:0:0:0:
347,160,25898,6,0,P|274:134|250:122,1,94.9999952316285,12|2,3:0|2:0,0:0:0:0:
220,66,26433,1,12,3:0:0:0:
220,66,26612,1,8,2:0:0:0:
164,210,26969,2,0,P|113:188|57:165,1,94.9999952316285,12|2,3:0|2:0,0:0:0:0:
52,105,27505,1,12,3:0:0:0:
52,105,27683,1,12,3:0:0:0:
0,233,28041,1,8,2:0:0:0:
0,233,28219,2,0,P|3:277|4:343,1,94.9999952316285,12|0,3:0|0:0,0:0:0:0:
90,278,28755,38,0,P|85:325|79:373,1,94.9999952316285,12|2,3:0|2:0,0:0:0:0:
165,340,29291,1,12,3:0:0:0:
165,340,29469,1,8,2:0:0:0:
304,279,29826,1,2,2:0:0:0:
428,366,30183,1,2,2:0:0:0:
510,237,30541,2,0,P|502:178|497:132,1,94.9999952316285,12|8,3:0|2:0,0:0:0:0:
425,121,31076,2,0,P|418:179|413:219,1,94.9999952316285,12|2,3:0|2:0,0:0:0:0:
337,225,31612,6,0,L|350:283,1,47.4999976158143,12|0,3:0|0:0,0:0:0:0:
347,271,31969,2,0,L|336:321,1,47.4999976158143,0|12,0:0|3:0,0:0:0:0:
336,317,32326,2,0,L|348:386,1,47.4999976158143,8|2,2:0|2:0,0:0:0:0:
344,364,32683,1,2,1:0:0:0:
192,352,33041,1,2,2:0:0:0:
192,352,33219,1,12,3:0:0:0:
192,352,33398,2,0,L|128:339,1,47.4999976158143,12|8,3:0|3:0,0:0:0:0:
145,342,33755,2,0,L|93:351,1,47.4999976158143,8|12,2:0|3:0,0:0:0:0:
98,350,34112,2,0,L|51:341,1,47.4999976158143,2|2,2:0|2:0,0:0:0:0:
44,344,34469,37,12,3:0:0:0:
15,41,35183,1,8,2:0:0:0:
15,41,35362,1,2,2:0:0:0:
149,110,35719,1,2,2:0:0:0:
287,47,36076,1,2,2:0:0:0:
287,47,36255,1,12,3:0:0:0:
432,89,36612,1,8,2:0:0:0:
432,89,36791,1,12,3:0:0:0:
290,143,37148,1,2,2:0:0:0:
185,32,37505,5,2,2:0:0:0:
185,32,37683,1,2,2:0:0:0:
55,112,38041,1,8,2:0:0:0:
55,112,38219,1,2,2:0:0:0:
194,172,38576,1,2,2:0:0:0:
194,172,38755,1,2,2:0:0:0:
194,172,38933,2,0,P|238:158|301:150,1,94.9999952316285,12|8,3:0|3:0,0:0:0:0:
293,154,39469,1,8,2:0:0:0:
288,160,39648,1,12,3:0:0:0:
511,144,40183,38,0,P|458:132|410:125,1,94.9999952316285,12|0,3:0|0:0,0:0:0:0:
446,50,40719,2,0,P|406:53|336:62,1,94.9999952316285,12|2,3:0|2:0,0:0:0:0:
293,9,41255,2,0,P|268:28|242:48,1,47.4999976158143,2|2,2:0|2:0,0:0:0:0:
181,17,41612,1,0,0:0:0:0:
241,196,41969,1,12,3:0:0:0:
98,322,42326,1,8,2:0:0:0:
98,322,42505,1,12,3:0:0:0:
28,186,42862,1,2,2:0:0:0:
28,186,43041,6,0,P|74:190|134:196,1,94.9999952316285,12|2,3:0|2:0,0:0:0:0:
272,169,43755,2,0,P|312:176|336:179,1,47.4999976158143,8|2,2:0|2:0,0:0:0:0:
322,183,44112,1,12,3:0:0:0:
469,148,44469,1,2,2:0:0:0:
464,151,44648,2,0,L|472:199,1,47.4999976158143,12|12,3:0|3:0,0:0:0:0:
507,20,45183,1,8,2:0:0:0:
502,23,45362,2,0,L|510:71,1,47.4999976158143,12|2,3:0|2:0,0:0:0:0:
361,155,45898,37,12,3:0:0:0:
209,76,46255,1,0,0:0:0:0:
80,188,46612,1,8,2:0:0:0:
80,188,46791,2,0,P|67:146|61:93,1,94.9999952316285,2|0,2:0|0:0,0:0:0:0:
156,125,47326,2,0,P|164:88|168:69,1,47.4999976158143,2|0,2:0|0:0,0:0:0:0:
250,120,47683,1,12,3:0:0:0:
125,251,48041,1,8,2:0:0:0:
125,251,48219,2,0,P|88:241|67:237,1,47.4999976158143,12|0,3:0|0:0,0:0:0:0:
220,351,48755,6,0,P|278:341|330:329,1,94.9999952316285,12|2,3:0|2:0,0:0:0:0:
288,232,49291,2,0,P|352:246|390:259,1,94.9999952316285,12|2,3:0|2:0,0:0:0:0:
418,174,49826,1,12,3:0:0:0:
250,52,50183,1,2,2:0:0:0:
250,52,50362,2,0,L|251:105,1,47.4999976158143,12|12,3:0|3:0,0:0:0:0:
151,250,50898,37,8,2:0:0:0:
151,250,51076,1,2,2:0:0:0:
142,243,51612,6,0,P|101:227|43:333,1,189.999990463257,12|8,3:0|2:0,0:0:0:0:
37,333,52505,1,2,2:0:0:0:
214,384,52862,2,0,P|180:362|126:342,1,94.9999952316285,0|2,0:0|2:0,0:0:0:0:
133,347,53398,1,12,3:0:0:0:
304,290,53755,1,8,2:0:0:0:
304,290,53933,1,12,3:0:0:0:
201,39,54469,38,0,P|196:91|200:151,1,94.9999952316285,12|0,3:0|0:0,0:0:0:0:
194,127,55005,2,0,L|203:183,1,47.4999976158143,12|8,3:0|2:0,0:0:0:0:
103,325,55541,2,0,L|112:381,1,47.4999976158143,2|2,1:0|2:0,0:0:0:0:
7,223,56076,1,12,3:0:0:0:
7,223,56255,2,0,L|16:279,1,47.4999976158143,12|8,3:0|3:0,0:0:0:0:
14,269,56612,2,0,L|2:328,1,47.4999976158143,8|12,2:0|3:0,0:0:0:0:
241,185,57326,5,12,3:0:0:0:
13,38,57862,1,12,3:0:0:0:
13,38,58041,1,8,2:0:0:0:
236,4,58576,1,2,2:0:0:0:
170,172,58933,1,2,2:0:0:0:
170,172,59112,1,12,3:0:0:0:
138,11,59469,1,8,2:0:0:0:
138,11,59648,1,12,3:0:0:0:
280,121,60005,1,2,2:0:0:0:
280,121,60183,38,0,P|221:111|182:111,1,94.9999952316285,12|2,3:0|2:0,0:0:0:0:
88,92,60719,2,0,P|92:130|102:198,1,94.9999952316285,12|2,3:0|2:0,0:0:0:0:
49,261,61255,1,12,3:0:0:0:
277,179,61791,1,12,3:0:0:0:
277,179,61969,1,12,3:0:0:0:
436,225,62326,1,8,2:0:0:0:
436,225,62505,1,12,3:0:0:0:
470,200,63755,6,0,P|419:223|473:328,1,189.999990463257,8|0,2:0|0:0,0:0:0:0:
451,322,64648,1,2,2:0:0:0:
295,363,65005,1,2,2:0:0:0:
295,363,65183,2,0,L|358:353,1,47.4999976158143,8|12,2:0|3:0,0:0:0:0:
188,304,65719,1,2,2:0:0:0:
182,312,65898,38,0,P|127:305|75:297,1,94.9999952316285,12|2,3:0|2:0,0:0:0:0:
81,303,66433,1,12,3:0:0:0:
88,311,66612,1,8,2:0:0:0:
199,194,66969,1,12,3:0:0:0:
105,62,67326,1,2,2:0:0:0:
105,62,67505,2,0,L|116:6,1,47.4999976158143,12|12,3:0|3:0,0:0:0:0:
83,174,68041,1,8,2:0:0:0:
83,174,68219,2,0,L|22:188,1,47.4999976158143,12|2,3:0|2:0,0:0:0:0:
189,117,68755,5,2,2:0:0:0:
279,263,69273,2,0,L|260:363,1,94.9999952316285,2|2,2:0|2:0,0:0:0:0:
182,291,70132,37,2,2:0:0:0:
344,195,70675,1,2,2:0:0:0:
288,71,71057,1,2,2:0:0:0:
250,107,71566,6,0,P|256:184|266:266,1,142.499992847443,2|2,2:0|2:0,0:0:0:0:
192,355,72466,1,2,2:0:0:0:
29,261,72996,2,0,P|70:265|173:277,1,142.499992847443,2|2,2:0|2:0,0:0:0:0:
106,184,73890,1,2,2:0:0:0:
319,112,74419,38,0,P|285:109|211:111,1,94.9999952316285,2|0,2:0|0:0,0:0:0:0:
358,23,75306,1,2,2:0:0:0:
278,169,75851,2,0,P|285:222|297:311,1,142.499992847443,2|2,2:0|2:0,0:0:0:0:
201,366,76743,1,2,2:0:0:0:
387,292,77277,5,2,2:0:0:0:
91,99,80215,38,0,P|93:146|92:255,1,142.499992847443,2|2,2:0|2:0,0:0:0:0:
5,191,81074,1,0,0:0:0:0:
215,177,81611,2,0,P|207:230|191:330,1,142.499992847443,2|2,2:0|2:0,0:0:0:0:
130,234,82512,1,2,2:0:0:0:
293,208,83042,5,2,2:0:0:0:
382,307,83580,1,2,2:0:0:0:
481,228,83943,1,2,2:0:0:0:
263,334,84480,2,0,P|210:343|117:367,1,142.499992847443,2|2,2:0|2:0,0:0:0:0:
42,281,85366,1,2,2:0:0:0:
168,141,85889,38,0,P|94:124|23:119,1,142.499992847443,2|2,2:0|2:0,0:0:0:0:
104,43,86773,1,2,2:0:0:0:
284,237,87460,2,0,P|273:285|266:348,1,94.9999952316285,0|2,0:0|2:0,0:0:0:0:
386,294,88146,5,2,2:0:0:0:
191,197,89121,37,2,2:0:0:0:
256,192,89477,12,0,91262,0:0:0:0:
64,126,91612,5,12,3:0:0:0:
186,334,92147,1,12,3:0:0:0:
186,334,92326,2,0,P|127:318|85:305,1,94.9999952316285,8|0,2:0|0:0,0:0:0:0:
207,254,92862,1,2,2:0:0:0:
202,247,93040,2,0,P|167:248|136:250,1,47.4999976158143,2|0,2:0|0:0,0:0:0:0:
76,227,93397,1,12,3:0:0:0:
76,227,93576,1,2,2:0:0:0:
240,106,93933,2,0,P|189:114|130:131,1,94.9999952316285,12|2,3:0|2:0,0:0:0:0:
84,74,94469,37,12,3:0:0:0:
254,245,95004,1,12,3:0:0:0:
254,245,95183,1,8,2:0:0:0:
370,133,95540,1,12,3:0:0:0:
242,33,95897,2,0,P|229:99|218:146,1,94.9999952316285,2|12,2:0|3:0,0:0:0:0:
216,129,96433,1,8,3:0:0:0:
209,134,96612,6,0,L|224:250,1,94.9999952316285,8|0,2:0|0:0,0:0:0:0:
328,349,97326,38,0,P|299:302|223:333,1,142.499992847443,12|12,3:0|3:0,0:0:0:0:
220,328,98040,2,0,P|240:358|269:375,1,47.4999976158143,8|2,2:0|2:0,0:0:0:0:
42,227,98754,2,0,P|32:263|27:327,1,94.9999952316285,2|12,2:0|3:0,0:0:0:0:
157,197,99469,1,8,2:0:0:0:
157,197,99647,1,12,3:0:0:0:
68,5,100183,6,0,P|60:47|57:116,1,94.9999952316285,12|0,3:0|0:0,0:0:0:0:
60,106,100719,1,12,3:0:0:0:
64,99,100897,1,8,2:0:0:0:
128,247,101254,2,0,P|135:299|140:362,1,94.9999952316285,2|0,1:0|0:0,0:0:0:0:
138,350,101790,1,12,3:0:0:0:
130,345,101969,1,12,3:0:0:0:
290,310,102326,1,8,2:0:0:0:
290,310,102504,1,12,3:0:0:0:
145,115,103040,38,0,P|85:142|72:188,1,94.9999952316285,12|0,3:0|0:0,0:0:0:0:
72,160,103576,1,12,3:0:0:0:
173,34,103933,2,0,P|111:11|63:13,1,94.9999952316285,2|0,2:0|0:0,0:0:0:0:
80,16,104469,1,2,2:0:0:0:
208,128,104826,1,12,3:0:0:0:
208,128,105004,1,0,0:0:0:0:
354,46,105362,2,0,P|327:42|248:39,1,94.9999952316285,12|0,3:0|0:0,0:0:0:0:
256,40,105897,6,0,L|192:56,1,47.4999976158143,12|0,3:0|0:0,0:0:0:0:
148,253,106433,2,0,L|84:269,1,47.4999976158143,12|8,3:0|2:0,0:0:0:0:
96,264,106790,1,2,2:0:0:0:
374,332,107326,2,0,P|320:311|226:311,1,142.499992847443,2|8,2:0|3:0,0:0:0:0:
232,304,108040,1,8,2:0:0:0:
226,300,108219,2,0,P|170:308|130:300,1,94.9999952316285,12|0,3:0|0:0,0:0:0:0:
128,296,108754,37,12,3:0:0:0:
271,100,109290,2,0,L|256:42,1,47.4999976158143,12|8,3:0|2:0,0:0:0:0:
264,48,109647,1,2,2:0:0:0:
361,270,110183,2,0,P|321:227|288:208,2,94.9999952316285,2|12|8,2:0|3:0|2:0,0:0:0:0:
365,278,111076,2,0,P|397:254|504:231,1,142.499992847443,12|12,3:0|3:0,0:0:0:0:
370,327,111969,2,0,L|359:280,1,47.4999976158143,2|12,2:0|3:0,0:0:0:0:
360,272,112326,1,8,2:0:0:0:
452,128,112683,5,12,3:0:0:0:
440,173,113040,1,0,0:0:0:0:
286,76,113397,1,12,3:0:0:0:
308,108,113754,1,8,2:0:0:0:
256,219,114111,1,2,2:0:0:0:
251,213,114290,1,2,2:0:0:0:
411,230,115183,38,0,P|425:263|431:287,1,47.4999976158143,8|2,2:0|2:0,0:0:0:0:
271,344,115719,1,2,2:0:0:0:
274,338,115897,1,0,0:0:0:0:
101,324,116254,2,0,L|46:339,1,47.4999976158143,12|2,3:0|2:0,0:0:0:0:
55,336,116611,2,0,L|59:284,1,47.4999976158143,2|12,2:0|3:0,0:0:0:0:
58,288,116969,2,0,L|7:299,1,47.4999976158143,2|2,2:0|2:0,0:0:0:0:
43,100,118040,6,0,P|97:109|138:125,1,94.9999952316285,8|12,2:0|3:0,0:0:0:0:
136,128,118576,2,0,L|199:117,1,47.4999976158143,2|0,2:0|0:0,0:0:0:0:
184,120,118933,1,12,3:0:0:0:
194,128,119111,2,0,L|257:117,1,47.4999976158143,12|8,3:0|3:0,0:0:0:0:
240,119,119469,1,8,2:0:0:0:
392,36,119826,1,2,2:0:0:0:
392,36,120004,1,2,2:0:0:0:
396,42,120183,38,0,P|378:107|373:147,1,94.9999952316285,12|2,3:0|2:0,0:0:0:0:
392,152,120719,1,12,3:0:0:0:
392,152,120897,1,8,2:0:0:0:
392,152,121076,1,2,2:0:0:0:
392,152,121254,1,2,2:0:0:0:
392,152,121433,6,0,P|385:145|288:136,1,94.9999952316285,2|0,2:0|0:0,0:0:0:0:
324,147,121969,1,12,3:0:0:0:
324,147,122147,1,2,2:0:0:0:
324,147,122326,1,8,2:0:0:0:
324,147,122504,1,12,3:0:0:0:
324,147,122683,38,0,P|274:130|218:130,1,94.9999952316285,2|0,2:0|0:0,0:0:0:0:
83,216,123397,2,0,L|136:205,1,47.4999976158143
134,202,123754,1,0,0:0:0:0:
139,197,123933,2,0,L|131:258,1,47.4999976158143
129,251,124290,2,0,P|208:240|242:242,1,94.9999952316285
227,245,124826,1,0,0:0:0:0:
257,69,125183,2,0,P|293:59|313:55,1,47.4999976158143
462,261,125897,6,0,L|398:253,1,47.4999976158143,12|2,3:0|2:0,0:0:0:0:
414,255,126254,2,0,L|350:247,1,47.4999976158143,2|12,2:0|3:0,0:0:0:0:
360,252,126611,1,8,2:0:0:0:
350,252,126790,2,0,L|286:244,1,47.4999976158143,2|2,2:0|2:0,0:0:0:0:
297,249,127147,2,0,L|319:357,1,94.9999952316285,2|0,2:0|0:0,0:0:0:0:
313,347,127683,1,12,3:0:0:0:
114,239,128040,2,0,P|98:285|87:346,1,94.9999952316285,8|0,2:0|0:0,0:0:0:0:
222,201,128754,37,12,3:0:0:0:
222,201,128933,1,2,2:0:0:0:
222,201,129111,1,2,2:0:0:0:
222,201,129290,1,12,3:0:0:0:
222,201,129469,1,8,2:0:0:0:
60,138,129826,1,12,3:0:0:0:
183,9,130183,1,2,2:0:0:0:
183,9,130361,1,12,3:0:0:0:
183,9,130540,2,0,L|177:75,1,47.4999976158143,12|2,3:0|2:0,0:0:0:0:
181,62,130897,1,8,2:0:0:0:
302,266,131612,6,0,L|294:326,1,47.4999976158143,12|2,3:0|2:0,0:0:0:0:
295,313,131969,1,2,2:0:0:0:
295,313,132147,1,12,3:0:0:0:
295,313,132326,1,8,2:0:0:0:
129,265,132683,1,2,2:0:0:0:
129,265,132862,1,2,2:0:0:0:
129,265,133040,1,2,2:0:0:0:
129,265,133219,1,2,2:0:0:0:
129,265,133397,2,0,L|121:330,1,47.4999976158143,12|0,3:0|0:0,0:0:0:0:
120,320,133754,2,0,P|176:312|224:312,1,94.9999952316285,8|0,2:0|0:0,0:0:0:0:
61,173,134469,37,12,3:0:0:0:
61,173,134647,1,2,2:0:0:0:
61,173,134826,1,2,2:0:0:0:
61,173,135004,1,12,3:0:0:0:
61,173,135183,2,0,P|44:140|31:119,1,47.4999976158143,12|0,3:0|0:0,0:0:0:0:
38,131,135540,1,2,2:0:0:0:
38,131,135719,2,0,P|33:101|28:74,1,47.4999976158143,12|12,3:0|3:0,0:0:0:0:
233,216,136254,2,0,P|229:243|224:271,1,47.4999976158143,2|12,2:0|3:0,0:0:0:0:
429,104,136969,1,2,2:0:0:0:
425,111,137326,5,2,2:0:0:0:
237,38,137813,1,2,2:0:0:0:
344,170,138172,2,0,P|358:218|382:330,1,142.499992847443,2|2,2:0|2:0,0:0:0:0:
368,106,139252,1,2,2:0:0:0:
160,352,140144,38,0,P|218:340|311:331,1,142.499992847443,2|2,2:0|2:0,0:0:0:0:
107,272,141027,1,2,2:0:0:0:
330,167,141572,1,2,2:0:0:0:
206,1,142099,2,0,P|199:78|202:158,1,142.499992847443,2|2,2:0|2:0,0:0:0:0:
284,325,143013,5,2,2:0:0:0:
59,369,143540,1,2,2:0:0:0:
166,235,143887,1,2,2:0:0:0:
162,265,144427,2,0,P|136:206|87:137,1,142.499992847443,2|2,2:0|2:0,0:0:0:0:
327,15,145861,38,0,P|324:70|320:126,1,94.9999952316285,2|0,2:0|0:0,0:0:0:0:
287,172,146396,2,0,P|304:232|309:269,1,94.9999952316285,2|2,2:0|2:0,0:0:0:0:
452,82,147287,1,2,2:0:0:0:
247,191,147963,2,0,B|194:159|172:230|109:182,1,142.499992847443,2|2,2:0|2:0,0:0:0:0:
96,108,148755,6,0,P|140:92|195:79,1,94.9999952316285,12|2,3:0|2:0,0:0:0:0:
186,80,149290,1,12,3:0:0:0:
394,30,149647,2,0,P|376:72|353:124,1,94.9999952316285,2|0,2:0|0:0,0:0:0:0:
349,117,150183,1,2,2:0:0:0:
403,320,150540,2,0,P|368:315|354:312,1,47.4999976158143,12|2,3:0|2:0,0:0:0:0:
352,305,150897,1,8,2:0:0:0:
348,296,151076,1,12,3:0:0:0:
352,287,151255,1,0,0:0:0:0:
362,284,151433,1,0,0:0:0:0:
364,296,151612,38,0,P|297:285|248:286,1,94.9999952316285,12|0,3:0|0:0,0:0:0:0:
199,235,152147,2,0,P|165:256|116:295,1,94.9999952316285,12|2,3:0|2:0,0:0:0:0:
40,239,152683,1,12,3:0:0:0:
43,245,152862,2,0,B|54:209|22:192|39:135,1,94.9999952316285,0|12,0:0|3:0,0:0:0:0:
126,99,153397,2,0,P|117:141|108:165,1,47.4999976158143,12|8,3:0|3:0,0:0:0:0:
44,69,153755,1,8,2:0:0:0:
44,69,153933,1,12,3:0:0:0:
290,264,154469,6,0,L|222:249,1,47.4999976158143,12|0,3:0|0:0,0:0:0:0:
236,256,154826,1,2,2:0:0:0:
228,256,155005,2,0,L|174:244,1,47.4999976158143,12|8,3:0|2:0,0:0:0:0:
176,249,155362,2,0,P|167:286|155:345,1,94.9999952316285,2|0,2:0|0:0,0:0:0:0:
54,338,155897,2,0,P|45:299|35:229,1,94.9999952316285,2|12,2:0|3:0,0:0:0:0:
116,164,156433,2,0,L|105:224,1,47.4999976158143,2|8,2:0|2:0,0:0:0:0:
29,163,156790,1,12,3:0:0:0:
0,149,157326,38,0,B|29:16|197:13|159:301|340:314|283:-2|531:1|504:156,1,641.249967813492,12|0,3:0|0:0,0:0:0:0:
251,296,160183,22,0,B|299:288|307:248|307:248|427:248,1,185.249982221604,12|12,3:0|3:0,0:0:0:0:
170,302,161076,2,0,P|182:243|235:216,1,123.499988147736,2|0,2:0|0:0,0:0:0:0:
232,220,161612,1,2,2:0:0:0:
443,120,161969,2,0,P|403:128|347:64,1,123.499988147736,12|8,3:0|2:0,0:0:0:0:
347,74,162505,1,12,3:0:0:0:
472,344,163040,6,0,B|368:344|368:344|352:296|296:288,1,185.249982221604,12|12,3:0|3:0,0:0:0:0:
316,296,163755,2,0,L|252:296,1,61.7499940738681,8|2,2:0|2:0,0:0:0:0:
258,300,164112,2,0,L|179:299,1,61.7499940738681,12|2,3:0|2:0,0:0:0:0:
201,303,164469,1,2,2:0:0:0:
205,311,164647,2,0,L|206:376,1,61.7499940738681,12|12,3:0|3:0,0:0:0:0:
72,216,165183,2,0,L|72:344,1,123.499988147736,8|0,2:0|0:0,0:0:0:0:
144,144,165897,38,0,B|112:104|72:96|72:96|72:0,1,185.249982221604,12|12,3:0|3:0,0:0:0:0:
200,240,166790,2,0,P|144:256|80:224,1,123.499988147736,2|0,2:0|0:0,0:0:0:0:
86,230,167326,1,2,2:0:0:0:
312,352,167862,1,2,2:0:0:0:
400,224,168219,1,12,3:0:0:0:
200,352,168576,1,0,0:0:0:0:
207,348,168755,6,0,L|67:348,1,123.499988147736,12|0,3:0|0:0,0:0:0:0:
80,354,169290,1,12,3:0:0:0:
128,184,169647,2,0,L|192:184,1,61.7499940738681,2|2,2:0|1:0,0:0:0:0:
194,181,170005,1,2,2:0:0:0:
199,176,170183,2,0,L|264:176,1,61.7499940738681,2|12,2:0|3:0,0:0:0:0:
266,171,170540,1,12,3:0:0:0:
273,168,170719,1,8,3:0:0:0:
432,256,171076,1,12,3:0:0:0:
48,320,171612,38,0,B|112:320|112:320|144:280|144:280|224:280,1,185.249982221604,12|12,3:0|3:0,0:0:0:0:
408,352,172505,1,2,2:0:0:0:
336,176,172862,1,2,2:0:0:0:
332,184,173040,2,0,L|333:253,1,61.7499940738681,2|0,2:0|0:0,0:0:0:0:
327,252,173397,2,0,L|328:326,1,61.7499940738681,12|2,3:0|2:0,0:0:0:0:
324,318,173755,1,8,2:0:0:0:
321,324,173933,2,0,L|453:325,1,123.499988147736,12|0,3:0|0:0,0:0:0:0:
441,331,174469,5,12,3:0:0:0:
441,158,174826,1,2,2:0:0:0:
268,158,175183,1,8,2:0:0:0:
95,158,175540,2,0,L|156:158,1,61.7499940738681,12|2,3:0|2:0,0:0:0:0:
161,154,175897,1,2,2:0:0:0:
167,150,176076,2,0,L|167:228,1,61.7499940738681,12|12,3:0|3:0,0:0:0:0:
167,368,176612,1,8,2:0:0:0:
172,364,176790,2,0,L|36:364,1,123.499988147736,12|2,3:0|2:0,0:0:0:0:
45,370,177326,37,12,3:0:0:0:
256,192,177862,1,12,3:0:0:0:
456,192,178219,1,2,2:0:0:0:
362,197,178576,1,2,2:0:0:0:
357,201,178755,2,0,L|357:129,1,61.7499940738681,2|0,2:0|0:0,0:0:0:0:
363,146,179112,2,0,L|363:74,1,61.7499940738681,12|2,3:0|2:0,0:0:0:0:
360,288,179647,1,12,3:0:0:0:
114,281,180183,5,12,3:0:0:0:
114,108,180540,1,2,2:0:0:0:
286,108,180897,1,8,2:0:0:0:
286,281,181255,1,12,3:0:0:0:
458,281,181612,2,0,L|373:280,1,61.7499940738681,2|12,2:0|3:0,0:0:0:0:
392,274,181969,1,12,3:0:0:0:
240,360,182326,1,8,2:0:0:0:
240,360,182505,2,0,L|112:360,1,123.499988147736,12|2,3:0|2:0,0:0:0:0:
112,354,183039,37,2,2:0:0:0:
100,141,188755,5,12,3:0:0:0:
107,137,188933,1,2,2:0:0:0:
115,137,189112,1,2,2:0:0:0:
123,139,189290,1,12,3:0:0:0:
129,144,189469,1,8,2:0:0:0:
133,151,189647,1,2,2:0:0:0:
132,159,189826,1,2,2:0:0:0:
124,163,190005,1,2,2:0:0:0:
115,160,190183,1,0,0:0:0:0:
230,346,190540,1,12,3:0:0:0:
175,276,190719,2,0,P|235:264|325:265,1,142.499998283386,2|12,2:0|3:0,0:0:0:0:
387,323,191255,1,0,0:0:0:0:
477,93,191612,37,12,3:0:0:0:
471,97,191790,1,2,2:0:0:0:
463,96,191969,1,2,2:0:0:0:
457,92,192147,1,12,3:0:0:0:
454,85,192326,1,8,2:0:0:0:
456,78,192505,1,2,2:0:0:0:
461,72,192683,1,2,1:0:0:0:
468,71,192862,1,2,2:0:0:0:
464,80,193040,1,2,2:0:0:0:
241,194,193397,2,0,P|263:162|287:132,1,71.2499991416931,12|8,3:0|3:0,0:0:0:0:
359,141,193755,1,8,2:0:0:0:
363,149,193933,1,12,3:0:0:0:
145,272,194469,6,0,P|111:259|72:241,1,71.2499991416931,12|2,3:0|2:0,0:0:0:0:
79,244,194826,2,0,P|65:219|41:153,1,71.2499991416931,2|12,2:0|3:0,0:0:0:0:
51,174,195183,1,8,2:0:0:0:
93,355,195540,1,2,2:0:0:0:
93,355,195719,1,2,2:0:0:0:
281,211,196076,2,0,P|250:244|223:268,1,71.2499991416931,2|12,2:0|3:0,0:0:0:0:
490,281,196612,1,8,2:0:0:0:
482,280,196790,2,0,P|445:246|390:146,1,142.499998283386,12|0,3:0|0:0,0:0:0:0:
405,85,197326,37,12,3:0:0:0:
413,92,197505,1,2,2:0:0:0:
418,100,197683,1,2,2:0:0:0:
422,109,197862,1,12,3:0:0:0:
425,119,198040,1,8,2:0:0:0:
426,129,198219,1,0,0:0:0:0:
424,139,198397,1,12,3:0:0:0:
420,149,198576,1,2,2:0:0:0:
413,157,198755,2,0,P|395:187|373:237,1,71.2499991416931,2|12,2:0|3:0,0:0:0:0:
293,217,199112,1,12,3:0:0:0:
291,228,199290,2,0,P|294:269|301:304,1,71.2499991416931,8|8,3:0|2:0,0:0:0:0:
298,306,199647,2,0,P|328:341|357:364,1,71.2499991416931,12|0,3:0|0:0,0:0:0:0:
88,237,200183,6,0,P|132:240|181:253,1,71.2499991416931,12|2,3:0|2:0,0:0:0:0:
161,251,200540,1,2,2:0:0:0:
165,255,200719,1,12,3:0:0:0:
167,259,200897,1,8,2:0:0:0:
163,263,201076,1,2,2:0:0:0:
160,262,201255,2,0,P|170:228|192:182,1,71.2499991416931,2|2,2:0|2:0,0:0:0:0:
315,286,201790,1,0,0:0:0:0:
325,283,201969,2,0,P|310:317|288:357,1,71.2499991416931,12|2,3:0|2:0,0:0:0:0:
200,363,202326,1,8,2:0:0:0:
198,355,202505,2,0,P|219:293|258:207,1,142.499998283386,12|0,3:0|0:0,0:0:0:0:
343,159,203040,38,0,P|402:147|440:144,1,71.2499991416931,12|2,3:0|2:0,0:0:0:0:
419,150,203397,1,2,2:0:0:0:
425,155,203576,1,12,3:0:0:0:
433,158,203755,2,0,P|468:158|503:153,1,71.2499991416931,8|2,2:0|2:0,0:0:0:0:
363,273,204290,2,0,P|344:236|311:197,1,71.2499991416931,0|2,0:0|2:0,0:0:0:0:
312,209,204647,1,2,2:0:0:0:
322,199,204826,1,2,2:0:0:0:
327,185,205005,1,2,2:0:0:0:
328,170,205183,2,0,P|307:132|280:100,1,71.2499991416931,0|2,0:0|2:0,0:0:0:0:
15,93,205897,37,12,3:0:0:0:
108,286,206255,2,0,P|96:235|89:214,1,61.7499940738681,2|12,2:0|3:0,0:0:0:0:
88,222,206612,2,0,P|40:218|7:215,1,61.7499940738681,8|2,2:0|2:0,0:0:0:0:
221,158,207147,1,0,0:0:0:0:
225,163,207326,2,0,P|293:168|369:158,1,123.499988147736,2|12,2:0|3:0,0:0:0:0:
353,160,207862,1,2,2:0:0:0:
357,156,208040,2,0,L|345:220,1,61.7499940738681,8|12,2:0|3:0,0:0:0:0:
345,225,208397,2,0,L|333:289,1,61.7499940738681
333,285,208755,37,12,3:0:0:0:
99,292,209112,2,0,P|96:326|92:367,1,61.7499940738681,2|12,2:0|3:0,0:0:0:0:
93,353,209469,1,8,2:0:0:0:
104,360,209647,1,2,2:0:0:0:
0,212,210005,1,2,2:0:0:0:
5,216,210183,2,0,P|12:173|13:146,1,61.7499940738681,2|12,2:0|3:0,0:0:0:0:
99,165,210540,2,0,P|88:134|76:99,1,61.7499940738681,12|8,3:0|3:0,0:0:0:0:
17,57,210897,1,8,2:0:0:0:
220,146,211255,1,0,0:0:0:0:
368,34,211612,37,12,3:0:0:0:
487,185,211969,1,2,2:0:0:0:
482,180,212147,1,12,3:0:0:0:
478,174,212326,2,0,P|493:222|494:249,1,61.7499940738681,8|2,2:0|2:0,0:0:0:0:
495,241,212683,2,0,P|487:280|477:312,1,61.7499940738681
477,306,213040,2,0,P|445:318|351:318,1,123.499988147736,2|12,2:0|3:0,0:0:0:0:
290,267,213576,1,2,2:0:0:0:
229,317,213755,2,0,P|167:313|108:330,1,123.499988147736,8|2,2:0|2:0,0:0:0:0:
37,299,214290,1,2,2:0:0:0:
32,296,214469,38,0,P|24:350|26:374,1,61.7499940738681,12|2,3:0|2:0,0:0:0:0:
34,360,214826,1,2,2:0:0:0:
42,361,215005,1,12,3:0:0:0:
47,356,215183,1,8,2:0:0:0:
45,351,215362,1,2,2:0:0:0:
179,219,215719,1,2,2:0:0:0:
179,219,215897,1,2,2:0:0:0:
179,219,216076,2,0,P|148:210|107:206,1,61.7499940738681,12|12,3:0|3:0,0:0:0:0:
74,143,216433,1,8,3:0:0:0:
78,138,216612,2,0,P|114:133|140:132,1,61.7499940738681,8|12,2:0|3:0,0:0:0:0:
189,75,216969,1,2,2:0:0:0:
16,236,217326,21,12,3:0:0:0:
384,324,218040,2,0,P|308:322|132:356,1,246.999976295473,8|0,2:0|0:0,0:0:0:0:
140,353,218933,1,2,2:0:0:0:
94,281,219112,2,0,P|67:316|50:347,1,61.7499940738681,12|0,3:0|0:0,0:0:0:0:
4,266,219469,1,8,2:0:0:0:
4,266,219647,2,0,B|-8:218|49:210|36:134,1,123.499988147736,12|2,3:0|2:0,0:0:0:0:
2,75,220183,5,12,3:0:0:0:
250,317,220719,1,12,3:0:0:0:
250,317,220897,1,8,2:0:0:0:
400,188,221255,1,12,3:0:0:0:
231,85,221612,1,0,0:0:0:0:
231,85,221790,1,12,3:0:0:0:
231,85,221969,2,0,P|232:49|224:22,1,61.7499940738681,12|8,3:0|3:0,0:0:0:0:
218,22,222326,2,0,B|181:78|243:109|209:157,1,123.499988147736,8|2,2:0|2:0,0:0:0:0:
35,282,223755,38,0,B|131:249|92:352|208:306,1,185.249982221604,8|2,2:0|2:0,0:0:0:0:
207,301,224469,6,0,P|177:292|102:339,1,123.499988147736,0|12,0:0|3:0,0:0:0:0:
63,142,225183,2,0,P|93:157|122:162,1,61.7499940738681,8|12,2:0|3:0,0:0:0:0:
265,46,225897,2,0,P|202:37|138:72,1,123.499988147736,12|2,3:0|2:0,0:0:0:0:
157,68,226433,1,12,3:0:0:0:
157,68,226612,2,0,P|112:57|76:62,1,61.7499940738681,8|2,2:0|2:0,0:0:0:0:
96,58,226969,1,12,3:0:0:0:
115,255,227326,2,0,P|75:240|46:240,1,61.7499940738681,2|12,2:0|3:0,0:0:0:0:
6,301,227683,1,12,3:0:0:0:
251,353,228040,38,0,L|183:364,1,61.7499940738681,8|12,2:0|3:0,0:0:0:0:
296,247,228576,1,0,0:0:0:0:
256,192,228755,12,0,240183,0:0:0:0:
