osu file format v14

[General]
AudioFilename: audio.mp3
AudioLeadIn: 0
PreviewTime: 205719
Countdown: 0
SampleSet: Soft
StackLeniency: 0.5
Mode: 0
LetterboxInBreaks: 0
WidescreenStoryboard: 1

[Editor]
Bookmarks: 23041,68755,91612,137326,148755,160183,227683,240183
DistanceSpacing: 1.3
BeatDivisor: 4
GridSize: 32
TimelineZoom: 1.300001

[Metadata]
Title:Lucid Dreams (Remix) feat. Lil Uzi Vert
TitleUnicode:Lucid Dreams (Remix) feat. Lil Uzi Vert
Artist:Juice WRLD
ArtistUnicode:Juice WRLD
Creator:1103
Version:WashedUp's Normal
Source:
Tags:goodbye & good riddance english hip hop rap riffy bakari qiyana clubber washedup player dyl-byl shape of my heart sting ft. wont
BeatmapID:3082892
BeatmapSetID:1475832

[Difficulty]
HPDrainRate:4
CircleSize:3.6
OverallDifficulty:5
ApproachRate:6
SliderMultiplier:1.74999990463257
SliderTickRate:1

[Events]
//Background and Video events
0,0,"Uvykh4.png",0,0
//Break Periods
2,68776,90562
2,137168,147705
2,183062,187705
//Storyboard Layer 0 (Background)
//Storyboard Layer 1 (Fail)
//Storyboard Layer 2 (Pass)
//Storyboard Layer 3 (Foreground)
//Storyboard Layer 4 (Overlay)
//Storyboard Sound Samples

[TimingPoints]
184,714.285714285714,4,2,1,60,1,0
68755,691.64265129683,4,2,1,40,1,0
69273,714.285714285714,4,2,1,40,1,0
69630,670.391061452514,4,2,1,40,1,0
70132,725.075528700906,4,2,1,40,1,0
70675,764.331210191083,4,2,1,40,1,0
71057,679.886685552408,4,2,1,40,1,0
71566,676.056338028169,4,2,1,40,1,0
72073,786.885245901639,4,2,1,40,1,0
72466,707.964601769911,4,2,1,40,1,0
72996,712.166172106825,4,2,1,40,1,0
73530,720.720720720721,4,2,1,40,1,0
73890,705.882352941176,4,2,1,40,1,0
74419,710.059171597633,4,2,1,40,1,0
75306,727.272727272727,4,2,1,40,1,0
75851,703.812316715542,4,2,1,40,1,0
76378,731.70731707317,4,2,1,40,1,0
76743,712.166172106825,4,2,1,40,1,0
77277,738.461538461538,4,2,1,40,1,0
79123,712.166172106825,4,2,1,40,1,0
79835,761.904761904762,4,2,1,40,1,0
80215,668.523676880223,4,2,1,40,1,0
80716,716.417910447761,4,2,1,40,1,0
81074,716.417910447761,4,2,1,40,1,0
81611,648.648648648648,4,2,1,40,1,0
82097,830.449826989619,4,2,1,40,1,0
82512,707.964601769911,4,2,1,40,1,0
83042,718.562874251497,4,2,1,40,1,0
83580,727.272727272727,4,2,1,40,1,0
83943,716.417910447761,4,2,1,40,1,0
84480,703.812316715542,4,2,1,40,1,0
85007,718.562874251497,4,2,1,40,1,0
85366,697.674418604651,4,2,1,40,1,0
85889,670.391061452514,4,2,1,40,1,0
86391,764.331210191083,4,2,1,40,1,0
86773,687.679083094556,4,2,1,40,1,0
88146,650.406504065041,4,2,1,40,1,0
89121,712.166172106825,4,2,1,40,1,0
89477,714.285714285714,4,2,1,40,1,0
91612,714.285714285714,4,2,1,60,1,0
91612,-90.9090909090909,4,2,1,60,0,0
137326,650.406504065041,4,2,1,45,1,0
137813,718.562874251497,4,2,1,45,1,0
138172,727.272727272727,4,2,1,45,1,0
138717,714.285714285714,4,2,1,45,1,0
139252,813.559322033898,4,2,1,45,1,0
139658,853.849437882453,4,2,1,45,1,0
139871,546.697038724374,4,2,1,45,1,0
140144,727.272727272727,4,2,1,45,1,0
140689,677.966101694915,4,2,1,45,1,0
141027,727.272727272727,4,2,1,45,1,0
141572,703.812316715542,4,2,1,45,1,0
142099,674.157303370787,4,2,1,45,1,0
142604,697.674418604651,4,2,1,45,1,0
142778,941.176470588235,4,2,1,45,1,0
143013,703.812316715542,4,2,1,45,1,0
143540,695.652173913043,4,2,1,45,1,0
143887,720.72072072072,4,2,1,45,1,0
144427,685.714285714285,4,2,1,45,1,0
144941,736.196319018405,4,2,1,45,1,0
145861,714.285714285714,4,2,1,45,1,0
146396,699.708454810495,4,2,1,45,1,0
146745,722.89156626506,4,2,1,45,1,0
147287,676.056338028169,4,2,1,45,1,0
147963,821.917808219178,4,2,1,45,1,0
148579,697.674418604651,4,2,1,45,1,0
148755,714.285714285714,4,2,1,70,1,0
148755,-83.3333333333333,4,2,1,70,0,0
160183,-83.3333333333333,4,2,1,65,0,0
183039,679.886685552408,4,2,1,50,1,0
183548,729.483282674772,4,2,1,50,1,0
183912,465.116279069767,4,2,1,50,1,0
184144,776.497994046849,4,2,1,50,1,0
184532,641.711229946524,4,2,1,50,1,0
184852,469.667318982387,4,2,1,50,1,0
185086,586.79706601467,4,2,1,50,1,0
185379,754.716981132075,4,2,1,50,1,0
185756,836.236933797909,4,2,1,50,1,0
185965,695.652173913044,4,2,1,50,1,0
186312,695.652173913043,4,2,1,50,1,0
186485,722.89156626506,4,2,1,50,1,0
186665,776.497994046849,4,2,1,50,1,0
186859,604.534005037783,4,2,1,50,1,0
187161,589.813913710224,4,2,1,50,1,0
187455,589.680589680589,4,2,1,50,1,0
187749,481.05061454216,4,2,1,50,1,0
187989,568.720379146919,4,2,1,50,1,0
188273,641.711229946524,4,2,1,50,1,0
188755,714.285714285714,4,2,1,65,1,0
188755,-80,4,2,1,65,0,0
205897,-76.9230769230769,4,2,1,70,0,0
228755,-66.6666666666667,4,2,1,35,0,0
234469,-66.6666666666667,4,2,1,17,0,0
240183,-66.6666666666667,4,2,1,5,0,0

[Colours]
Combo1 : 75,0,128
Combo2 : 163,59,236
Combo3 : 200,110,34
Combo4 : 209,167,131

[HitObjects]
78,254,23041,22,0,B|61:228|61:228|72:137,1,87.4999952316285,12|2,3:0|2:0,0:0:0:0:
80,116,23576,1,12,3:0:0:0:
80,116,23755,2,0,L|156:103,2,65.6249964237214,8|2|2,2:0|2:0|2:0,0:0:0:0:
29,89,24469,1,2,2:0:0:0:
122,24,24826,2,0,P|158:23|209:50,1,87.4999952316285,12|8,3:0|2:0,0:0:0:0:
243,85,25362,2,0,P|279:86|330:59,1,87.4999952316285,12|0,3:0|0:0,0:0:0:0:
342,10,25898,5,12,3:0:0:0:
444,69,26255,1,2,2:0:0:0:
444,69,26433,2,0,L|438:164,1,87.4999952316285,12|2,3:0|2:0,0:0:0:0:
402,200,26969,2,0,L|408:295,1,87.4999952316285,12|2,3:0|2:0,0:0:0:0:
448,327,27505,1,12,3:0:0:0:
448,327,27683,1,12,3:0:0:0:
338,346,28041,1,8,2:0:0:0:
338,346,28219,2,0,P|324:292|329:238,1,87.4999952316285,12|0,3:0|0:0,0:0:0:0:
289,215,28755,38,0,P|301:173|302:129,1,87.4999952316285,12|2,3:0|2:0,0:0:0:0:
269,83,29291,1,12,3:0:0:0:
346,0,29648,1,2,2:0:0:0:
236,8,30005,1,0,0:0:0:0:
236,8,30183,2,0,L|143:13,1,87.4999952316285,2|12,2:0|3:0,0:0:0:0:
53,73,30898,1,8,2:0:0:0:
53,73,31076,2,0,P|97:82|116:136,1,87.4999952316285,12|2,3:0|2:0,0:0:0:0:
86,164,31612,6,0,L|5:159,2,65.6249964237214,12|0|12,3:0|0:0|3:0,0:0:0:0:
142,168,32326,1,8,2:0:0:0:
204,263,32683,2,0,B|253:270|253:270|275:296|275:296|328:302,1,131.249992847443,2|12,1:0|3:0,0:0:0:0:
378,310,33398,1,12,3:0:0:0:
460,231,33755,2,0,L|454:173,2,43.7499976158143,8|12|2,2:0|3:0|2:0,0:0:0:0:
478,344,34469,1,12,3:0:0:0:
505,118,35183,37,8,2:0:0:0:
505,118,35362,2,0,P|470:107|443:102,1,43.7499976158143,2|2,2:0|2:0,0:0:0:0:
412,131,35719,2,0,L|318:140,1,87.4999952316285,2|2,2:0|2:0,0:0:0:0:
274,115,36255,1,12,3:0:0:0:
177,53,36612,1,8,2:0:0:0:
177,53,36791,2,0,P|163:99|164:150,1,87.4999952316285,12|2,3:0|2:0,0:0:0:0:
129,184,37326,2,0,P|143:230|142:281,1,87.4999952316285,12|2,3:0|2:0,0:0:0:0:
105,311,37862,1,12,3:0:0:0:
105,311,38041,1,8,2:0:0:0:
31,224,38398,6,0,L|38:133,1,87.4999952316285,12|2,3:0|2:0,0:0:0:0:
45,80,38933,1,12,3:0:0:0:
45,80,39112,1,12,3:0:0:0:
141,20,39469,2,0,P|184:2|231:24,1,87.4999952316285,8|2,2:0|2:0,0:0:0:0:
252,61,40005,1,2,2:0:0:0:
252,61,40183,1,12,3:0:0:0:
475,18,40898,37,8,2:0:0:0:
475,18,41076,2,0,P|462:57|464:73,1,43.7499976158143,2|2,2:0|2:0,0:0:0:0:
493,106,41433,2,0,L|497:193,1,87.4999952316285,2|2,2:0|2:0,0:0:0:0:
476,246,41969,1,12,3:0:0:0:
403,333,42326,1,8,2:0:0:0:
403,333,42505,2,0,L|340:320,1,43.7499976158143,12|2,3:0|2:0,0:0:0:0:
307,345,42862,2,0,P|261:357|221:358,1,87.4999952316285,2|2,2:0|2:0,0:0:0:0:
180,317,43398,5,2,2:0:0:0:
180,317,43576,2,0,L|177:255,2,43.7499976158143,12|8|2,3:0|2:0|2:0,0:0:0:0:
140,358,44112,1,12,3:0:0:0:
230,212,44648,1,12,3:0:0:0:
230,212,44826,1,12,3:0:0:0:
159,129,45183,1,8,2:0:0:0:
159,129,45362,2,0,P|192:112|256:106,1,87.4999952316285,12|2,3:0|2:0,0:0:0:0:
298,109,45898,1,12,3:0:0:0:
411,110,46255,38,0,B|416:108|421:120|425:165,1,43.7499976158143,0|12,0:0|3:0,0:0:0:0:
408,204,46612,2,0,L|330:196,2,65.6249964237214,8|0|0,2:0|0:0|0:0,0:0:0:0:
450,242,47326,1,2,2:0:0:0:
404,346,47683,2,0,L|305:337,1,87.4999952316285,12|8,3:0|2:0,0:0:0:0:
268,308,48219,2,0,L|169:317,1,87.4999952316285,12|0,3:0|0:0,0:0:0:0:
134,349,48755,1,12,3:0:0:0:
44,278,49112,6,0,L|36:221,1,43.7499976158143,2|12,2:0|3:0,0:0:0:0:
63,183,49469,2,0,P|113:180|154:200,1,87.4999952316285,8|12,2:0|3:0,0:0:0:0:
300,120,50362,1,12,3:0:0:0:
300,120,50541,2,0,P|350:123|391:103,1,87.4999952316285,12|8,3:0|2:0,0:0:0:0:
383,108,51612,38,0,P|398:148|394:191,1,87.4999952316285,12|2,3:0|2:0,0:0:0:0:
364,239,52148,1,12,3:0:0:0:
397,347,52505,1,2,2:0:0:0:
286,318,52862,1,0,0:0:0:0:
286,318,53041,2,0,L|188:309,1,87.4999952316285,2|12,2:0|3:0,0:0:0:0:
94,356,53755,1,8,2:0:0:0:
94,356,53933,2,0,L|87:262,1,87.4999952316285,12|2,3:0|2:0,0:0:0:0:
107,215,54469,6,0,L|186:201,2,65.6249964237214,12|0|12,3:0|0:0|3:0,0:0:0:0:
51,229,55183,1,8,2:0:0:0:
117,136,55541,2,0,B|163:126|163:126|184:103|184:103|243:92,1,131.249992847443,2|12,1:0|3:0,0:0:0:0:
292,84,56255,1,12,3:0:0:0:
397,40,56612,2,0,L|406:94,1,43.7499976158143,8|12,2:0|3:0,0:0:0:0:
441,126,56969,2,0,P|427:149|424:216,1,87.4999952316285,2|12,2:0|3:0,0:0:0:0:
446,319,57683,37,0,0:0:0:0:
338,286,58041,1,8,2:0:0:0:
338,286,58219,2,0,L|290:293,1,43.7499976158143,2|2,2:0|2:0,0:0:0:0:
241,271,58576,2,0,P|195:258|149:264,1,87.4999952316285,2|2,2:0|2:0,0:0:0:0:
123,308,59112,2,0,P|77:321|31:315,1,87.4999952316285,12|8,3:0|2:0,0:0:0:0:
1,273,59648,1,12,3:0:0:0:
46,108,60183,6,0,B|151:116,1,87.4999952316285,12|2,3:0|2:0,0:0:0:0:
181,83,60719,1,12,3:0:0:0:
181,83,60898,2,0,B|286:75,2,87.4999952316285,8|12|2,2:0|3:0|2:0,0:0:0:0:
135,48,61791,1,12,3:0:0:0:
135,48,61969,1,12,3:0:0:0:
238,0,62326,1,8,2:0:0:0:
238,0,62505,2,0,P|295:0|333:22,1,87.4999952316285,12|2,3:0|2:0,0:0:0:0:
321,12,63755,37,8,2:0:0:0:
321,12,63933,2,0,L|318:69,1,43.7499976158143,2|2,2:0|2:0,0:0:0:0:
349,103,64291,2,0,L|355:207,1,87.4999952316285,2|2,2:0|2:0,0:0:0:0:
360,246,64826,1,12,3:0:0:0:
446,320,65183,2,0,L|500:315,2,43.7499976158143,8|12|2,2:0|3:0|2:0,0:0:0:0:
400,354,65719,2,0,L|304:352,1,87.4999952316285,2|2,2:0|2:0,0:0:0:0:
255,350,66255,2,0,L|198:349,1,43.7499976158143,2|12,2:0|3:0,0:0:0:0:
154,348,66612,1,8,2:0:0:0:
40,343,66969,1,12,3:0:0:0:
51,172,67505,5,12,3:0:0:0:
51,172,67683,2,0,L|147:174,1,87.4999952316285,12|8,3:0|2:0,0:0:0:0:
195,176,68219,2,0,L|291:178,1,87.4999952316285,12|2,3:0|2:0,0:0:0:0:
113,175,91612,38,0,P|155:152|205:156,1,96.2499976921082,12|2,3:0|2:0,0:0:0:0:
244,200,92147,2,0,L|240:274,1,48.1249988460541,12|8,3:0|2:0,0:0:0:0:
236,310,92504,1,2,2:0:0:0:
360,322,92862,1,2,2:0:0:0:
360,322,93040,2,0,L|367:217,2,96.2499976921082,2|12|8,2:0|3:0|2:0,0:0:0:0:
355,384,93933,1,12,3:0:0:0:
473,238,94469,6,0,L|465:133,1,96.2499976921082,12|2,3:0|2:0,0:0:0:0:
459,79,95004,1,12,3:0:0:0:
339,42,95362,1,2,2:0:0:0:
339,42,95540,2,0,P|287:52|211:52,1,96.2499976921082,12|2,3:0|2:0,0:0:0:0:
181,51,96076,1,12,3:0:0:0:
181,51,96254,2,0,P|164:98|163:147,1,96.2499976921082,12|8,3:0|2:0,0:0:0:0:
162,143,97326,38,0,P|106:128|56:143,1,96.2499976921082,12|0,3:0|0:0,0:0:0:0:
23,178,97862,1,12,3:0:0:0:
53,299,98219,2,0,L|154:307,1,96.2499976921082,2|0,2:0|0:0,0:0:0:0:
206,282,98754,1,2,2:0:0:0:
315,220,99112,2,0,L|421:216,1,96.2499976921082,12|8,3:0|2:0,0:0:0:0:
456,259,99647,1,12,3:0:0:0:
404,78,100183,6,0,L|307:81,1,96.2499976921082,12|0,3:0|0:0,0:0:0:0:
255,47,100719,1,12,3:0:0:0:
133,78,101076,1,0,0:0:0:0:
133,78,101254,2,0,B|130:113|130:113|112:139|112:139|107:186,1,96.2499976921082,2|0,1:0|0:0,0:0:0:0:
132,226,101790,1,12,3:0:0:0:
132,226,101969,2,0,P|186:238|205:278,1,96.2499976921082,12|8,3:0|2:0,0:0:0:0:
204,271,103040,38,0,P|229:232|276:225,1,96.2499976921082,12|0,3:0|0:0,0:0:0:0:
319,270,103576,1,12,3:0:0:0:
420,196,103933,2,0,L|405:92,1,96.2499976921082,2|0,2:0|0:0,0:0:0:0:
397,38,104469,1,2,2:0:0:0:
494,116,104826,2,0,L|513:217,1,96.2499976921082,12|8,3:0|2:0,0:0:0:0:
492,270,105362,2,0,P|426:249|365:256,1,96.2499976921082,12|0,3:0|0:0,0:0:0:0:
346,281,105897,5,12,3:0:0:0:
169,232,106433,1,12,3:0:0:0:
169,232,106612,2,0,L|257:228,1,48.1249988460541,8|2,2:0|2:0,0:0:0:0:
271,198,106969,2,0,P|258:146|273:85,1,96.2499976921082,12|2,3:0|2:0,0:0:0:0:
311,63,107504,1,12,3:0:0:0:
311,63,107683,1,12,3:0:0:0:
191,44,108040,1,8,2:0:0:0:
191,44,108219,2,0,P|143:37|102:13,1,96.2499976921082,12|0,3:0|0:0,0:0:0:0:
43,35,108754,37,12,3:0:0:0:
109,210,109290,2,0,L|87:333,2,96.2499976921082,12|2|0,3:0|2:0|0:0,0:0:0:0:
85,151,110183,1,2,2:0:0:0:
186,224,110540,2,0,L|284:218,1,96.2499976921082,12|8,3:0|2:0,0:0:0:0:
332,181,111076,2,0,L|428:186,1,96.2499976921082,12|0,3:0|0:0,0:0:0:0:
478,223,111612,1,12,3:0:0:0:
383,61,112147,5,12,3:0:0:0:
383,61,112326,2,0,L|277:68,1,96.2499976921082,8|12,2:0|3:0,0:0:0:0:
115,4,113219,1,12,3:0:0:0:
115,4,113397,1,12,3:0:0:0:
1,148,113933,2,0,P|42:200|31:275,1,144.374996538162,12|2,3:0|2:0,0:0:0:0:
31,273,115183,38,0,L|118:278,1,48.1249988460541,8|2,2:0|2:0,0:0:0:0:
141,282,115540,1,2,2:0:0:0:
249,344,115897,2,0,P|268:287|252:226,1,96.2499976921082,0|12,0:0|3:0,0:0:0:0:
376,102,116790,2,0,P|358:146|361:193,1,96.2499976921082,12|2,3:0|2:0,0:0:0:0:
361,193,118040,6,0,L|424:190,1,48.1249988460541,8|2,2:0|2:0,0:0:0:0:
471,187,118397,1,12,3:0:0:0:
471,187,118576,2,0,P|482:245|464:300,1,96.2499976921082,2|12,2:0|3:0,0:0:0:0:
437,330,119111,1,12,3:0:0:0:
323,383,119469,1,8,2:0:0:0:
323,383,119647,2,0,P|271:358|201:353,1,96.2499976921082,12|2,3:0|2:0,0:0:0:0:
172,365,120183,1,12,3:0:0:0:
5,278,120719,38,0,L|19:180,1,96.2499976921082,12|2,3:0|2:0,0:0:0:0:
3,58,121433,1,2,2:0:0:0:
3,58,121611,2,0,P|57:53|106:64,1,96.2499976921082,0|12,0:0|3:0,0:0:0:0:
196,138,122326,1,8,2:0:0:0:
196,138,122504,2,0,P|250:143|299:132,1,96.2499976921082,12|8,3:0|2:0,0:0:0:0:
290,134,123754,6,0,P|250:161|220:198,2,96.2499976921082
352,135,124647,1,0,0:0:0:0:
352,135,124826,1,0,0:0:0:0:
472,168,125183,2,0,B|480:207|480:207|448:293,1,96.2499976921082
361,337,125897,38,0,L|260:326,1,96.2499976921082,12|2,3:0|2:0,0:0:0:0:
207,349,126433,1,12,3:0:0:0:
94,293,126790,1,2,2:0:0:0:
197,222,127147,2,0,L|190:120,1,96.2499976921082,2|0,2:0|0:0,0:0:0:0:
187,63,127683,1,12,3:0:0:0:
290,132,128040,2,0,P|342:146|395:126,1,96.2499976921082,8|0,2:0|0:0,0:0:0:0:
481,59,128754,6,0,P|473:113|494:172,1,96.2499976921082,12|2,3:0|2:0,0:0:0:0:
457,209,129290,2,0,P|465:263|444:322,1,96.2499976921082,12|0,3:0|0:0,0:0:0:0:
394,319,129826,1,12,3:0:0:0:
209,353,130361,1,12,3:0:0:0:
209,353,130540,1,12,3:0:0:0:
86,377,130897,2,0,L|100:263,1,96.2499976921082,8|0,2:0|0:0,0:0:0:0:
156,170,131612,38,0,L|145:94,2,48.1249988460541,12|2|2,3:0|2:0|2:0,0:0:0:0:
134,228,132147,1,12,3:0:0:0:
134,228,132326,1,8,2:0:0:0:
222,324,132683,1,2,2:0:0:0:
222,324,132862,2,0,L|297:331,2,48.1249988460541,2|2|2,2:0|2:0|2:0,0:0:0:0:
160,315,133397,1,12,3:0:0:0:
268,253,133754,2,0,L|374:260,1,96.2499976921082,8|0,2:0|0:0,0:0:0:0:
479,308,134469,6,0,P|459:254|469:212,1,96.2499976921082,12|2,3:0|2:0,0:0:0:0:
450,157,135004,1,12,3:0:0:0:
450,157,135183,2,0,P|470:103|460:61,1,96.2499976921082,12|2,3:0|2:0,0:0:0:0:
402,49,135719,1,12,3:0:0:0:
402,49,135897,2,0,L|305:38,1,96.2499976921082,12|2,3:0|2:0,0:0:0:0:
248,60,136433,1,12,3:0:0:0:
248,60,136611,2,0,L|151:71,1,96.2499976921082,12|2,3:0|2:0,0:0:0:0:
140,329,148755,38,0,P|114:267|130:229,1,104.999991073609,12|2,3:0|2:0,0:0:0:0:
191,209,149290,1,12,3:0:0:0:
191,209,149469,1,8,2:0:0:0:
191,209,149647,2,0,L|316:212,1,104.999991073609,2|0,2:0|0:0,0:0:0:0:
364,215,150183,1,2,2:0:0:0:
436,99,150540,6,0,P|372:74|323:81,1,104.999991073609,12|8,3:0|2:0,0:0:0:0:
281,37,151076,2,0,P|228:37|181:14,1,104.999991073609,12|0,3:0|0:0,0:0:0:0:
114,23,151612,1,12,3:0:0:0:
1,193,152147,1,12,3:0:0:0:
1,193,152326,2,0,L|16:295,1,52.4999955368044,8|2,2:0|2:0,0:0:0:0:
26,310,152683,1,12,3:0:0:0:
218,379,153219,1,12,3:0:0:0:
218,379,153397,2,0,L|199:281,1,52.4999955368044,12|8,3:0|3:0,0:0:0:0:
192,260,153755,1,8,2:0:0:0:
192,260,153933,1,12,3:0:0:0:
305,89,154469,38,0,L|427:97,1,104.999991073609,12|2,3:0|2:0,0:0:0:0:
475,116,155005,1,12,3:0:0:0:
392,224,155362,2,0,L|408:337,1,104.999991073609,2|0,2:0|0:0,0:0:0:0:
460,369,155897,1,2,2:0:0:0:
323,358,156255,2,0,L|212:349,1,104.999991073609,12|8,3:0|2:0,0:0:0:0:
162,311,156790,2,0,L|51:320,1,104.999991073609,12|0,3:0|0:0,0:0:0:0:
6,365,157326,1,12,3:0:0:0:
42,163,157862,5,12,3:0:0:0:
42,163,158040,2,0,L|142:171,1,52.4999955368044,8|0,2:0|0:0,0:0:0:0:
154,135,158397,2,0,P|211:121|290:126,2,104.999991073609,12|0|12,3:0|0:0|3:0,0:0:0:0:
126,0,159469,1,0,0:0:0:0:
398,4,160183,6,0,L|390:112,1,104.999991073609,12|2,3:0|2:0,0:0:0:0:
425,167,160719,1,12,3:0:0:0:
323,258,161076,2,0,P|282:237|219:235,1,104.999991073609,2|0,2:0|0:0,0:0:0:0:
168,273,161612,1,2,2:0:0:0:
273,359,161969,2,0,P|328:350|381:350,1,104.999991073609,12|8,3:0|2:0,0:0:0:0:
441,371,162505,2,0,P|439:314|450:263,1,104.999991073609,12|0,3:0|0:0,0:0:0:0:
504,228,163040,1,12,3:0:0:0:
414,43,163576,1,12,3:0:0:0:
414,43,163755,2,0,L|341:37,1,52.4999955368044,8|2,2:0|2:0,0:0:0:0:
293,34,164112,1,12,3:0:0:0:
89,56,164647,1,12,3:0:0:0:
89,56,164826,2,0,P|102:107|81:167,1,104.999991073609,12|8,3:0|2:0,0:0:0:0:
87,156,165897,6,0,P|139:142|199:163,1,104.999991073609,12|0,3:0|0:0,0:0:0:0:
221,215,166433,1,12,3:0:0:0:
192,348,166790,1,2,2:0:0:0:
323,310,167147,1,0,0:0:0:0:
323,310,167326,2,0,L|411:303,1,52.4999955368044,2|0,2:0|0:0,0:0:0:0:
434,339,167683,2,0,P|424:294|433:227,1,104.999991073609,12|8,3:0|2:0,0:0:0:0:
377,191,168219,2,0,P|383:139|373:87,1,104.999991073609,12|0,3:0|0:0,0:0:0:0:
310,60,168755,1,12,3:0:0:0:
507,5,169290,37,12,3:0:0:0:
507,5,169469,2,0,P|483:56|486:91,1,52.4999955368044,8|2,2:0|2:0,0:0:0:0:
443,106,169826,2,0,B|452:165|452:165|439:188|439:188|454:265,1,157.499986610413,2|12,1:0|3:0,0:0:0:0:
472,323,170540,1,12,3:0:0:0:
351,382,170897,1,8,2:0:0:0:
351,382,171076,1,12,3:0:0:0:
149,345,171612,6,0,P|205:315|252:306,1,104.999991073609,12|0,3:0|0:0,0:0:0:0:
311,322,172147,1,12,3:0:0:0:
409,227,172505,1,2,2:0:0:0:
280,181,172862,1,2,2:0:0:0:
280,181,173040,2,0,L|176:175,1,104.999991073609,2|12,2:0|3:0,0:0:0:0:
187,42,173755,1,8,2:0:0:0:
187,42,173933,2,0,L|291:48,1,104.999991073609,12|0,3:0|0:0,0:0:0:0:
318,111,174469,38,0,L|383:116,2,52.4999955368044,12|2|2,3:0|2:0|2:0,0:0:0:0:
259,145,175005,1,12,3:0:0:0:
259,145,175183,1,8,2:0:0:0:
259,145,175362,2,0,L|160:140,2,52.4999955368044,2|12|2,2:0|3:0|2:0,0:0:0:0:
306,194,175897,1,2,2:0:0:0:
306,194,176076,2,0,L|405:199,2,52.4999955368044,12|12|8,3:0|3:0|3:0,0:0:0:0:
247,230,176612,1,8,2:0:0:0:
247,230,176790,1,12,3:0:0:0:
450,250,177326,6,0,P|466:190|442:136,1,104.999991073609,12|0,3:0|0:0,0:0:0:0:
396,112,177862,1,12,3:0:0:0:
261,137,178219,1,2,2:0:0:0:
299,6,178576,1,2,2:0:0:0:
299,6,178755,2,0,L|408:13,1,104.999991073609,2|12,2:0|3:0,0:0:0:0:
507,101,179469,1,8,2:0:0:0:
507,101,179647,2,0,P|489:155|488:213,1,104.999991073609,12|0,3:0|0:0,0:0:0:0:
489,271,180183,38,0,L|428:263,1,52.4999955368044,12|2,3:0|2:0,0:0:0:0:
388,312,180540,2,0,L|327:320,1,52.4999955368044,2|12,2:0|3:0,0:0:0:0:
283,274,180897,1,8,2:0:0:0:
283,274,181076,1,0,0:0:0:0:
283,274,181255,1,12,3:0:0:0:
158,330,181612,2,0,P|147:266|158:231,2,52.4999955368044,2|12|12,2:0|3:0|3:0,0:0:0:0:
32,382,182326,1,8,2:0:0:0:
32,382,182505,2,0,P|14:321|25:254,1,104.999991073609,12|2,3:0|2:0,0:0:0:0:
61,319,188755,6,0,L|188:326,1,109.374994039536,12|2,3:0|2:0,0:0:0:0:
237,303,189290,1,12,3:0:0:0:
237,303,189469,1,8,2:0:0:0:
237,303,189647,1,2,2:0:0:0:
361,371,190005,1,2,2:0:0:0:
361,371,190183,2,0,P|368:311|368:258,1,109.374994039536,0|12,0:0|3:0,0:0:0:0:
266,162,190897,1,8,2:0:0:0:
266,162,191076,2,0,P|259:102|259:49,1,109.374994039536,12|0,3:0|0:0,0:0:0:0:
315,9,191612,1,12,3:0:0:0:
112,76,192147,37,12,3:0:0:0:
112,76,192326,2,0,L|104:157,1,54.6874970197678,8|2,2:0|2:0,0:0:0:0:
63,187,192683,2,0,B|67:258|67:258|57:287|57:287|67:352,1,164.062491059303,2|12,1:0|3:0,0:0:0:0:
131,377,193397,1,12,3:0:0:0:
253,303,193755,1,8,2:0:0:0:
253,303,193933,2,0,L|381:312,1,109.374994039536,12|0,3:0|0:0,0:0:0:0:
432,298,194469,6,0,P|412:258|422:205,1,54.6874970197678,12|2,3:0|2:0,0:0:0:0:
460,197,194826,2,0,P|480:157|470:104,1,54.6874970197678,2|12,2:0|3:0,0:0:0:0:
446,85,195183,1,8,2:0:0:0:
446,85,195362,1,2,2:0:0:0:
328,14,195719,1,2,2:0:0:0:
328,14,195897,2,0,L|220:20,1,54.6874970197678,0|2,0:0|2:0,0:0:0:0:
215,58,196255,2,0,P|163:37|96:49,1,109.374994039536,12|8,3:0|2:0,0:0:0:0:
64,95,196790,2,0,P|87:147|70:210,1,109.374994039536,12|0,3:0|0:0,0:0:0:0:
31,250,197326,1,12,3:0:0:0:
197,382,197862,37,12,3:0:0:0:
197,382,198040,2,0,P|174:323|173:296,1,54.6874970197678,8|0,2:0|0:0,0:0:0:0:
208,268,198397,2,0,L|217:142,1,109.374994039536,12|2,3:0|2:0,0:0:0:0:
222,87,198933,1,12,3:0:0:0:
222,87,199112,1,12,3:0:0:0:
222,87,199290,2,0,P|262:68|322:74,1,54.6874970197678,8|8,3:0|2:0,0:0:0:0:
332,103,199647,2,0,L|461:116,1,109.374994039536,12|0,3:0|0:0,0:0:0:0:
492,163,200183,6,0,L|482:229,1,54.6874970197678,12|2,3:0|2:0,0:0:0:0:
430,264,200540,2,0,L|440:330,1,54.6874970197678,2|12,2:0|3:0,0:0:0:0:
483,373,200897,1,8,2:0:0:0:
347,328,201255,1,2,2:0:0:0:
213,376,201612,2,0,P|151:382|101:367,1,109.374994039536,2|12,2:0|3:0,0:0:0:0:
119,231,202326,1,8,2:0:0:0:
119,231,202505,2,0,P|181:225|231:240,1,109.374994039536,12|0,3:0|0:0,0:0:0:0:
284,198,203040,38,0,L|352:192,2,54.6874970197678,12|2|2,3:0|2:0|2:0,0:0:0:0:
239,149,203576,1,12,3:0:0:0:
239,149,203755,2,0,L|171:143,1,54.6874970197678,8|2,2:0|2:0,0:0:0:0:
127,101,204112,2,0,L|6:109,1,109.374994039536,2|2,2:0|2:0,0:0:0:0:
8,178,204647,1,2,2:0:0:0:
8,178,204826,1,2,2:0:0:0:
8,178,205005,1,2,2:0:0:0:
0,317,205362,1,2,2:0:0:0:
123,247,205719,5,0,0:0:0:0:
123,247,205897,2,0,P|183:224|272:221,1,113.749988594056,12|2,3:0|2:0,0:0:0:0:
293,268,206433,1,12,3:0:0:0:
293,268,206612,2,0,L|286:361,2,85.3124914455419,8|0|0,2:0|0:0|0:0,0:0:0:0:
299,194,207326,1,2,2:0:0:0:
375,67,207683,38,0,P|303:47|237:49,1,113.749988594056,12|8,3:0|2:0,0:0:0:0:
211,97,208219,2,0,P|139:117|73:115,1,113.749988594056,12|0,3:0|0:0,0:0:0:0:
40,74,208755,1,12,3:0:0:0:
4,295,209290,1,12,3:0:0:0:
4,295,209469,2,0,P|58:278|114:275,1,113.749988594056,8|12,2:0|3:0,0:0:0:0:
310,379,210362,1,12,3:0:0:0:
310,379,210540,2,0,L|296:279,1,56.8749942970279,12|8,3:0|3:0,0:0:0:0:
332,254,210897,2,0,L|345:119,1,113.749988594056,8|0,2:0|0:0,0:0:0:0:
266,13,211612,37,12,3:0:0:0:
482,61,212147,1,12,3:0:0:0:
422,196,212505,2,0,L|412:313,1,113.749988594056,2|0,2:0|0:0,0:0:0:0:
453,370,213040,1,2,2:0:0:0:
308,337,213397,2,0,P|253:329|181:338,1,113.749988594056,12|8,3:0|2:0,0:0:0:0:
140,284,213933,2,0,P|85:292|13:283,1,113.749988594056,12|2,3:0|2:0,0:0:0:0:
21,211,214469,38,0,L|16:100,2,85.3124914455419,12|0|12,3:0|0:0|3:0,0:0:0:0:
27,286,215183,1,8,2:0:0:0:
135,185,215540,2,0,B|208:189|208:189|225:202|225:202|300:207,1,170.624982891084,2|12,1:0|3:0,0:0:0:0:
374,216,216255,1,12,3:0:0:0:
286,103,216612,1,8,2:0:0:0:
286,103,216790,2,0,L|167:95,1,113.749988594056,12|2,3:0|2:0,0:0:0:0:
98,91,217326,1,12,3:0:0:0:
381,7,218040,5,8,2:0:0:0:
381,7,218219,2,0,L|392:80,1,56.8749942970279,2|2,2:0|2:0,0:0:0:0:
438,119,218576,2,0,L|433:234,1,113.749988594056,2|2,2:0|2:0,0:0:0:0:
427,306,219112,1,12,3:0:0:0:
289,354,219469,37,8,2:0:0:0:
289,354,219647,2,0,L|217:343,2,56.8749942970279,12|2|2,3:0|2:0|2:0,0:0:0:0:
351,314,220183,2,0,L|346:200,1,113.749988594056,12|0,3:0|0:0,0:0:0:0:
284,159,220719,2,0,L|288:45,1,113.749988594056,12|0,3:0|0:0,0:0:0:0:
349,2,221255,1,12,3:0:0:0:
204,74,221612,6,0,B|150:79|150:79|136:127|136:127|148:171|148:171|303:156,1,284.37497148514,0|12,0:0|3:0,0:0:0:0:
356,150,222683,1,2,2:0:0:0:
356,150,222862,1,2,2:0:0:0:
356,150,223755,37,8,2:0:0:0:
356,150,223933,2,0,L|346:222,1,56.8749942970279,2|2,2:0|2:0,0:0:0:0:
336,279,224290,2,0,P|351:331|426:346,1,113.749988594056,2|0,2:0|0:0,0:0:0:0:
472,327,224826,1,12,3:0:0:0:
442,182,225183,1,8,2:0:0:0:
442,182,225362,2,0,L|449:62,1,113.749988594056,12|0,3:0|0:0,0:0:0:0:
396,16,225897,6,0,L|326:12,1,56.8749942970279,12|2,3:0|2:0,0:0:0:0:
274,49,226255,2,0,L|204:53,1,56.8749942970279,2|12,2:0|3:0,0:0:0:0:
150,21,226612,1,8,2:0:0:0:
150,21,226790,1,2,2:0:0:0:
150,21,226969,2,0,P|148:89|192:129,1,113.749988594056,12|2,3:0|2:0,0:0:0:0:
154,192,227505,1,12,3:0:0:0:
154,192,227683,2,0,P|86:190|46:234,1,113.749988594056,12|8,3:0|2:0,0:0:0:0:
92,281,228219,1,12,3:0:0:0:
0,381,228576,1,0,0:0:0:0:
256,192,228755,12,0,240183,0:0:0:0:
