osu file format v14

[General]
AudioFilename: audio.mp3
AudioLeadIn: 0
PreviewTime: 205719
Countdown: 0
SampleSet: Soft
StackLeniency: 0
Mode: 0
LetterboxInBreaks: 0
WidescreenStoryboard: 0

[Editor]
Bookmarks: 23041,68755,91612,137326,148755,160183,227683,240183
DistanceSpacing: 1.2
BeatDivisor: 4
GridSize: 32
TimelineZoom: 1.300001

[Metadata]
Title:Lucid Dreams (Remix) feat. Lil Uzi Vert
TitleUnicode:Lucid Dreams (Remix) feat. Lil Uzi Vert
Artist:Juice WRLD
ArtistUnicode:Juice WRLD
Creator:1103
Version:Qiyana's Easy
Source:
Tags:goodbye & good riddance english hip hop rap riffy bakari qiyana clubber washedup player dyl-byl shape of my heart sting ft. wont
BeatmapID:3059063
BeatmapSetID:1475832

[Difficulty]
HPDrainRate:3
CircleSize:3.2
OverallDifficulty:4
ApproachRate:5
SliderMultiplier:1.39999990463257
SliderTickRate:1

[Events]
//Background and Video events
0,0,"Uvykh4.png",0,0
//Break Periods
2,68955,90412
2,137526,147555
2,183240,187555
//Storyboard Layer 0 (Background)
//Storyboard Layer 1 (Fail)
//Storyboard Layer 2 (Pass)
//Storyboard Layer 3 (Foreground)
//Storyboard Layer 4 (Overlay)
//Storyboard Sound Samples

[TimingPoints]
184,714.285714285714,4,2,1,60,1,0
50898,-100,4,2,1,5,0,0
51612,-100,4,2,1,69,0,0
68755,691.64265129683,4,2,1,40,1,0
69273,714.285714285714,4,2,1,40,1,0
69630,670.391061452514,4,2,1,40,1,0
70132,725.075528700906,4,2,1,40,1,0
70675,764.331210191083,4,2,1,40,1,0
71057,679.886685552408,4,2,1,40,1,0
71566,676.056338028169,4,2,1,40,1,0
72073,786.885245901639,4,2,1,40,1,0
72466,707.964601769911,4,2,1,40,1,0
72996,712.166172106825,4,2,1,40,1,0
73530,720.720720720721,4,2,1,40,1,0
73890,705.882352941176,4,2,1,40,1,0
74419,710.059171597633,4,2,1,40,1,0
75306,727.272727272727,4,2,1,40,1,0
75851,703.812316715542,4,2,1,40,1,0
76378,731.70731707317,4,2,1,40,1,0
76743,712.166172106825,4,2,1,40,1,0
77277,738.461538461538,4,2,1,40,1,0
79123,712.166172106825,4,2,1,40,1,0
79835,761.904761904762,4,2,1,40,1,0
80215,668.523676880223,4,2,1,40,1,0
80716,716.417910447761,4,2,1,40,1,0
81074,716.417910447761,4,2,1,40,1,0
81611,648.648648648648,4,2,1,40,1,0
82097,830.449826989619,4,2,1,40,1,0
82512,707.964601769911,4,2,1,40,1,0
83042,718.562874251497,4,2,1,40,1,0
83580,727.272727272727,4,2,1,40,1,0
83943,716.417910447761,4,2,1,40,1,0
84480,703.812316715542,4,2,1,40,1,0
85007,718.562874251497,4,2,1,40,1,0
85366,697.674418604651,4,2,1,40,1,0
85889,670.391061452514,4,2,1,40,1,0
86391,764.331210191083,4,2,1,40,1,0
86773,687.679083094556,4,2,1,40,1,0
88146,650.406504065041,4,2,1,40,1,0
89121,712.166172106825,4,2,1,40,1,0
89477,714.285714285714,4,2,1,40,1,0
91612,714.285714285714,4,2,1,60,1,0
96612,-100,4,2,1,5,0,0
97326,-100,4,2,1,69,0,0
102326,-100,4,2,1,5,0,0
103040,-100,4,2,1,69,0,0
137326,650.406504065041,4,2,1,45,1,0
137813,718.562874251497,4,2,1,45,1,0
138172,727.272727272727,4,2,1,45,1,0
138717,714.285714285714,4,2,1,45,1,0
139252,813.559322033898,4,2,1,45,1,0
139658,853.849437882453,4,2,1,45,1,0
139871,546.697038724374,4,2,1,45,1,0
140144,727.272727272727,4,2,1,45,1,0
140689,677.966101694915,4,2,1,45,1,0
141027,727.272727272727,4,2,1,45,1,0
141572,703.812316715542,4,2,1,45,1,0
142099,674.157303370787,4,2,1,45,1,0
142604,697.674418604651,4,2,1,45,1,0
142778,941.176470588235,4,2,1,45,1,0
143013,703.812316715542,4,2,1,45,1,0
143540,695.652173913043,4,2,1,45,1,0
143887,720.72072072072,4,2,1,45,1,0
144427,685.714285714285,4,2,1,45,1,0
144941,736.196319018405,4,2,1,45,1,0
145861,714.285714285714,4,2,1,45,1,0
146396,699.708454810495,4,2,1,45,1,0
146745,722.89156626506,4,2,1,45,1,0
147287,676.056338028169,4,2,1,45,1,0
147963,821.917808219178,4,2,1,45,1,0
148579,697.674418604651,4,2,1,45,1,0
148755,714.285714285714,4,2,1,70,1,0
165183,-100,4,2,1,5,0,0
165897,-100,4,2,1,69,0,0
183039,679.886685552408,4,2,1,50,1,0
183548,729.483282674772,4,2,1,50,1,0
183912,465.116279069767,4,2,1,50,1,0
184144,776.497994046849,4,2,1,50,1,0
184532,641.711229946524,4,2,1,50,1,0
184852,469.667318982387,4,2,1,50,1,0
185086,586.79706601467,4,2,1,50,1,0
185379,754.716981132075,4,2,1,50,1,0
185756,836.236933797909,4,2,1,50,1,0
185965,695.652173913044,4,2,1,50,1,0
186312,695.652173913043,4,2,1,50,1,0
186485,722.89156626506,4,2,1,50,1,0
186665,776.497994046849,4,2,1,50,1,0
186859,604.534005037783,4,2,1,50,1,0
187161,589.813913710224,4,2,1,50,1,0
187455,589.680589680589,4,2,1,50,1,0
187749,481.05061454216,4,2,1,50,1,0
187989,568.720379146919,4,2,1,50,1,0
188273,641.711229946524,4,2,1,50,1,0
188755,714.285714285714,4,2,1,65,1,0
228755,-66.6666666666667,4,2,1,35,0,0
234469,-66.6666666666667,4,2,1,17,0,0
240183,-66.6666666666667,4,2,1,5,0,0

[Colours]
Combo1 : 75,0,128
Combo2 : 163,59,236
Combo3 : 200,110,34
Combo4 : 209,167,131

[HitObjects]
41,333,23041,22,0,B|75:343|75:343|112:333,1,69.9999952316284,12|2,3:0|2:0,0:0:0:0:
185,301,23755,2,0,B|219:291|219:291|256:301,1,69.9999952316284,8|0,2:0|0:0,0:0:0:0:
313,358,24469,2,0,P|336:294|303:234,1,139.999990463257,2|8,2:0|2:0,0:0:0:0:
340,70,25898,5,12,3:0:0:0:
401,128,26255,2,0,L|472:129,2,69.9999952316285,2|8|12,2:0|2:0|3:0,0:0:0:0:
321,151,27326,2,0,P|288:139|266:113,1,69.9999952316285,2|12,2:0|3:0,0:0:0:0:
183,96,28041,2,0,P|154:115|120:118,1,69.9999952316285,8|0,2:0|0:0,0:0:0:0:
61,58,28755,38,0,P|33:120|62:181,1,139.999990463257,12|8,3:0|2:0,0:0:0:0:
21,254,29826,1,2,2:0:0:0:
88,304,30183,2,0,B|161:320|150:275|228:288,1,139.999990463257,2|8,2:0|2:0,0:0:0:0:
380,346,31612,6,0,P|444:369|504:336,1,139.999990463257,12|8,3:0|2:0,0:0:0:0:
438,286,32683,1,2,1:0:0:0:
470,208,33041,2,0,L|471:138,1,69.9999952316285,2|12,2:0|3:0,0:0:0:0:
401,92,33755,2,0,B|366:99|366:99|331:88,1,69.9999952316285,8|2,2:0|2:0,0:0:0:0:
257,54,34469,37,12,3:0:0:0:
112,139,35183,2,0,L|-7:137,2,104.999992847443,8|2|12,2:0|2:0|3:0,0:0:0:0:
166,202,36612,2,0,B|176:234|176:234|168:272,1,69.9999952316285,8|2,2:0|2:0,0:0:0:0:
107,327,37326,6,0,P|169:354|231:325,1,139.999990463257,12|8,3:0|2:0,0:0:0:0:
302,370,38398,1,12,3:0:0:0:
370,320,38755,2,0,L|365:246,1,69.9999952316285,2|12,2:0|3:0,0:0:0:0:
412,180,39469,2,0,L|417:106,1,69.9999952316285,8|2,2:0|2:0,0:0:0:0:
344,68,40183,38,0,B|271:52|282:97|205:77,1,139.999990463257,12|8,3:0|2:0,0:0:0:0:
65,167,41612,2,0,L|66:241,1,69.9999952316285,0|12,0:0|3:0,0:0:0:0:
129,291,42326,2,0,B|161:299|161:299|199:289,1,69.9999952316285,8|2,2:0|2:0,0:0:0:0:
256,349,43040,6,0,P|281:286|251:226,1,139.999990463257,12|8,3:0|2:0,0:0:0:0:
198,159,44112,1,12,3:0:0:0:
251,94,44469,2,0,L|328:97,1,69.9999952316285,2|12,2:0|3:0,0:0:0:0:
404,100,45183,1,8,2:0:0:0:
512,246,45898,38,0,B|481:266|478:305|478:305|454:274|419:274,1,139.999990463257,12|8,3:0|2:0,0:0:0:0:
351,317,46969,1,0,0:0:0:0:
300,384,47326,2,0,P|266:324|289:260,1,139.999990463257,2|8,2:0|2:0,0:0:0:0:
148,167,48755,6,0,P|171:230|138:290,1,139.999990463257,12|8,3:0|2:0,0:0:0:0:
87,224,49826,1,12,3:0:0:0:
44,152,50183,2,0,L|46:80,2,69.9999952316285,2|12|8,2:0|3:0|2:0,0:0:0:0:
137,290,51612,38,0,B|210:274|199:319|276:299,1,139.999990463257,12|8,3:0|2:0,0:0:0:0:
353,274,52683,1,0,0:0:0:0:
414,331,53040,2,0,P|436:267|403:207,1,139.999990463257,2|8,2:0|2:0,0:0:0:0:
442,132,54112,1,2,2:0:0:0:
378,76,54469,6,0,B|344:66|344:66|307:76,1,69.9999952316284,12|0,3:0|0:0,0:0:0:0:
234,108,55183,2,0,B|200:118|200:118|163:108,1,69.9999952316284,8|2,2:0|1:0,0:0:0:0:
99,159,55898,2,0,L|99:237,1,69.9999952316285,2|12,2:0|3:0,0:0:0:0:
145,298,56612,2,0,L|223:298,1,69.9999952316285,8|2,2:0|2:0,0:0:0:0:
298,297,57326,37,12,3:0:0:0:
405,168,58041,2,0,P|390:119|412:66,2,104.999992847443,8|2|12,2:0|2:0|3:0,0:0:0:0:
453,236,59469,2,0,L|452:312,1,69.9999952316285,8|2,2:0|2:0,0:0:0:0:
379,348,60183,6,0,B|306:332|317:377|240:357,1,139.999990463257,12|8,3:0|2:0,0:0:0:0:
173,308,61255,1,12,3:0:0:0:
107,256,61611,2,0,B|97:222|97:222|107:185,1,69.9999952316284,2|12,2:0|3:0,0:0:0:0:
136,110,62326,2,0,L|219:111,1,69.9999952316285,8|2,2:0|2:0,0:0:0:0:
445,33,63755,38,0,L|444:116,1,69.9999952316285,8|2,2:0|2:0,0:0:0:0:
382,160,64469,2,0,B|344:167|344:167|299:156,1,69.9999952316285,0|12,0:0|3:0,0:0:0:0:
238,123,65184,1,8,2:0:0:0:
163,87,65541,1,2,2:0:0:0:
107,24,65898,6,0,P|78:85|106:148,1,139.999990463257,12|8,3:0|2:0,0:0:0:0:
166,206,66969,1,12,3:0:0:0:
116,274,67326,2,0,L|41:275,2,69.9999952316285,2|12|8,2:0|3:0|2:0,0:0:0:0:
270,352,68755,37,2,2:0:0:0:
270,352,91612,6,0,P|308:338|350:348,1,69.9999952316285,12|2,3:0|2:0,0:0:0:0:
399,286,92326,2,0,L|396:211,1,69.9999952316285,8|0,2:0|0:0,0:0:0:0:
347,147,93040,2,0,P|394:131|448:151,2,104.999992847443,2|2|0,2:0|2:0|0:0,0:0:0:0:
273,105,94469,38,0,P|206:128|121:85,1,139.999990463257,12|8,3:0|2:0,0:0:0:0:
66,72,95540,1,12,3:0:0:0:
31,148,95897,2,0,B|12:195|12:195|36:295,1,139.999990463257,2|8,2:0|2:0,0:0:0:0:
178,365,97326,6,0,B|226:383|226:383|324:360,1,139.999990463257,12|8,3:0|2:0,0:0:0:0:
381,314,98397,1,2,2:0:0:0:
448,263,98754,2,0,P|465:310|447:365,2,104.999992847443,2|2|0,2:0|2:0|0:0,0:0:0:0:
372,225,100183,38,0,B|299:209|310:257|233:234,1,139.999990463257,12|8,3:0|2:0,0:0:0:0:
166,186,101254,1,2,1:0:0:0:
102,130,101612,2,0,L|106:57,2,69.9999952316285,0|12|8,0:0|3:0|2:0,0:0:0:0:
14,273,103040,6,0,B|18:341|18:341|106:332,1,139.999990463257,12|8,3:0|2:0,0:0:0:0:
172,320,104112,1,0,0:0:0:0:
238,268,104469,2,0,P|255:314|238:370,2,104.999992847443,2|0|0,2:0|0:0|0:0,0:0:0:0:
174,211,105897,38,0,P|236:182|299:208,1,139.999990463257,12|8,3:0|2:0,0:0:0:0:
367,256,106969,1,12,3:0:0:0:
424,194,107326,2,0,B|443:147|443:147|419:47,1,139.999990463257,2|8,2:0|2:0,0:0:0:0:
348,20,108397,1,0,0:0:0:0:
271,64,108754,6,0,B|218:75|218:75|152:53,2,104.999992847443,12|12|0,3:0|3:0|0:0,0:0:0:0:
347,103,110183,2,0,P|376:165|350:228,1,139.999990463257,2|8,2:0|2:0,0:0:0:0:
201,305,111612,38,0,P|172:243|198:180,1,139.999990463257,12|8,3:0|2:0,0:0:0:0:
249,114,112683,1,12,3:0:0:0:
193,51,113040,2,0,L|106:52,1,69.9999952316285,0|12,0:0|3:0,0:0:0:0:
60,107,113754,2,0,B|50:143|50:143|64:193,1,69.9999952316285,8|2,2:0|2:0,0:0:0:0:
118,331,114826,6,0,B|154:341|154:341|204:327,1,69.9999952316285,0|8,0:0|2:0,0:0:0:0:
223,257,115540,1,2,2:0:0:0:
283,198,115897,2,0,P|220:171|158:201,1,139.999990463257,0|2,0:0|2:0,0:0:0:0:
99,261,116969,1,2,2:0:0:0:
0,126,117683,38,0,L|2:54,1,69.9999952316285,0|8,0:0|2:0,0:0:0:0:
82,33,118397,1,12,3:0:0:0:
143,90,118754,2,0,B|176:101|176:101|213:92,1,69.9999952316284,0|12,0:0|3:0,0:0:0:0:
289,63,119468,2,0,B|323:54|323:54|359:65,1,69.9999952316284,8|2,2:0|2:0,0:0:0:0:
408,1,120182,6,0,P|439:61|414:125,1,139.999990463257,12|8,3:0|2:0,0:0:0:0:
354,184,121254,1,2,2:0:0:0:
397,256,121611,2,0,L|397:331,1,69.9999952316285,0|12,0:0|3:0,0:0:0:0:
324,368,122326,2,0,B|288:375|288:375|249:365,1,69.9999952316285,8|2,2:0|2:0,0:0:0:0:
88,358,123397,37,0,0:0:0:0:
40,288,123754,2,0,L|41:214,1,69.9999952316285
76,141,124469,2,0,L|75:71,2,69.9999952316285
195,259,125897,6,0,P|257:286|318:257,1,139.999990463257,12|8,3:0|2:0,0:0:0:0:
381,201,126969,1,2,2:0:0:0:
438,140,127326,2,0,L|436:62,1,69.9999952316285,0|12,0:0|3:0,0:0:0:0:
369,18,128040,1,8,2:0:0:0:
207,62,128754,38,0,L|129:64,2,69.9999952316285,12|2|8,3:0|2:0|2:0,0:0:0:0:
258,128,129826,1,12,3:0:0:0:
311,192,130183,2,0,B|321:226|321:226|311:263,1,69.9999952316284,2|12,2:0|3:0,0:0:0:0:
252,318,130897,2,0,B|181:318,1,69.9999952316285,8|0,2:0|0:0,0:0:0:0:
124,379,131612,6,0,P|96:316|125:255,1,139.999990463257,12|8,3:0|2:0,0:0:0:0:
87,179,132683,1,2,2:0:0:0:
150,123,133040,2,0,B|183:113|183:113|217:122,1,69.9999952316284,2|12,2:0|3:0,0:0:0:0:
293,157,133754,1,8,2:0:0:0:
413,274,134469,38,0,L|415:352,2,69.9999952316285,12|2|12,3:0|2:0|3:0,0:0:0:0:
440,194,135540,1,2,2:0:0:0:
470,115,135897,2,0,P|435:108|403:118,1,69.9999952316285,12|2,3:0|2:0,0:0:0:0:
328,159,136611,2,0,P|293:165|261:155,1,69.9999952316285,12|2,3:0|2:0,0:0:0:0:
195,102,137326,5,2,2:0:0:0:
196,102,148755,38,0,P|129:81|68:124,1,139.999990463257,12|8,3:0|2:0,0:0:0:0:
142,163,149826,1,0,0:0:0:0:
86,225,150183,2,0,P|153:246|214:203,1,139.999990463257,2|8,2:0|2:0,0:0:0:0:
326,91,151612,6,0,L|476:98,1,139.999990463257,12|8,3:0|2:0,0:0:0:0:
491,177,152683,1,12,3:0:0:0:
511,259,153040,2,0,L|508:328,1,69.9999952316285,2|12,2:0|3:0,0:0:0:0:
430,361,153755,2,0,B|394:367|394:367|360:355,1,69.9999952316285,8|0,2:0|0:0,0:0:0:0:
289,315,154469,38,0,B|216:299|227:344|152:328,1,139.999990463257,12|8,3:0|2:0,0:0:0:0:
84,279,155540,1,0,0:0:0:0:
25,339,155897,2,0,P|-2:276|26:215,1,139.999990463257,2|8,2:0|2:0,0:0:0:0:
160,114,157326,5,12,3:0:0:0:
232,70,157683,2,0,L|228:-1,2,69.9999952316285,0|8|12,0:0|2:0|3:0,0:0:0:0:
288,132,158755,2,0,B|361:116|350:161|427:141,1,139.999990463257
502,290,160183,6,0,P|461:274|430:282,1,69.9999952316285,12|2,3:0|2:0,0:0:0:0:
369,329,160897,2,0,P|328:345|297:337,1,69.9999952316285,8|0,2:0|0:0,0:0:0:0:
225,308,161612,2,0,L|88:313,2,104.999992847443,2|2|0,2:0|2:0|0:0,0:0:0:0:
262,232,163040,6,0,B|272:198|272:198|262:161,1,69.9999952316284,12|0,3:0|0:0,0:0:0:0:
194,115,163755,2,0,L|114:117,1,69.9999952316285,8|12,2:0|3:0,0:0:0:0:
66,54,164469,2,0,P|37:115|65:178,1,139.999990463257,2|8,2:0|2:0,0:0:0:0:
190,288,165897,38,0,P|209:334|193:385,2,104.999992847443,12|12|0,3:0|3:0|0:0,0:0:0:0:
228,212,167326,2,0,L|384:216,1,139.999990463257,2|8,2:0|2:0,0:0:0:0:
433,268,168397,1,0,0:0:0:0:
491,331,168755,6,0,P|519:269|491:206,1,139.999990463257,12|8,3:0|2:0,0:0:0:0:
441,139,169826,1,2,1:0:0:0:
387,73,170183,2,0,B|351:64|351:64|302:80,1,69.9999952316285,2|12,2:0|3:0,0:0:0:0:
243,110,170897,1,8,2:0:0:0:
100,20,171612,38,0,L|105:171,1,139.999990463257,12|8,3:0|2:0,0:0:0:0:
61,231,172683,1,0,0:0:0:0:
106,301,173040,2,0,B|140:309|140:309|176:298,1,69.9999952316284,2|12,2:0|3:0,0:0:0:0:
249,264,173754,2,0,B|282:252|282:252|319:261,1,69.9999952316284,8|0,2:0|0:0,0:0:0:0:
397,283,174469,5,12,3:0:0:0:
475,313,174826,2,0,L|473:391,2,69.9999952316285,2|8|12,2:0|2:0|3:0,0:0:0:0:
463,229,175897,2,0,B|447:156|492:167|472:90,1,139.999990463257,2|8,2:0|2:0,0:0:0:0:
313,39,177326,37,12,3:0:0:0:
241,83,177683,2,0,L|159:81,1,69.9999952316285,0|8,0:0|2:0,0:0:0:0:
87,78,178397,1,0,0:0:0:0:
29,16,178755,2,0,P|0:77|28:140,1,139.999990463257,2|8,2:0|2:0,0:0:0:0:
109,286,180183,6,0,P|117:315|107:353,2,69.9999952316285,12|2|8,3:0|2:0|2:0,0:0:0:0:
183,247,181255,1,12,3:0:0:0:
256,205,181612,2,0,B|329:189|318:234|395:214,1,139.999990463257,2|8,2:0|2:0,0:0:0:0:
463,260,182683,2,0,L|462:337,1,69.9999952316285,2|2,2:0|2:0,0:0:0:0:
462,329,188755,37,12,3:0:0:0:
390,284,189112,2,0,L|308:287,1,69.9999952316285,2|8,2:0|2:0,0:0:0:0:
236,290,189826,1,2,2:0:0:0:
181,355,190184,2,0,P|149:295|174:232,1,139.999990463257,0|8,0:0|2:0,0:0:0:0:
118,168,191255,1,0,0:0:0:0:
165,98,191612,6,0,B|198:85|198:85|235:93,1,69.9999952316284,12|2,3:0|2:0,0:0:0:0:
311,120,192326,2,0,B|345:127|345:127|381:115,1,69.9999952316284,8|2,2:0|1:0,0:0:0:0:
445,166,193040,2,0,L|444:319,1,139.999990463257,2|8,2:0|2:0,0:0:0:0:
285,361,194469,37,12,3:0:0:0:
214,315,194826,2,0,P|168:317|140:338,1,69.9999952316285,2|8,2:0|2:0,0:0:0:0:
80,378,195540,1,2,2:0:0:0:
11,329,195897,2,0,L|14:187,1,139.999990463257,0|8,0:0|2:0,0:0:0:0:
144,83,197326,6,0,L|215:84,1,69.9999952316285,12|2,3:0|2:0,0:0:0:0:
297,85,198040,2,0,L|368:86,1,69.9999952316285,8|12,2:0|3:0,0:0:0:0:
428,29,198755,2,0,P|452:92|420:151,1,139.999990463257,2|8,2:0|2:0,0:0:0:0:
325,290,200183,37,12,3:0:0:0:
352,369,200540,2,0,L|423:367,2,69.9999952316285,2|8|2,2:0|2:0|2:0,0:0:0:0:
269,354,201612,2,0,L|198:352,1,69.9999952316285,2|12,2:0|3:0,0:0:0:0:
136,295,202326,2,0,B|127:260|127:260|139:224,1,69.9999952316285,8|0,2:0|0:0,0:0:0:0:
73,173,203040,6,0,P|133:141|196:167,1,139.999990463257,12|8,3:0|2:0,0:0:0:0:
253,228,204112,1,2,2:0:0:0:
312,286,204469,2,0,P|372:318|435:292,1,139.999990463257,2|0,2:0|0:0,0:0:0:0:
494,135,205897,37,12,3:0:0:0:
422,90,206255,2,0,L|346:94,1,69.9999952316285,2|8,2:0|2:0,0:0:0:0:
279,52,206969,1,0,0:0:0:0:
234,124,207326,2,0,L|242:276,1,139.999990463257,2|8,2:0|2:0,0:0:0:0:
90,339,208755,38,0,L|93:269,1,69.9999952316285,12|2,3:0|2:0,0:0:0:0:
142,200,209469,2,0,L|138:130,1,69.9999952316285,8|12,2:0|3:0,0:0:0:0:
102,54,210183,2,0,P|135:43|169:50,1,69.9999952316285,2|12,2:0|3:0,0:0:0:0:
244,86,210897,1,8,2:0:0:0:
402,143,211612,37,12,3:0:0:0:
470,93,211969,2,0,L|471:15,2,69.9999952316285,2|8|0,2:0|2:0|0:0,0:0:0:0:
512,166,213040,2,0,B|529:211|529:211|500:314,1,139.999990463257,2|8,2:0|2:0,0:0:0:0:
428,334,214112,1,2,2:0:0:0:
371,271,214469,38,0,B|298:255|310:305|232:280,1,139.999990463257,12|8,3:0|2:0,0:0:0:0:
153,262,215540,1,2,1:0:0:0:
102,328,215897,2,0,P|68:268|91:204,1,139.999990463257,2|8,2:0|2:0,0:0:0:0:
26,49,217326,5,12,3:0:0:0:
189,86,218040,2,0,L|262:82,1,69.9999952316285,8|2,2:0|2:0,0:0:0:0:
315,19,218755,2,0,P|345:79|318:142,1,139.999990463257,0|8,0:0|2:0,0:0:0:0:
260,203,219826,1,2,2:0:0:0:
197,258,220183,6,0,P|166:318|193:381,1,139.999990463257,12|8,3:0|2:0,0:0:0:0:
252,322,221255,1,12,3:0:0:0:
329,353,221612,2,0,B|363:363|363:363|400:353,1,69.9999952316284,0|12,0:0|3:0,0:0:0:0:
463,303,222326,2,0,B|463:232,1,69.9999952316285,8|2,2:0|2:0,0:0:0:0:
297,42,223755,38,0,B|226:42,1,69.9999952316285,8|2,2:0|2:0,0:0:0:0:
165,99,224469,2,0,B|147:144|147:144|176:247,1,139.999990463257,0|8,0:0|2:0,0:0:0:0:
205,309,225540,1,0,0:0:0:0:
142,364,225897,6,0,L|63:362,1,69.9999952316285,12|2,3:0|2:0,0:0:0:0:
20,295,226612,2,0,L|22:216,1,69.9999952316285,8|12,2:0|3:0,0:0:0:0:
90,175,227327,2,0,L|169:177,1,69.9999952316285,2|12,2:0|3:0,0:0:0:0:
212,244,228040,1,8,2:0:0:0:
365,174,228755,37,0,0:0:0:0:
