osu file format v14

[General]
AudioFilename: audio.mp3
AudioLeadIn: 0
PreviewTime: 205719
Countdown: 0
SampleSet: Soft
StackLeniency: 0
Mode: 0
LetterboxInBreaks: 0
WidescreenStoryboard: 1

[Editor]
Bookmarks: 23041,32683,45898,55541,68755,91612,101254,107683,114469,137326,160183,169826,183041,188755,197862,205898,215540
DistanceSpacing: 1.3
BeatDivisor: 8
GridSize: 32
TimelineZoom: 2.7

[Metadata]
Title:Lucid Dreams (Remix) feat. Lil Uzi Vert
TitleUnicode:Lucid Dreams (Remix) feat. Lil Uzi Vert
Artist:Juice WRLD
ArtistUnicode:Juice WRLD
Creator:1103
Version:I won't let you forget me
Source:
Tags:goodbye & good riddance english hip hop rap riffy bakari qiyana clubber washedup player dyl-byl shape of my heart sting ft. wont
BeatmapID:3201165
BeatmapSetID:1475832

[Difficulty]
HPDrainRate:4.5
CircleSize:3.8
OverallDifficulty:8.4
ApproachRate:9.4
SliderMultiplier:2.49999990463257
SliderTickRate:1

[Events]
//Background and Video events
0,0,"Uvykh4.png",0,0
//Break Periods
//Storyboard Layer 0 (Background)
//Storyboard Layer 1 (Fail)
//Storyboard Layer 2 (Pass)
//Storyboard Layer 3 (Foreground)
//Storyboard Layer 4 (Overlay)
//Storyboard Sound Samples

[TimingPoints]
184,714.285714285714,4,2,1,60,1,0
23041,-50,4,2,1,60,0,0
23131,-66.6666666666667,4,2,1,60,0,0
23576,-50,4,2,1,60,0,0
23667,-66.6666666666667,4,2,1,60,0,0
24826,-50,4,2,1,60,0,0
24917,-66.6666666666667,4,2,1,60,0,0
25362,-50,4,2,1,60,0,0
25453,-66.6666666666667,4,2,1,60,0,0
25898,-50,4,2,1,60,0,0
25989,-66.6666666666667,4,2,1,60,0,0
26433,-50,4,2,1,60,0,0
26524,-66.6666666666667,4,2,1,60,0,0
26969,-50,4,2,1,60,0,0
27060,-66.6666666666667,4,2,1,60,0,0
27505,-50,4,2,1,60,0,0
27596,-66.6666666666667,4,2,1,60,0,0
27683,-50,4,2,1,60,0,0
27774,-66.6666666666667,4,2,1,60,0,0
28219,-50,4,2,1,60,0,0
28309,-66.6666666666667,4,2,1,60,0,0
28755,-55.5555555555556,4,2,1,60,0,0
28846,-66.6666666666667,4,2,1,60,0,0
29291,-50,4,2,1,60,0,0
29381,-66.6666666666667,4,2,1,60,0,0
29826,-50,4,2,1,60,0,0
30183,-66.6666666666667,4,2,1,60,0,0
30541,-50,4,2,1,60,0,0
30631,-66.6666666666667,4,2,1,60,0,0
31076,-50,4,2,1,60,0,0
31167,-66.6666666666667,4,2,1,60,0,0
31612,-50,4,2,1,60,0,0
31703,-66.6666666666667,4,2,1,60,0,0
32148,-55.5555555555556,4,2,1,60,0,0
32239,-66.6666666666667,4,2,1,60,0,0
32683,-40,4,2,1,60,0,0
32774,-66.6666666666667,4,2,1,60,0,0
33219,-50,4,2,1,60,0,0
33310,-66.6666666666667,4,2,1,60,0,0
33398,-50,4,2,1,60,0,0
33489,-66.6666666666667,4,2,1,60,0,0
33933,-50,4,2,1,60,0,0
34024,-66.6666666666667,4,2,1,60,0,0
34469,-50,4,2,1,60,0,0
34560,-66.6666666666667,4,2,1,60,0,0
35006,-50,4,2,1,60,0,0
35096,-66.6666666666667,4,2,1,60,0,0
35719,-58.8235294117647,4,2,1,60,0,0
36255,-50,4,2,1,60,0,0
36346,-66.6666666666667,4,2,1,60,0,0
36791,-50,4,2,1,60,0,0
36881,-66.6666666666667,4,2,1,60,0,0
37326,-40,4,2,1,60,0,0
37416,-66.6666666666667,4,2,1,60,0,0
37862,-40,4,2,1,60,0,0
37952,-66.6666666666667,4,2,1,60,0,0
38398,-40,4,2,1,60,0,0
38488,-66.6666666666667,4,2,1,60,0,0
38933,-50,4,2,1,60,0,0
39023,-66.6666666666667,4,2,1,60,0,0
39112,-50,4,2,1,60,0,0
39202,-66.6666666666667,4,2,1,60,0,0
39648,-50,4,2,1,60,0,0
39738,-66.6666666666667,4,2,1,60,0,0
40183,-50,4,2,1,60,0,0
40273,-66.6666666666667,4,2,1,60,0,0
40719,-50,4,2,1,60,0,0
40809,-66.6666666666667,4,2,1,60,0,0
41969,-50,4,2,1,60,0,0
42059,-66.6666666666667,4,2,1,60,0,0
42505,-50,4,2,1,60,0,0
42595,-66.6666666666667,4,2,1,60,0,0
43041,-50,4,2,1,60,0,0
43131,-66.6666666666667,4,2,1,60,0,0
43576,-50,4,2,1,60,0,0
43666,-66.6666666666667,4,2,1,60,0,0
44112,-50,4,2,1,60,0,0
44202,-66.6666666666667,4,2,1,60,0,0
44648,-50,4,2,1,60,0,0
44738,-66.6666666666667,4,2,1,60,0,0
45362,-50,4,2,1,60,0,0
45452,-66.6666666666667,4,2,1,60,0,0
45898,-50,4,2,1,60,0,0
45988,-66.6666666666667,4,2,1,60,0,0
46433,-50,4,2,1,60,0,0
46523,-66.6666666666667,4,2,1,60,0,0
47683,-50,4,2,1,60,0,0
47773,-66.6666666666667,4,2,1,60,0,0
48219,-50,4,2,1,60,0,0
48309,-66.6666666666667,4,2,1,60,0,0
48755,-50,4,2,1,60,0,0
48845,-66.6666666666667,4,2,1,60,0,0
49291,-50,4,2,1,60,0,0
49381,-66.6666666666667,4,2,1,60,0,0
49826,-50,4,2,1,60,0,0
49916,-66.6666666666667,4,2,1,60,0,0
50362,-50,4,2,1,60,0,0
50452,-66.6666666666667,4,2,1,60,0,0
50541,-50,4,2,1,60,0,0
50631,-66.6666666666667,4,2,1,60,0,0
51612,-50,4,2,1,60,0,0
51702,-66.6666666666667,4,2,1,60,0,0
52148,-50,4,2,1,60,0,0
52238,-66.6666666666667,4,2,1,60,0,0
53398,-50,4,2,1,60,0,0
53488,-66.6666666666667,4,2,1,60,0,0
53933,-50,4,2,1,60,0,0
54023,-66.6666666666667,4,2,1,60,0,0
54469,-50,4,2,1,60,0,0
54559,-66.6666666666667,4,2,1,60,0,0
55005,-66.6666666666667,4,2,1,60,0,0
55064,-133.333333333333,4,2,1,60,0,0
55095,-66.6666666666667,4,2,1,60,0,0
55541,-40,4,2,1,60,0,0
55631,-66.6666666666667,4,2,1,60,0,0
56076,-50,4,2,1,60,0,0
56166,-66.6666666666667,4,2,1,60,0,0
56255,-50,4,2,1,60,0,0
56345,-66.6666666666667,4,2,1,60,0,0
57326,-50,4,2,1,60,0,0
57416,-66.6666666666667,4,2,1,60,0,0
57862,-50,4,2,1,60,0,0
57952,-66.6666666666667,4,2,1,60,0,0
59112,-50,4,2,1,60,0,0
59202,-66.6666666666667,4,2,1,60,0,0
59648,-50,4,2,1,60,0,0
59738,-66.6666666666667,4,2,1,60,0,0
60183,-40,4,2,1,60,0,0
60273,-66.6666666666667,4,2,1,60,0,0
60719,-40,4,2,1,60,0,0
60809,-66.6666666666667,4,2,1,60,0,0
61255,-40,4,2,1,60,0,0
61345,-66.6666666666667,4,2,1,60,0,0
61791,-50,4,2,1,60,0,0
61881,-66.6666666666667,4,2,1,60,0,0
61969,-50,4,2,1,60,0,0
62059,-66.6666666666667,4,2,1,60,0,0
62505,-50,4,2,1,60,0,0
62595,-66.6666666666667,4,2,1,60,0,0
64826,-50,4,2,1,60,0,0
64916,-66.6666666666667,4,2,1,60,0,0
65362,-50,4,2,1,60,0,0
65452,-66.6666666666667,4,2,1,60,0,0
65898,-50,4,2,1,60,0,0
65988,-66.6666666666667,4,2,1,60,0,0
66433,-50,4,2,1,60,0,0
66523,-66.6666666666667,4,2,1,60,0,0
66969,-50,4,2,1,60,0,0
67059,-66.6666666666667,4,2,1,60,0,0
67505,-50,4,2,1,60,0,0
67595,-66.6666666666667,4,2,1,60,0,0
67683,-50,4,2,1,60,0,0
67773,-66.6666666666667,4,2,1,60,0,0
68755,691.64265129683,4,2,1,40,1,0
69273,714.285714285714,4,2,1,40,1,0
69630,670.391061452514,4,2,1,40,1,0
70132,725.075528700906,4,2,1,40,1,0
70675,764.331210191083,4,2,1,40,1,0
71057,679.886685552408,4,2,1,40,1,0
71566,676.056338028169,4,2,1,40,1,0
72073,786.885245901639,4,2,1,40,1,0
72466,707.964601769911,4,2,1,40,1,0
72996,712.166172106825,4,2,1,40,1,0
73530,720.720720720721,4,2,1,40,1,0
73890,705.882352941176,4,2,1,40,1,0
74419,710.059171597633,4,2,1,40,1,0
75306,727.272727272727,4,2,1,40,1,0
75851,703.812316715542,4,2,1,40,1,0
76378,731.70731707317,4,2,1,40,1,0
76743,712.166172106825,4,2,1,40,1,0
77277,738.461538461538,4,2,1,40,1,0
79123,712.166172106825,4,2,1,40,1,0
79835,761.904761904762,4,2,1,40,1,0
80215,668.523676880223,4,2,1,40,1,0
80716,716.417910447761,4,2,1,40,1,0
81074,716.417910447761,4,2,1,40,1,0
81611,648.648648648648,4,2,1,40,1,0
82097,830.449826989619,4,2,1,40,1,0
82512,707.964601769911,4,2,1,40,1,0
83042,718.562874251497,4,2,1,40,1,0
83580,727.272727272727,4,2,1,40,1,0
83943,716.417910447761,4,2,1,40,1,0
84480,703.812316715542,4,2,1,40,1,0
85007,718.562874251497,4,2,1,40,1,0
85366,697.674418604651,4,2,1,40,1,0
85889,670.391061452514,4,2,1,40,1,0
86391,764.331210191083,4,2,1,40,1,0
86773,687.679083094556,4,2,1,40,1,0
88146,650.406504065041,4,2,1,40,1,0
89121,712.166172106825,4,2,1,40,1,0
89477,714.285714285714,4,2,1,40,1,0
91612,714.285714285714,4,2,1,60,1,0
91612,-50,4,2,1,60,0,0
91702,-66.6666666666667,4,2,1,60,0,0
92148,-50,4,2,1,60,0,0
92238,-66.6666666666667,4,2,1,60,0,0
93398,-50,4,2,1,60,0,0
93488,-66.6666666666667,4,2,1,60,0,0
93933,-50,4,2,1,60,0,0
94023,-66.6666666666667,4,2,1,60,0,0
94469,-50,4,2,1,60,0,0
94559,-66.6666666666667,4,2,1,60,0,0
95005,-50,4,2,1,60,0,0
95095,-66.6666666666667,4,2,1,60,0,0
95541,-50,4,2,1,60,0,0
95631,-66.6666666666667,4,2,1,60,0,0
96076,-50,4,2,1,60,0,0
96166,-66.6666666666667,4,2,1,60,0,0
96255,-50,4,2,1,60,0,0
96345,-66.6666666666667,4,2,1,60,0,0
97326,-50,4,2,1,60,0,0
97416,-66.6666666666667,4,2,1,60,0,0
97862,-50,4,2,1,60,0,0
97952,-66.6666666666667,4,2,1,60,0,0
99112,-50,4,2,1,60,0,0
99202,-66.6666666666667,4,2,1,60,0,0
99648,-50,4,2,1,60,0,0
99738,-66.6666666666667,4,2,1,60,0,0
100183,-50,4,2,1,60,0,0
100273,-66.6666666666667,4,2,1,60,0,0
100719,-50,4,2,1,60,0,0
100809,-66.6666666666667,4,2,1,60,0,0
101255,-40,4,2,1,60,0,0
101345,-66.6666666666667,4,2,1,60,0,0
101791,-50,4,2,1,60,0,0
101881,-66.6666666666667,4,2,1,60,0,0
101969,-50,4,2,1,60,0,0
102059,-66.6666666666667,4,2,1,60,0,0
102505,-66.6666666666667,4,2,1,60,0,0
102595,-66.6666666666667,4,2,1,60,0,0
103041,-50,4,2,1,60,0,0
103131,-66.6666666666667,4,2,1,60,0,0
103576,-50,4,2,1,60,0,0
103666,-66.6666666666667,4,2,1,60,0,0
104826,-50,4,2,1,60,0,0
104916,-66.6666666666667,4,2,1,60,0,0
105362,-50,4,2,1,60,0,0
105452,-66.6666666666667,4,2,1,60,0,0
105898,-40,4,2,1,60,0,0
105988,-66.6666666666667,4,2,1,60,0,0
106433,-40,4,2,1,60,0,0
106523,-66.6666666666667,4,2,1,60,0,0
106969,-40,4,2,1,60,0,0
107059,-66.6666666666667,4,2,1,60,0,0
107505,-50,4,2,1,60,0,0
107595,-66.6666666666667,4,2,1,60,0,0
107683,-50,4,2,1,60,0,0
107773,-66.6666666666667,4,2,1,60,0,0
108219,-50,4,2,1,60,0,0
108309,-66.6666666666667,4,2,1,60,0,0
108755,-50,4,2,1,60,0,0
108845,-66.6666666666667,4,2,1,60,0,0
109291,-50,4,2,1,60,0,0
109381,-66.6666666666667,4,2,1,60,0,0
110541,-50,4,2,1,60,0,0
110631,-66.6666666666667,4,2,1,60,0,0
111076,-50,4,2,1,60,0,0
111166,-66.6666666666667,4,2,1,60,0,0
111612,-50,4,2,1,60,0,0
111702,-66.6666666666667,4,2,1,60,0,0
112148,-50,4,2,1,60,0,0
112238,-66.6666666666667,4,2,1,60,0,0
112683,-50,4,2,1,60,0,0
112773,-66.6666666666667,4,2,1,60,0,0
113219,-40,4,2,1,60,0,0
113309,-66.6666666666667,4,2,1,60,0,0
113398,-40,4,2,1,60,0,0
113488,-66.6666666666667,4,2,1,60,0,0
113933,-40,4,2,1,60,0,0
114023,-66.6666666666667,4,2,1,60,0,0
116255,-50,4,2,1,60,0,0
116345,-66.6666666666667,4,2,1,60,0,0
116791,-50,4,2,1,60,0,0
116881,-66.6666666666667,4,2,1,60,0,0
118398,-50,4,2,1,60,0,0
118488,-66.6666666666667,4,2,1,60,0,0
118933,-50,4,2,1,60,0,0
119023,-66.6666666666667,4,2,1,60,0,0
119112,-50,4,2,1,60,0,0
119202,-66.6666666666667,4,2,1,60,0,0
119648,-50,4,2,1,60,0,0
119738,-66.6666666666667,4,2,1,60,0,0
120183,-50,4,2,1,60,0,0
120273,-66.6666666666667,4,2,1,60,0,0
120719,-50,4,2,1,60,0,0
120809,-66.6666666666667,4,2,1,60,0,0
121969,-50,4,2,1,60,0,0
122059,-66.6666666666667,4,2,1,60,0,0
122505,-50,4,2,1,60,0,0
122595,-66.6666666666667,4,2,1,60,0,0
125898,-50,4,2,1,60,0,0
125988,-66.6666666666667,4,2,1,60,0,0
126433,-50,4,2,1,60,0,0
126523,-66.6666666666667,4,2,1,60,0,0
127683,-50,4,2,1,60,0,0
127773,-66.6666666666667,4,2,1,60,0,0
128219,-50,4,2,1,60,0,0
128309,-66.6666666666667,4,2,1,60,0,0
128755,-40,4,2,1,60,0,0
128845,-66.6666666666667,4,2,1,60,0,0
129291,-40,4,2,1,60,0,0
129381,-66.6666666666667,4,2,1,60,0,0
129826,-40,4,2,1,60,0,0
129916,-66.6666666666667,4,2,1,60,0,0
130362,-50,4,2,1,60,0,0
130452,-66.6666666666667,4,2,1,60,0,0
130541,-50,4,2,1,60,0,0
130631,-66.6666666666667,4,2,1,60,0,0
131076,-50,4,2,1,60,0,0
131166,-66.6666666666667,4,2,1,60,0,0
131612,-50,4,2,1,60,0,0
131702,-66.6666666666667,4,2,1,60,0,0
132148,-40,4,2,1,60,0,0
132238,-66.6666666666667,4,2,1,60,0,0
133398,-50,4,2,1,60,0,0
133488,-66.6666666666667,4,2,1,60,0,0
133933,-50,4,2,1,60,0,0
134023,-66.6666666666667,4,2,1,60,0,0
134469,-40,4,2,1,60,0,0
134559,-66.6666666666667,4,2,1,60,0,0
135005,-33.3333333333333,4,2,1,60,0,0
135719,-50,4,2,1,60,0,0
137326,650.406504065041,4,2,1,45,1,0
137326,-100,4,2,1,45,0,0
137813,718.562874251497,4,2,1,45,1,0
138172,727.272727272727,4,2,1,45,1,0
138717,714.285714285714,4,2,1,45,1,0
139252,813.559322033898,4,2,1,45,1,0
139658,853.849437882453,4,2,1,45,1,0
139871,546.697038724374,4,2,1,45,1,0
140144,727.272727272727,4,2,1,45,1,0
140689,677.966101694915,4,2,1,45,1,0
141027,727.272727272727,4,2,1,45,1,0
141572,703.812316715542,4,2,1,45,1,0
142099,674.157303370787,4,2,1,45,1,0
142604,697.674418604651,4,2,1,45,1,0
142778,941.176470588235,4,2,1,45,1,0
143013,703.812316715542,4,2,1,45,1,0
143540,695.652173913043,4,2,1,45,1,0
143887,720.72072072072,4,2,1,45,1,0
144427,685.714285714285,4,2,1,45,1,0
144941,736.196319018405,4,2,1,45,1,0
145861,714.285714285714,4,2,1,45,1,0
146396,699.708454810495,4,2,1,45,1,0
146745,722.89156626506,4,2,1,45,1,0
147287,676.056338028169,4,2,1,45,1,0
147963,821.917808219178,4,2,1,45,1,0
148579,697.674418604651,4,2,1,45,1,0
148755,714.285714285714,4,2,1,70,1,0
148755,-50,4,2,1,70,0,0
148845,-66.6666666666667,4,2,1,70,0,0
149291,-50,4,2,1,70,0,0
149381,-66.6666666666667,4,2,1,70,0,0
150541,-50,4,2,1,70,0,0
150631,-66.6666666666667,4,2,1,70,0,0
151076,-50,4,2,1,70,0,0
151166,-66.6666666666667,4,2,1,70,0,0
151612,-50,4,2,1,70,0,0
151702,-66.6666666666667,4,2,1,70,0,0
152148,-50,4,2,1,70,0,0
152238,-66.6666666666667,4,2,1,70,0,0
152683,-50,4,2,1,70,0,0
152773,-66.6666666666667,4,2,1,70,0,0
153219,-50,4,2,1,70,0,0
153309,-66.6666666666667,4,2,1,70,0,0
153398,-50,4,2,1,70,0,0
153488,-66.6666666666667,4,2,1,70,0,0
153933,-50,4,2,1,70,0,0
154023,-66.6666666666667,4,2,1,70,0,0
154469,-50,4,2,1,70,0,0
154559,-66.6666666666667,4,2,1,70,0,0
155005,-50,4,2,1,70,0,0
155095,-66.6666666666667,4,2,1,70,0,0
156255,-50,4,2,1,70,0,0
156345,-66.6666666666667,4,2,1,70,0,0
156791,-50,4,2,1,70,0,0
156881,-66.6666666666667,4,2,1,70,0,0
157326,-50,4,2,1,70,0,0
157416,-66.6666666666667,4,2,1,70,0,0
157862,-50,4,2,1,70,0,0
157952,-66.6666666666667,4,2,1,70,0,0
158398,-50,4,2,1,70,0,0
158488,-66.6666666666667,4,2,1,70,0,0
158933,-50,4,2,1,70,0,0
159023,-66.6666666666667,4,2,1,70,0,0
159112,-50,4,2,1,70,0,0
159202,-66.6666666666667,4,2,1,70,0,0
160183,-50,4,2,1,65,0,0
160273,-66.6666666666667,4,2,1,65,0,0
160719,-50,4,2,1,65,0,0
160809,-66.6666666666667,4,2,1,65,0,0
161969,-50,4,2,1,65,0,0
162059,-66.6666666666667,4,2,1,65,0,0
162505,-50,4,2,1,65,0,0
162595,-66.6666666666667,4,2,1,65,0,0
163041,-50,4,2,1,65,0,0
163131,-66.6666666666667,4,2,1,65,0,0
163576,-50,4,2,1,65,0,0
163666,-66.6666666666667,4,2,1,65,0,0
164112,-50,4,2,1,65,0,0
164202,-66.6666666666667,4,2,1,65,0,0
164648,-50,4,2,1,65,0,0
164738,-66.6666666666667,4,2,1,65,0,0
164826,-50,4,2,1,65,0,0
164916,-66.6666666666667,4,2,1,65,0,0
165898,-50,4,2,1,65,0,0
165988,-66.6666666666667,4,2,1,65,0,0
166433,-50,4,2,1,65,0,0
166523,-66.6666666666667,4,2,1,65,0,0
167683,-50,4,2,1,65,0,0
167773,-66.6666666666667,4,2,1,65,0,0
168219,-50,4,2,1,65,0,0
168309,-66.6666666666667,4,2,1,65,0,0
168755,-50,4,2,1,65,0,0
168845,-66.6666666666667,4,2,1,65,0,0
169291,-50,4,2,1,65,0,0
169381,-66.6666666666667,4,2,1,65,0,0
169826,-40,4,2,1,65,0,0
169916,-66.6666666666667,4,2,1,65,0,0
170362,-50,4,2,1,65,0,0
170452,-66.6666666666667,4,2,1,65,0,0
170540,-50,4,2,1,65,0,0
170631,-66.6666666666667,4,2,1,65,0,0
171076,-50,4,2,1,65,0,0
171166,-66.6666666666667,4,2,1,65,0,0
171612,-50,4,2,1,65,0,0
171702,-66.6666666666667,4,2,1,65,0,0
172148,-50,4,2,1,65,0,0
172238,-66.6666666666667,4,2,1,65,0,0
173398,-50,4,2,1,65,0,0
173488,-66.6666666666667,4,2,1,65,0,0
173933,-50,4,2,1,65,0,0
174023,-66.6666666666667,4,2,1,65,0,0
174469,-40,4,2,1,65,0,0
174559,-66.6666666666667,4,2,1,65,0,0
175005,-40,4,2,1,65,0,0
175095,-66.6666666666667,4,2,1,65,0,0
175541,-40,4,2,1,65,0,0
175631,-66.6666666666667,4,2,1,65,0,0
176076,-50,4,2,1,65,0,0
176166,-66.6666666666667,4,2,1,65,0,0
176255,-50,4,2,1,65,0,0
176345,-66.6666666666667,4,2,1,65,0,0
176791,-50,4,2,1,65,0,0
176881,-66.6666666666667,4,2,1,65,0,0
177326,-50,4,2,1,65,0,0
177416,-66.6666666666667,4,2,1,65,0,0
177862,-50,4,2,1,65,0,0
177952,-66.6666666666667,4,2,1,65,0,0
179112,-50,4,2,1,65,0,0
179202,-66.6666666666667,4,2,1,65,0,0
179648,-50,4,2,1,65,0,0
179738,-66.6666666666667,4,2,1,65,0,0
180183,-40,4,2,1,65,0,0
180273,-66.6666666666667,4,2,1,65,0,0
180719,-40,4,2,1,65,0,0
180809,-66.6666666666667,4,2,1,65,0,0
181255,-40,4,2,1,65,0,0
181345,-66.6666666666667,4,2,1,65,0,0
181791,-40,4,2,1,65,0,0
181881,-66.6666666666667,4,2,1,65,0,0
181969,-40,4,2,1,65,0,0
182059,-66.6666666666667,4,2,1,65,0,0
182505,-40,4,2,1,65,0,0
182595,-66.6666666666667,4,2,1,65,0,0
183039,679.886685552408,4,2,1,50,1,0
183041,-66.6666666666667,4,2,1,50,0,0
183548,729.483282674772,4,2,1,50,1,0
183912,465.116279069767,4,2,1,50,1,0
184144,776.497994046849,4,2,1,50,1,0
184532,641.711229946524,4,2,1,50,1,0
184852,469.667318982387,4,2,1,50,1,0
185086,586.79706601467,4,2,1,50,1,0
185379,754.716981132075,4,2,1,50,1,0
185756,836.236933797909,4,2,1,50,1,0
185965,695.652173913044,4,2,1,50,1,0
186312,695.652173913043,4,2,1,50,1,0
186485,722.89156626506,4,2,1,50,1,0
186665,776.497994046849,4,2,1,50,1,0
186859,604.534005037783,4,2,1,50,1,0
187161,589.813913710224,4,2,1,50,1,0
187455,589.680589680589,4,2,1,50,1,0
187749,481.05061454216,4,2,1,50,1,0
187989,568.720379146919,4,2,1,50,1,0
188273,641.711229946524,4,2,1,50,1,0
188755,714.285714285714,4,2,1,65,1,0
188755,-50,4,2,1,65,0,0
188845,-66.6666666666667,4,2,1,65,0,0
189291,-50,4,2,1,65,0,0
189381,-66.6666666666667,4,2,1,65,0,0
190541,-50,4,2,1,65,0,0
190631,-66.6666666666667,4,2,1,65,0,0
191076,-50,4,2,1,65,0,0
191166,-66.6666666666667,4,2,1,65,0,0
191612,-50,4,2,1,65,0,0
191702,-66.6666666666667,4,2,1,65,0,0
192148,-50,4,2,1,65,0,0
192238,-66.6666666666667,4,2,1,65,0,0
192683,-40,4,2,1,65,0,0
192773,-66.6666666666667,4,2,1,65,0,0
193219,-50,4,2,1,65,0,0
193309,-66.6666666666667,4,2,1,65,0,0
193398,-50,4,2,1,65,0,0
193488,-66.6666666666667,4,2,1,65,0,0
193933,-50,4,2,1,65,0,0
194023,-66.6666666666667,4,2,1,65,0,0
194469,-50,4,2,1,65,0,0
194559,-66.6666666666667,4,2,1,65,0,0
195005,-50,4,2,1,65,0,0
195095,-66.6666666666667,4,2,1,65,0,0
195541,-55.5555555555556,4,2,1,65,0,0
196076,-66.6666666666667,4,2,1,65,0,0
196255,-50,4,2,1,65,0,0
196345,-66.6666666666667,4,2,1,65,0,0
196791,-50,4,2,1,65,0,0
196881,-66.6666666666667,4,2,1,65,0,0
197326,-50,4,2,1,65,0,0
197416,-66.6666666666667,4,2,1,65,0,0
197862,-50,4,2,1,65,0,0
197952,-66.6666666666667,4,2,1,65,0,0
198398,-50,4,2,1,65,0,0
198488,-66.6666666666667,4,2,1,65,0,0
198933,-50,4,2,1,65,0,0
199023,-66.6666666666667,4,2,1,65,0,0
199112,-50,4,2,1,65,0,0
199202,-66.6666666666667,4,2,1,65,0,0
199648,-50,4,2,1,65,0,0
199738,-66.6666666666667,4,2,1,65,0,0
200183,-50,4,2,1,65,0,0
200273,-66.6666666666667,4,2,1,65,0,0
200719,-50,4,2,1,65,0,0
200809,-66.6666666666667,4,2,1,65,0,0
201969,-50,4,2,1,65,0,0
202059,-66.6666666666667,4,2,1,65,0,0
202505,-50,4,2,1,65,0,0
202595,-66.6666666666667,4,2,1,65,0,0
203041,-50,4,2,1,65,0,0
203131,-66.6666666666667,4,2,1,65,0,0
203576,-50,4,2,1,65,0,0
203666,-66.6666666666667,4,2,1,65,0,0
205898,-33.3333333333333,4,2,1,70,0,0
205987,-100,4,2,1,70,0,0
206433,-33.3333333333333,4,2,1,70,0,0
206522,-50,4,2,1,70,0,0
207683,-33.3333333333333,4,2,1,70,0,0
207772,-50,4,2,1,70,0,0
208219,-33.3333333333333,4,2,1,70,0,0
208308,-50,4,2,1,70,0,0
208755,-33.3333333333333,4,2,1,70,0,0
208844,-50,4,2,1,70,0,0
209291,-33.3333333333333,4,2,1,70,0,0
209380,-50,4,2,1,70,0,0
209826,-33.3333333333333,4,2,1,70,0,0
209915,-50,4,2,1,70,0,0
210362,-33.3333333333333,4,2,1,70,0,0
210451,-50,4,2,1,70,0,0
210541,-33.3333333333333,4,2,1,70,0,0
210630,-50,4,2,1,70,0,0
211076,-33.3333333333333,4,2,1,70,0,0
211165,-50,4,2,1,70,0,0
211612,-33.3333333333333,4,2,1,70,0,0
211701,-50,4,2,1,70,0,0
212148,-33.3333333333333,4,2,1,70,0,0
212237,-50,4,2,1,70,0,0
213398,-33.3333333333333,4,2,1,70,0,0
213487,-50,4,2,1,70,0,0
213933,-33.3333333333333,4,2,1,70,0,0
214022,-50,4,2,1,70,0,0
214469,-33.3333333333333,4,2,1,70,0,0
214558,-50,4,2,1,70,0,0
215005,-33.3333333333333,4,2,1,70,0,0
215094,-50,4,2,1,70,0,0
215541,-28.5714285714286,4,2,1,70,0,0
215630,-50,4,2,1,70,0,0
216076,-33.3333333333333,4,2,1,70,0,0
216165,-50,4,2,1,70,0,0
216255,-33.3333333333333,4,2,1,70,0,0
216344,-50,4,2,1,70,0,0
216791,-33.3333333333333,4,2,1,70,0,0
216880,-50,4,2,1,70,0,0
217326,-50,4,2,1,70,0,0
217415,-66.6666666666667,4,2,1,70,0,0
228755,-66.6666666666667,4,2,1,35,0,0
234469,-66.6666666666667,4,2,1,17,0,0
240183,-66.6666666666667,4,2,1,5,0,0

[Colours]
Combo1 : 75,0,128
Combo2 : 163,59,236
Combo3 : 200,110,34
Combo4 : 209,167,131

[HitObjects]
256,192,17326,12,0,22683,0:0:0:0:
64,32,23041,22,0,L|153:21,1,62.4999976158143,12|0,3:0|0:0,0:0:0:0:
239,17,23219,1,0,0:0:0:0:
64,32,23398,1,2,2:0:0:0:
63,42,23487,1,0,0:0:0:0:
61,52,23576,6,0,L|53:114,1,62.4999976158143,12|0,3:0|0:0,0:0:0:0:
3,194,23755,2,0,P|76:203|133:163,2,140.625,8|2|2,2:0|2:0|2:0,0:0:0:0:
145,88,24469,2,0,P|193:110|210:200,1,140.625,2|2,2:0|2:0,0:0:0:0:
209,197,24826,38,0,L|352:214,1,124.999995231629,12|2,3:0|2:0,0:0:0:0:
456,231,25183,1,8,2:0:0:0:
302,136,25362,6,0,L|331:383,1,249.999990463257,12|0,3:0|0:0,0:0:0:0:
35,351,25898,38,0,L|220:326,1,187.499992847443,12|0,3:0|0:0,0:0:0:0:
233,324,26255,1,2,2:0:0:0:
467,147,26433,6,0,L|404:139,1,62.4999976158143,12|0,3:0|0:0,0:0:0:0:
302,136,26612,1,8,2:0:0:0:
192,0,26791,1,2,2:0:0:0:
91,96,26969,38,0,L|231:79,1,124.999995231629,12|2,3:0|2:0,0:0:0:0:
368,73,27326,1,2,2:0:0:0:
302,136,27505,6,0,L|290:211,1,62.4999976158143,12|0,3:0|0:0,0:0:0:0:
248,271,27683,38,0,L|260:346,1,62.4999976158143,12|0,3:0|0:0,0:0:0:0:
339,372,27862,1,8,3:0:0:0:
155,256,28041,1,8,2:0:0:0:
506,303,28219,6,0,L|256:332,1,249.999990463257,12|0,3:0|0:0,0:0:0:0:
376,173,28755,38,0,L|361:297,1,112.499992275238,12|2,3:0|2:0,0:0:0:0:
448,128,29112,1,2,2:0:0:0:
312,83,29291,6,0,L|385:74,1,62.4999976158143,12|0,3:0|0:0,0:0:0:0:
501,61,29469,1,8,2:0:0:0:
332,0,29648,1,2,2:0:0:0:
224,64,29826,2,0,B|212:118|236:158|266:147|294:185|280:237,1,187.499992847443,2|0,2:0|0:0,0:0:0:0:
274,246,30183,2,0,B|258:264|251:284|251:284|246:266|220:244,1,93.7500000000001,2|2,2:0|2:0,0:0:0:0:
15,78,30541,38,0,L|139:92,1,124.999995231629,12|2,3:0|2:0,0:0:0:0:
349,117,30898,1,8,2:0:0:0:
33,262,31076,6,0,L|313:228,1,249.999990463257,12|2,3:0|2:0,0:0:0:0:
448,128,31612,38,0,L|433:252,1,83.333330154419,12|0,3:0|0:0,0:0:0:0:
288,293,31850,6,0,L|280:224,1,62.5,2|0,2:0|0:0,0:0:0:0:
129,272,32088,1,2,2:0:0:0:
127,291,32148,38,0,L|119:352,1,56.2499961376192,12|0,3:0|0:0,0:0:0:0:
189,382,32326,1,8,2:0:0:0:
33,262,32505,1,2,2:0:0:0:
71,180,32683,6,0,B|81:178|81:178|87:184|90:176|90:176|115:170|115:170|169:177|169:177|190:170|190:170|196:164|204:167|204:167|228:163,1,156.249994039536,2|2,1:0|2:0,0:0:0:0:
391,140,33041,1,2,2:0:0:0:
288,0,33219,38,0,L|280:62,1,62.4999976158143,12|0,3:0|0:0,0:0:0:0:
383,153,33398,6,0,L|375:90,1,62.4999976158143,12|0,3:0|0:0,0:0:0:0:
270,221,33576,1,8,3:0:0:0:
389,327,33755,1,8,2:0:0:0:
512,288,33933,38,0,L|262:316,1,249.999990463257,12|2,3:0|2:0,0:0:0:0:
140,192,34469,6,0,L|273:207,1,124.999995231629,12|0,3:0|0:0,0:0:0:0:
174,350,34826,1,0,0:0:0:0:
96,384,35005,1,12,3:0:0:0:
41,244,35183,2,0,P|81:258|113:315,2,93.7500000000001,8|2|2,2:0|2:0|2:0,0:0:0:0:
24,67,35719,2,0,B|-27:136|66:189|123:154|148:104|148:104,1,212.499995946884,2|2,2:0|2:0,0:0:0:0:
400,8,36255,38,0,L|265:23,1,124.999995231629,12|0,3:0|0:0,0:0:0:0:
148,26,36612,2,0,P|176:30|201:42,1,46.875,8|0,2:0|0:0,0:0:0:0:
209,65,36791,6,0,L|191:213,1,124.999995231629,12|2,3:0|2:0,0:0:0:0:
181,363,37148,1,2,2:0:0:0:
473,177,37326,38,0,L|162:212,1,312.499988079071,12|2,3:0|2:0,0:0:0:0:
0,266,37862,6,0,L|92:276,1,78.1249970197678,12|0,3:0|0:0,0:0:0:0:
204,286,38041,2,0,P|222:271|234:251,1,46.875,8|0,2:0|0:0,0:0:0:0:
101,159,38219,1,2,2:0:0:0:
107,384,38398,38,0,L|142:73,1,312.499988079071,12|2,3:0|2:0,0:0:0:0:
15,0,38933,6,0,L|84:18,1,62.4999976158143,12|0,3:0|0:0,0:0:0:0:
151,86,39112,38,0,L|211:70,1,62.4999976158143,12|0,3:0|0:0,0:0:0:0:
264,9,39291,1,8,3:0:0:0:
306,170,39469,1,8,2:0:0:0:
512,201,39648,6,0,L|386:215,1,124.999995231629,12|2,3:0|2:0,0:0:0:0:
268,266,40005,2,0,P|298:274|318:293,1,46.875,2|0,2:0|0:0,0:0:0:0:
320,295,40183,38,0,L|305:168,1,124.999995231629,12|0,3:0|0:0,0:0:0:0:
258,348,40541,1,0,0:0:0:0:
66,188,40719,6,0,L|129:195,1,62.4999976158143,12|0,3:0|0:0,0:0:0:0:
142,184,40898,2,0,P|137:143|97:105,2,93.7500000000001,8|2|2,2:0|2:0|2:0,0:0:0:0:
15,282,41433,2,0,P|92:288|134:380,1,187.5,2|2,2:0|2:0,0:0:0:0:
354,267,41969,38,0,L|189:291,1,124.999995231629,12|2,3:0|2:0,0:0:0:0:
94,305,42326,1,8,2:0:0:0:
418,379,42505,6,0,L|294:360,1,124.999995231629,12|2,3:0|2:0,0:0:0:0:
230,285,42862,2,0,P|253:224|271:214,1,46.875,2|0,2:0|0:0,0:0:0:0:
251,221,43041,38,0,L|232:97,1,124.999995231629,12|2,3:0|2:0,0:0:0:0:
167,46,43398,2,0,P|151:89|161:137,1,93.7500000000001,2|12,2:0|3:0,0:0:0:0:
296,144,43755,2,0,P|312:101|302:53,1,93.7500000000001,8|2,2:0|2:0,0:0:0:0:
242,10,44112,1,12,3:0:0:0:
237,16,44291,1,2,2:0:0:0:
384,96,44469,5,2,2:0:0:0:
512,0,44648,1,12,3:0:0:0:
465,148,44826,2,0,L|437:238,1,93.7500000000001,12|8,3:0|3:0,0:0:0:0:
296,304,45183,37,8,2:0:0:0:
375,99,45361,1,12,3:0:0:0:
183,78,45541,2,2,L|211:167,1,93.7500000000001,2|2,2:0|2:0,2:0:0:0:
295,317,45898,6,0,L|357:324,1,62.4999976158143,12|0,3:0|0:0,0:0:0:0:
452,343,46076,1,0,0:0:0:0:
295,317,46255,1,0,0:0:0:0:
294,335,46344,1,0,0:0:0:0:
292,354,46433,38,0,L|229:361,1,62.4999976158143,12|0,3:0|0:0,0:0:0:0:
94,384,46612,2,0,P|65:350|69:238,2,140.625,8|0|0,2:0|0:0|0:0,0:0:0:0:
143,207,47326,2,0,P|84:169|15:174,1,140.625,2|2,2:0|2:0,0:0:0:0:
2,186,47683,6,0,L|132:179,1,124.999995231629,12|2,3:0|2:0,0:0:0:0:
282,172,48041,1,8,2:0:0:0:
164,0,48219,38,0,L|151:249,1,249.999990463257,12|0,3:0|0:0,0:0:0:0:
450,73,48755,6,0,L|260:82,1,187.499992847443,12|0,3:0|0:0,0:0:0:0:
247,84,49112,1,2,2:0:0:0:
53,7,49291,38,0,L|48:100,1,62.4999976158143,12|0,3:0|0:0,0:0:0:0:
42,161,49469,1,8,2:0:0:0:
187,19,49648,1,2,2:0:0:0:
256,224,49826,6,0,L|263:373,1,124.999995231629,12|2,3:0|2:0,0:0:0:0:
170,289,50183,1,2,2:0:0:0:
323,170,50362,38,0,L|410:154,1,62.4999976158143,12|0,3:0|0:0,0:0:0:0:
384,288,50541,6,0,L|445:299,1,62.4999976158143,12|0,3:0|0:0,0:0:0:0:
480,224,50719,1,8,3:0:0:0:
507,372,50898,1,8,2:0:0:0:
510,384,51076,1,2,2:0:0:0:
250,348,51612,38,0,L|255:220,1,124.999995231629,12|2,3:0|2:0,0:0:0:0:
263,108,51969,1,2,2:0:0:0:
167,170,52148,6,0,L|164:232,1,62.4999976158143,12|0,3:0|0:0,0:0:0:0:
59,237,52326,2,0,P|135:254|169:310,1,140.625,8|2,2:0|2:0,0:0:0:0:
166,321,52683,2,0,P|124:314|69:349,1,93.7500000000001
4,168,53041,2,0,B|-6:133|9:88|37:114|54:69|48:28,1,140.625,2|0,2:0|0:0,0:0:0:0:
44,28,53398,38,0,L|168:33,1,124.999995231629,12|2,3:0|2:0,0:0:0:0:
315,43,53755,1,8,2:0:0:0:
128,160,53933,6,0,L|252:154,1,124.999995231629,12|2,3:0|2:0,0:0:0:0:
414,145,54291,2,0,P|383:170|363:196,1,46.875,2|0,2:0|0:0,0:0:0:0:
367,187,54469,38,0,L|360:321,1,83.333330154419,12|0,3:0|0:0,0:0:0:0:
463,384,54707,6,0,L|468:300,1,62.5,2|0,2:0|0:0,0:0:0:0:
274,274,54945,1,2,2:0:0:0:
273,285,55005,38,0,L|268:365,1,46.875,12|0,3:0|0:0,0:0:0:0:
178,366,55183,1,8,2:0:0:0:
276,192,55362,1,2,2:0:0:0:
159,64,55541,6,0,B|160:74|160:74|155:80|163:83|163:83|168:108|168:108|162:162|162:162|168:183|168:183|175:189|172:197|172:197|176:221,1,156.249994039536,2|2,1:0|2:0,0:0:0:0:
182,350,55898,1,2,2:0:0:0:
320,256,56076,38,0,L|257:259,1,62.4999976158143,12|0,3:0|0:0,0:0:0:0:
112,210,56255,6,0,L|175:214,1,62.4999976158143,12|0,3:0|0:0,0:0:0:0:
251,267,56433,1,8,3:0:0:0:
308,163,56612,2,0,B|352:164|366:172|379:208|419:249,1,140.625,8|0,2:0|0:0,0:0:0:0:
414,250,56969,2,0,B|424:271|424:271|414:296|402:269|417:305|417:305|407:335,1,93.7500000000001,2|2,2:0|2:0,0:0:0:0:
224,137,57326,38,0,L|473:124,1,249.999990463257,12|0,3:0|0:0,0:0:0:0:
311,0,57862,6,0,L|305:105,1,62.4999976158143,12|0,3:0|0:0,0:0:0:0:
302,193,58041,1,8,2:0:0:0:
211,136,58219,1,2,2:0:0:0:
158,256,58398,1,2,2:0:0:0:
35,204,58576,2,0,B|18:149|37:102|60:131|86:82|66:28,1,187.5,2|2,2:0|2:0,0:0:0:0:
204,11,59112,38,0,L|210:135,1,124.999995231629,12|0,3:0|0:0,0:0:0:0:
219,317,59469,1,8,2:0:0:0:
320,96,59648,6,0,L|313:220,1,124.999995231629,12|2,3:0|2:0,0:0:0:0:
112,310,60005,1,2,2:0:0:0:
320,352,60183,38,0,L|7:334,1,312.499988079071,12|2,3:0|2:0,0:0:0:0:
97,138,60719,6,0,L|102:241,1,78.1249970197678,12|0,3:0|0:0,0:0:0:0:
112,310,60898,2,0,P|130:326|161:329,1,46.875,8|0,2:0|0:0,0:0:0:0:
235,309,61076,1,2,2:0:0:0:
479,330,61255,38,0,L|322:338,1,156.249994039536,12|2,3:0|2:0,0:0:0:0:
272,231,61612,1,2,2:0:0:0:
356,112,61791,6,0,L|344:197,1,62.4999976158143,12|0,3:0|0:0,0:0:0:0:
468,233,61969,38,0,L|460:172,1,62.4999976158143,12|0,3:0|0:0,0:0:0:0:
440,86,62148,1,8,3:0:0:0:
383,254,62326,1,8,2:0:0:0:
275,127,62505,6,0,L|118:118,1,124.999995231629,12|2,3:0|2:0,0:0:0:0:
0,112,62862,1,2,2:0:0:0:
96,288,63755,38,0,P|137:289|179:319,2,93.7500000000001,8|2|2,2:0|2:0|2:0,0:0:0:0:
85,382,64291,2,0,B|139:398|183:355|154:354|187:310|255:321,1,187.5,2|2,2:0|2:0,0:0:0:0:
342,364,64826,6,0,L|350:207,1,124.999995231629,12|2,3:0|2:0,0:0:0:0:
352,130,65183,1,8,2:0:0:0:
250,320,65362,38,0,L|242:163,1,124.999995231629,12|2,3:0|2:0,0:0:0:0:
236,74,65719,1,2,2:0:0:0:
98,226,65898,6,0,L|347:238,1,249.999990463257,12|2,3:0|2:0,0:0:0:0:
467,148,66433,38,0,L|404:151,1,62.4999976158143,12|0,3:0|0:0,0:0:0:0:
315,156,66612,2,0,P|321:109|338:86,1,46.875,8|0,2:0|0:0,0:0:0:0:
365,49,66791,1,2,2:0:0:0:
467,148,66969,6,0,L|458:314,1,124.999995231629,12|2,3:0|2:0,0:0:0:0:
457,377,67326,1,2,2:0:0:0:
333,343,67505,37,12,3:0:0:0:
352,224,67683,5,12,3:0:0:0:
192,384,67862,1,8,3:0:0:0:
96,288,68041,1,8,2:0:0:0:
197,192,68219,37,12,3:0:0:0:
104,197,68397,1,2,2:0:0:0:
266,260,68576,1,2,2:0:0:0:
51,113,68755,5,2,2:0:0:0:
160,64,69273,37,2,2:0:0:0:
96,0,69630,5,2,2:0:0:0:
320,128,70132,37,2,2:0:0:0:
288,224,70675,5,2,2:0:0:0:
355,264,71057,37,2,2:0:0:0:
448,64,71566,5,2,2:0:0:0:
352,0,72073,37,2,2:0:0:0:
288,64,72466,5,2,2:0:0:0:
192,224,72996,37,2,2:0:0:0:
229,344,73530,5,2,2:0:0:0:
160,384,73890,37,2,2:0:0:0:
384,320,74419,5,2,2:0:0:0:
320,160,74951,37,2,2:0:0:0:
384,96,75306,5,2,2:0:0:0:
160,128,75851,37,2,2:0:0:0:
96,256,76378,5,2,2:0:0:0:
160,320,76743,37,2,2:0:0:0:
252,312,77277,5,2,2:0:0:0:
50,190,79123,37,2,2:0:0:0:
166,90,79835,5,2,2:0:0:0:
416,64,80215,37,2,2:0:0:0:
352,160,80716,5,2,2:0:0:0:
224,64,81074,37,2,2:0:0:0:
160,224,81611,5,2,2:0:0:0:
224,320,82097,37,2,2:0:0:0:
320,288,82512,5,2,2:0:0:0:
416,352,83042,37,2,2:0:0:0:
480,256,83580,5,2,2:0:0:0:
416,192,83943,37,2,2:0:0:0:
480,32,84480,5,2,2:0:0:0:
288,128,85007,37,2,2:0:0:0:
224,32,85366,5,2,2:0:0:0:
32,192,85889,37,2,2:0:0:0:
128,128,86391,5,2,2:0:0:0:
64,64,86773,37,2,2:0:0:0:
64,288,87288,5,2,2:0:0:0:
160,352,87804,37,2,2:0:0:0:
224,320,88146,5,2,2:0:0:0:
512,384,89121,37,2,2:0:0:0:
256,192,89477,12,0,91262,0:0:0:0:
96,320,91612,6,0,L|375:286,1,249.999990463257,12|2,3:0|2:0,0:0:0:0:
448,192,92148,38,0,L|351:180,1,62.4999976158143,12|0,3:0|0:0,0:0:0:0:
288,165,92326,1,8,2:0:0:0:
511,84,92505,2,0,P|426:99|394:220,1,187.5,2|2,2:0|2:0,0:0:0:0:
219,107,93041,2,0,P|268:78|324:84,1,93.7500000000001,2|0,2:0|0:0,0:0:0:0:
190,356,93398,6,0,L|223:76,1,249.999990463257,12|8,3:0|2:0,0:0:0:0:
32,0,93933,38,0,L|61:248,1,249.999990463257,12|2,3:0|2:0,0:0:0:0:
384,0,94469,6,0,L|135:29,1,249.999990463257,12|2,3:0|2:0,0:0:0:0:
0,160,95005,38,0,L|147:177,1,124.999995231629,12|8,3:0|2:0,0:0:0:0:
171,368,95362,1,2,2:0:0:0:
480,288,95541,6,0,L|231:317,1,249.999990463257,12|2,3:0|2:0,0:0:0:0:
124,174,96076,38,0,L|186:181,1,62.4999976158143,12|0,3:0|0:0,0:0:0:0:
352,96,96255,6,0,L|289:103,1,62.4999976158143,12|0,3:0|0:0,0:0:0:0:
256,32,96433,1,8,3:0:0:0:
256,21,96612,1,8,2:0:0:0:
416,384,97326,38,0,L|445:135,1,249.999990463257,12|0,3:0|0:0,0:0:0:0:
256,21,97862,6,0,L|272:165,1,124.999995231629,12|8,3:0|2:0,0:0:0:0:
133,196,98219,2,0,P|183:186|222:219,1,93.7500000000001,2|2,2:0|2:0,0:0:0:0:
254,286,98576,1,0,0:0:0:0:
43,232,98755,2,0,P|43:152|100:102,1,140.625,2|0,2:0|0:0,0:0:0:0:
98,105,99112,38,0,L|160:97,1,62.4999976158143,12|0,3:0|0:0,0:0:0:0:
258,87,99291,2,0,P|304:78|347:26,1,93.7500000000001,2|8,2:0|2:0,0:0:0:0:
111,9,99648,6,0,L|137:233,1,187.499992847443,12|0,3:0|0:0,0:0:0:0:
135,204,100005,1,0,0:0:0:0:
352,128,100183,38,0,L|319:406,1,249.999990463257,12|0,3:0|0:0,0:0:0:0:
64,320,100719,6,0,L|312:291,1,249.999990463257,12|0,3:0|0:0,0:0:0:0:
485,116,101255,38,0,B|465:114|465:114|453:124|447:108|447:108|397:98|397:98|289:110|289:110|247:98|247:98|235:84|219:90|219:90|171:82,1,312.499988079071,2|0,1:0|0:0,0:0:0:0:
32,64,101791,6,0,L|41:151,1,62.4999976158143,12|0,3:0|0:0,0:0:0:0:
128,160,101969,38,0,L|119:247,1,62.4999976158143,12|0,3:0|0:0,0:0:0:0:
0,256,102148,1,8,3:0:0:0:
32,129,102326,1,8,2:0:0:0:
192,288,102505,6,0,L|206:412,2,93.7500000000001,12|0|0,3:0|0:0|0:0,0:0:0:0:
128,160,103041,38,0,L|376:188,1,249.999990463257,12|0,3:0|0:0,0:0:0:0:
512,0,103576,6,0,L|346:19,1,124.999995231629,12|8,3:0|2:0,0:0:0:0:
228,3,103933,2,0,P|286:31|315:89,1,93.7500000000001,2|0,2:0|0:0,0:0:0:0:
261,142,104291,1,0,0:0:0:0:
471,112,104469,2,0,P|399:132|376:188,1,140.625,2|0,2:0|0:0,0:0:0:0:
377,207,104826,38,0,L|391:331,1,124.999995231629,12|0,3:0|0:0,0:0:0:0:
512,384,105183,1,8,2:0:0:0:
459,196,105362,6,0,L|210:224,1,249.999990463257,12|0,3:0|0:0,0:0:0:0:
96,384,105898,38,0,L|132:67,1,312.499988079071,12|0,3:0|0:0,0:0:0:0:
0,170,106433,6,0,L|171:151,1,156.249994039536,12|8,3:0|2:0,0:0:0:0:
256,0,106791,2,0,P|196:23|182:39,1,46.875,2|0,2:0|0:0,0:0:0:0:
197,32,106969,38,0,L|352:49,1,156.249994039536,12|0,3:0|0:0,0:0:0:0:
352,160,107326,2,0,P|309:144|287:110,1,46.875,2|0,2:0|0:0,0:0:0:0:
303,135,107505,6,0,B|317:158|300:183|297:201|309:202|311:248,1,62.4999976158143,12|0,3:0|0:0,0:0:0:0:
416,224,107683,38,0,B|405:252|420:263|420:263|408:337,1,62.4999976158143,12|0,3:0|0:0,0:0:0:0:
349,352,107862,1,8,3:0:0:0:
495,297,108041,1,8,2:0:0:0:
256,320,108219,6,0,B|205:348|186:346|186:346|144:327|166:293|143:277|143:277|131:278|131:278|100:271|48:291,1,249.999990463257,12|0,3:0|0:0,0:0:0:0:
53,111,108755,38,0,L|25:362,1,249.999990463257,12|0,3:0|0:0,0:0:0:0:
173,264,109291,6,0,L|155:107,1,124.999995231629,12|8,3:0|2:0,0:0:0:0:
125,43,109648,2,0,P|77:64|54:117,1,93.7500000000001,2|0,2:0|0:0,0:0:0:0:
119,206,110005,1,0,0:0:0:0:
234,92,110183,2,0,P|278:108|311:198,1,140.625,2|0,2:0|0:0,0:0:0:0:
307,202,110541,38,0,L|467:184,1,124.999995231629,12|2,3:0|2:0,0:0:0:0:
450,74,110898,1,8,2:0:0:0:
224,288,111076,6,0,L|490:318,1,249.999990463257,12|0,3:0|0:0,0:0:0:0:
333,167,111612,38,0,L|137:189,1,187.499992847443,12|0,3:0|0:0,0:0:0:0:
132,191,111969,1,2,2:0:0:0:
192,288,112326,5,8,2:0:0:0:
256,224,112683,37,12,3:0:0:0:
120,46,113219,5,12,3:0:0:0:
128,64,113398,37,12,3:0:0:0:
277,330,113933,5,12,3:0:0:0:
286,320,114112,37,2,2:0:0:0:
448,64,114469,5,2,2:0:0:0:
296,139,115183,38,0,P|269:93|275:39,1,93.7500000000001,8|2,2:0|2:0,0:0:0:0:
326,0,115541,1,2,2:0:0:0:
298,220,115719,2,0,B|260:223|230:206|239:184|209:165|171:177,1,140.625,2|0,2:0|0:0,0:0:0:0:
161,184,116076,1,8,2:0:0:0:
197,384,116255,6,0,L|180:229,2,124.999995231629,12|2|2,3:0|2:0|2:0,0:0:0:0:
3,249,116791,38,0,L|213:272,1,187.499992847443,12|0,3:0|0:0,0:0:0:0:
197,279,117148,1,2,2:0:0:0:
82,15,118041,6,0,P|40:40|22:85,1,93.7500000000001,8|2,2:0|2:0,0:0:0:0:
338,115,118398,38,0,L|57:146,1,249.999990463257,12|0,3:0|0:0,0:0:0:0:
243,82,118933,6,0,L|235:164,1,62.4999976158143,12|0,3:0|0:0,0:0:0:0:
422,222,119112,38,0,L|416:160,1,62.4999976158143,12|0,3:0|0:0,0:0:0:0:
405,31,119291,1,8,3:0:0:0:
251,73,119469,1,8,2:0:0:0:
297,208,119648,6,0,L|421:222,1,124.999995231629,12|2,3:0|2:0,0:0:0:0:
507,232,120005,1,2,2:0:0:0:
236,144,120183,38,0,L|257:333,1,187.499992847443,12|0,3:0|0:0,0:0:0:0:
256,345,120541,2,0,P|222:337|199:308,1,46.875,2|0,2:0|0:0,0:0:0:0:
196,314,120719,6,0,L|103:324,1,62.4999976158143,12|0,3:0|0:0,0:0:0:0:
31,334,120898,2,0,P|36:286|66:251,2,93.7500000000001,8|2|2,2:0|2:0|2:0,0:0:0:0:
149,226,121433,2,0,P|82:171|-1:195,1,140.625,2|0,2:0|0:0,0:0:0:0:
24,183,121791,1,0,0:0:0:0:
352,96,121969,38,0,L|166:116,1,187.499992847443,12|0,3:0|0:0,0:0:0:0:
151,121,122326,1,8,2:0:0:0:
448,256,122505,6,0,L|262:236,1,187.499992847443,12|0,3:0|0:0,0:0:0:0:
247,232,122862,1,8,2:0:0:0:
256,192,123755,12,0,125719,0:0:0:0:
415,61,125898,38,0,L|426:167,1,62.4999976158143,12|0,3:0|0:0,0:0:0:0:
430,218,126076,1,2,2:0:0:0:
412,44,126255,1,2,2:0:0:0:
338,181,126433,6,0,L|247:171,1,62.4999976158143,12|0,3:0|0:0,0:0:0:0:
197,167,126612,1,8,2:0:0:0:
118,6,126791,2,0,P|161:39|163:86,1,93.7500000000001,2|2,2:0|2:0,0:0:0:0:
48,100,127148,2,0,P|133:96|199:175,1,187.5,2|0,2:0|0:0,0:0:0:0:
41,381,127683,38,0,L|62:177,1,187.499992847443,12|0,3:0|0:0,0:0:0:0:
65,183,128041,2,0,P|89:172|124:188,1,46.875,8|0,2:0|0:0,0:0:0:0:
270,258,128219,6,0,L|18:285,1,249.999990463257,12|0,3:0|0:0,0:0:0:0:
313,176,128755,38,0,L|292:377,1,156.249994039536,12|2,3:0|2:0,0:0:0:0:
383,374,129112,1,2,2:0:0:0:
499,239,129291,6,0,L|384:251,1,78.1249970197678,12|0,3:0|0:0,0:0:0:0:
272,258,129469,2,0,P|237:220|227:158,1,93.7500000000001,8|0,2:0|0:0,0:0:0:0:
384,0,129826,38,0,L|405:201,1,156.249994039536,12|2,3:0|2:0,0:0:0:0:
352,320,130183,1,2,2:0:0:0:
448,384,130362,6,0,B|442:367|447:350|447:350|457:336|458:288,1,62.4999976158143,12|0,3:0|0:0,0:0:0:0:
265,270,130541,38,0,B|268:286|268:286|278:298|261:316|271:332,1,62.4999976158143,12|0,3:0|0:0,0:0:0:0:
421,247,130719,1,2,2:0:0:0:
269,348,130898,1,8,2:0:0:0:
163,218,131076,6,0,B|182:227|182:227|217:221|217:221|268:237|268:237|299:232|334:234|334:234|370:245|412:245,1,249.999990463257,12|2,3:0|2:0,0:0:0:0:
244,67,131612,38,0,L|262:235,1,124.999995231629,12|2,3:0|2:0,0:0:0:0:
96,256,131969,1,2,2:0:0:0:
27,138,132148,6,0,L|110:147,1,78.1249970197678,12|0,3:0|0:0,0:0:0:0:
264,164,132326,2,0,P|320:147|355:102,1,93.7500000000001,8|0,2:0|0:0,0:0:0:0:
431,84,132683,1,2,2:0:0:0:
355,35,132861,1,2,2:0:0:0:
352,224,133041,1,2,2:0:0:0:
506,136,133219,1,2,2:0:0:0:
253,65,133398,38,0,L|230:278,1,187.499992847443,12|0,3:0|0:0,0:0:0:0:
232,263,133755,1,8,2:0:0:0:
7,133,133933,6,0,L|256:160,1,249.999990463257,12|0,3:0|0:0,0:0:0:0:
480,0,134469,38,0,L|324:17,1,156.249994039536,12|2,3:0|2:0,0:0:0:0:
128,32,134826,1,2,2:0:0:0:
354,174,135005,6,0,B|349:157|363:145|382:147|406:157|415:176|415:192|378:222|338:233|323:289,1,187.5,12|12,3:0|3:0,0:0:0:0:
131,363,135362,1,0,0:0:0:0:
405,313,135541,1,2,2:0:0:0:
114,215,135719,38,0,B|114:203|103:198|90:202|77:213|74:227|77:237|106:250|134:250|154:284,1,124.999995231629,12|12,3:0|3:0,0:0:0:0:
194,68,136076,1,2,2:0:0:0:
272,367,136255,1,2,2:0:0:0:
255,227,136433,6,0,B|256:186|218:186|200:111|257:150|257:150|313:112|293:186|254:186|255:224,1,249.999990463257,12|0,3:0|0:0,0:0:0:0:
256,0,136969,1,2,2:0:0:0:
416,288,137326,37,2,2:0:0:0:
320,352,137813,5,2,2:0:0:0:
160,288,138172,37,2,2:0:0:0:
256,224,138717,5,2,2:0:0:0:
288,384,139252,37,2,2:0:0:0:
416,352,140144,5,2,2:0:0:0:
448,192,140689,37,2,2:0:0:0:
352,96,141027,5,2,2:0:0:0:
416,32,141572,37,2,2:0:0:0:
352,256,142099,5,2,2:0:0:0:
320,160,143013,37,2,2:0:0:0:
226,239,143540,5,2,2:0:0:0:
128,192,143887,37,2,2:0:0:0:
224,96,144427,5,2,2:0:0:0:
160,32,144941,37,2,2:0:0:0:
96,288,145861,5,2,2:0:0:0:
224,352,146396,37,2,2:0:0:0:
288,288,146745,5,2,2:0:0:0:
192,224,147287,37,2,2:0:0:0:
320,96,147963,5,2,2:0:0:0:
145,0,148579,37,2,2:0:0:0:
218,45,148755,6,0,L|241:294,1,249.999990463257,12|2,3:0|2:0,0:0:0:0:
226,146,149291,38,0,L|240:22,1,124.999995231629,12|8,3:0|2:0,0:0:0:0:
60,255,149648,2,0,B|134:296|179:238|154:219|225:179|279:214,1,234.375,2|0,2:0|0:0,0:0:0:0:
289,199,150183,2,0,P|329:233|346:277,1,93.7500000000001,2|0,2:0|0:0,0:0:0:0:
229,372,150541,6,0,L|252:123,1,249.999990463257,12|8,3:0|2:0,0:0:0:0:
239,0,151076,38,0,L|262:249,1,249.999990463257,12|0,3:0|0:0,0:0:0:0:
512,358,151612,6,0,L|263:331,1,249.999990463257,12|0,3:0|0:0,0:0:0:0:
64,134,152148,38,0,L|282:110,1,187.499992847443,12|0,3:0|0:0,0:0:0:0:
265,109,152505,2,0,P|287:144|293:167,1,46.875,2|0,2:0|0:0,0:0:0:0:
480,256,152683,6,0,L|355:267,1,124.999995231629,12|0,3:0|0:0,0:0:0:0:
132,282,153041,1,2,2:0:0:0:
448,160,153219,38,0,L|386:152,1,62.4999976158143,12|0,3:0|0:0,0:0:0:0:
104,124,153398,6,0,L|166:116,1,62.4999976158143,12|0,3:0|0:0,0:0:0:0:
288,0,153576,1,8,3:0:0:0:
176,109,153755,1,8,2:0:0:0:
244,325,153933,38,0,L|267:76,1,249.999990463257,12|0,3:0|0:0,0:0:0:0:
263,351,154469,6,0,L|240:102,1,249.999990463257,12|2,3:0|2:0,0:0:0:0:
252,374,155005,38,0,L|267:212,1,124.999995231629,12|8,3:0|2:0,0:0:0:0:
49,203,155362,2,0,P|119:221|177:330,1,187.5,2|0,2:0|0:0,0:0:0:0:
394,236,155898,2,0,B|356:211|318:233|330:245|297:270|254:244,1,140.625,2|0,2:0|0:0,0:0:0:0:
256,239,156255,6,0,L|241:77,1,124.999995231629,12|2,3:0|2:0,0:0:0:0:
352,320,156612,1,8,2:0:0:0:
235,124,156791,38,0,L|250:-38,1,124.999995231629,12|0,3:0|0:0,0:0:0:0:
256,192,157326,12,0,159826,0:0:0:0:
23,66,160183,22,0,P|55:175|62:349,1,249.999990463257,12|2,3:0|2:0,0:0:0:0:
21,351,160719,2,0,P|37:326|65:311,1,62.4999976158143,12|0,3:0|0:0,0:0:0:0:
96,384,160898,1,8,2:0:0:0:
37,231,161076,2,0,B|87:205|139:250|121:257|164:283|213:260,1,187.5,2|0,2:0|0:0,0:0:0:0:
274,194,161612,2,0,P|223:212|209:259,1,93.7500000000001,2|0,2:0|0:0,0:0:0:0:
211,260,161880,1,0,0:0:0:0:
217,274,161969,6,0,P|275:288|365:294,1,124.999995231629,12|2,3:0|2:0,0:0:0:0:
447,291,162326,1,8,2:0:0:0:
256,32,162505,38,0,P|112:42|8:66,1,249.999990463257,12|0,3:0|0:0,0:0:0:0:
352,384,163041,6,0,P|376:261|386:137,1,249.999990463257,12|0,3:0|0:0,0:0:0:0:
8,65,163576,38,0,P|6:93|19:146,1,62.4999976158143,12|0,3:0|0:0,0:0:0:0:
46,208,163755,1,8,2:0:0:0:
133,68,163933,2,0,P|91:120|94:138,1,46.875,2|0,2:0|0:0,0:0:0:0:
100,110,164112,6,0,P|157:121|223:127,2,124.999995231629,12|2|2,3:0|2:0|2:0,0:0:0:0:
206,356,164648,38,0,P|199:323|197:261,1,62.4999976158143,12|0,3:0|0:0,0:0:0:0:
320,256,164826,2,0,P|327:225|328:160,1,62.4999976158143,12|0,3:0|0:0,0:0:0:0:
223,127,165005,1,8,3:0:0:0:
256,32,165183,1,8,2:0:0:0:
453,322,165898,6,0,P|322:330|205:356,1,249.999990463257,12|0,3:0|0:0,0:0:0:0:
216,274,166433,2,0,P|246:282|268:304,2,62.4999976158143,12|0|8,3:0|0:0|2:0,0:0:0:0:
47,301,166791,2,0,B|101:316|138:296|126:272|167:242|222:261,1,187.5,2|0,2:0|0:0,0:0:0:0:
370,344,167326,2,0,P|324:355|288:398,1,93.7500000000001,2|0,2:0|0:0,0:0:0:0:
64,128,167683,38,0,P|120:141|222:149,1,124.999995231629,12|2,3:0|2:0,0:0:0:0:
354,149,168041,1,8,2:0:0:0:
448,0,168219,6,0,P|310:11|200:34,1,249.999990463257,12|0,3:0|0:0,0:0:0:0:
64,128,168755,38,0,P|158:146|311:162,1,249.999990463257,12|0,3:0|0:0,0:0:0:0:
511,383,169291,6,0,P|501:341|496:280,1,62.4999976158143,12|0,3:0|0:0,0:0:0:0:
490,235,169469,1,8,2:0:0:0:
262,354,169648,1,2,2:0:0:0:
0,328,169826,38,0,B|45:331|45:331|53:328|53:328|52:339|52:339|61:334|61:334|98:337|98:337|109:344|109:344|111:335|111:335|121:340|121:340|158:344|158:344|171:341|171:341|167:349|167:349|180:345|180:345|213:348|213:348|219:354|219:354|221:345|221:345|229:350|229:350|315:362,1,312.499988079071,2|2,1:0|2:0,0:0:0:0:
333,24,170362,6,0,P|340:60|342:119,1,62.4999976158143,12|0,3:0|0:0,0:0:0:0:
187,138,170540,2,0,P|179:180|179:204,1,62.4999976158143,12|0,3:0|0:0,0:0:0:0:
288,256,170719,1,8,3:0:0:0:
256,64,170898,1,8,2:0:0:0:
384,192,171076,38,0,P|430:179|538:170,2,124.999995231629,12|2|2,3:0|2:0|2:0,0:0:0:0:
288,256,171612,6,0,P|157:243|40:221,1,249.999990463257,12|0,3:0|0:0,0:0:0:0:
73,146,172148,2,0,P|105:172|116:201,2,62.4999976158143,12|0|8,3:0|0:0|2:0,0:0:0:0:
67,52,172505,2,0,P|150:93|201:175,1,187.5,2|2,2:0|2:0,0:0:0:0:
313,7,173041,2,0,B|286:0|268:15|278:19|258:35|224:26,1,93.7500000000001,2|0,2:0|0:0,0:0:0:0:
478,287,173398,38,0,P|489:228|494:163,1,124.999995231629,12|2,3:0|2:0,0:0:0:0:
497,7,173755,1,8,2:0:0:0:
288,128,173933,6,0,P|296:231|322:375,1,249.999990463257,12|0,3:0|0:0,0:0:0:0:
368,97,174469,38,0,P|289:91|210:74,2,156.249994039536,12|2|2,3:0|2:0|2:0,0:0:0:0:
90,299,175005,6,0,P|125:290|182:285,1,78.1249970197678,12|0,3:0|0:0,0:0:0:0:
293,278,175183,1,8,2:0:0:0:
243,355,175362,1,2,2:0:0:0:
368,97,175541,38,0,P|201:66|53:53,1,312.499988079071,12|2,3:0|2:0,0:0:0:0:
32,160,176076,6,0,P|63:152|128:128,1,62.4999976158143,12|0,3:0|0:0,0:0:0:0:
160,224,176255,38,0,P|183:228|219:243,1,62.4999976158143,12|0,3:0|0:0,0:0:0:0:
384,192,176433,1,8,3:0:0:0:
284,136,176612,1,8,2:0:0:0:
512,0,176791,6,0,P|488:132|477:248,1,249.999990463257,12|2,3:0|2:0,0:0:0:0:
319,384,177326,38,0,P|312:270|284:135,1,249.999990463257,12|0,3:0|0:0,0:0:0:0:
342,77,177862,2,0,P|314:59|277:56,2,62.4999976158143,12|0|8,3:0|0:0|2:0,0:0:0:0:
292,220,178219,2,0,P|221:193|214:88,1,187.5,2|2,2:0|2:0,0:0:0:0:
84,0,178755,2,0,B|106:18|131:17|123:5|156:10|174:26,1,93.7500000000001,2|0,2:0|0:0,0:0:0:0:
458,57,179112,6,0,P|324:72|210:92,1,249.999990463257,12|8,3:0|2:0,0:0:0:0:
0,288,179648,38,0,P|104:309|247:323,1,249.999990463257,12|0,3:0|0:0,0:0:0:0:
352,96,180183,6,0,P|366:173|374:254,1,156.249994039536,12|2,3:0|2:0,0:0:0:0:
112,268,180541,2,0,P|121:237|118:192,1,46.875,2|0,2:0|0:0,0:0:0:0:
0,128,180719,38,0,P|38:129|84:139,1,78.1249970197678,12|0,3:0|0:0,0:0:0:0:
236,177,180898,1,8,2:0:0:0:
248,179,180987,1,2,2:0:0:0:
53,33,181166,1,2,2:0:0:0:
51,49,181255,6,0,P|41:136|28:207,1,156.249994039536,12|2,3:0|2:0,0:0:0:0:
229,72,181612,2,0,P|187:95|176:132,1,46.875,2|0,2:0|0:0,0:0:0:0:
260,158,181791,38,0,B|286:160|286:160|298:158|298:158|298:164|298:164|309:162|309:162|339:166,1,78.1249970197678,12|0,3:0|0:0,0:0:0:0:
512,0,181969,6,0,B|470:4|470:4|460:10|460:10|459:1|459:1|449:5|449:5|413:8|413:8|406:4|406:4|405:15|405:15|394:10|394:10|351:16,1,156.249994039536,12|8,3:0|3:0,0:0:0:0:
278,238,182326,1,8,2:0:0:0:
480,352,182505,38,0,P|485:283|501:197,2,156.249994039536,12|2|2,3:0|2:0|2:0,0:0:0:0:
457,258,183039,1,2,2:0:0:0:
224,384,183548,5,2,2:0:0:0:
160,320,183912,37,2,2:0:0:0:
192,224,184144,5,2,2:0:0:0:
128,96,184532,37,2,2:0:0:0:
320,32,184852,5,2,2:0:0:0:
288,128,185086,37,2,2:0:0:0:
128,0,185379,5,2,2:0:0:0:
43,184,185756,37,2,2:0:0:0:
94,253,185965,5,2,2:0:0:0:
29,307,186138,37,2,2:0:0:0:
88,363,186312,5,2,2:0:0:0:
160,331,186485,37,2,2:0:0:0:
223,375,186665,5,2,2:0:0:0:
316,303,186859,37,2,2:0:0:0:
438,374,187161,5,2,2:0:0:0:
256,224,187455,37,2,2:0:0:0:
352,32,187749,5,2,2:0:0:0:
320,128,187989,37,2,2:0:0:0:
448,224,188273,5,2,2:0:0:0:
32,64,188755,38,0,P|42:127|55:231,1,124.999995231629,12|2,3:0|2:0,0:0:0:0:
52,204,189023,1,0,0:0:0:0:
54,216,189112,2,0,P|84:207|100:184,1,46.875,2|0,2:0|0:0,0:0:0:0:
256,96,189291,6,0,L|194:87,1,62.4999976158143,12|0,3:0|0:0,0:0:0:0:
32,64,189469,2,0,P|91:73|112:102,1,93.7500000000001,8|2,2:0|2:0,0:0:0:0:
187,242,189826,2,0,P|231:231|256:192,1,93.7500000000001,2|2,2:0|2:0,0:0:0:0:
413,75,190183,1,0,0:0:0:0:
421,68,190273,2,0,B|372:44|381:77|323:36,1,93.7500000000001,2|0,2:0|0:0,0:0:0:0:
327,36,190541,38,0,P|340:105|346:187,1,124.999995231629,12|2,3:0|2:0,0:0:0:0:
353,356,190898,1,8,2:0:0:0:
499,85,191076,6,0,P|476:213|464:361,1,249.999990463257,12|0,3:0|0:0,0:0:0:0:
131,176,191612,38,0,P|186:178|255:191,1,124.999995231629,12|2,3:0|2:0,0:0:0:0:
266,193,191880,1,0,0:0:0:0:
277,193,191969,2,0,P|247:172|224:167,1,46.875,2|0,2:0|0:0,0:0:0:0:
128,288,192148,6,0,P|160:285|204:278,1,62.4999976158143,12|0,3:0|0:0,0:0:0:0:
369,246,192326,1,8,2:0:0:0:
202,364,192505,1,2,2:0:0:0:
32,224,192683,38,0,B|31:208|31:208|36:201|36:201|28:200|28:200|32:191|32:191|36:152|43:108|43:108|41:101|41:101|48:101|48:101|45:94|45:94|52:62,2,156.249994039536,2|2|2,1:0|2:0|2:0,0:0:0:0:
140,368,193219,6,0,P|169:369|214:364,1,62.4999976158143,12|0,3:0|0:0,0:0:0:0:
365,253,193398,38,0,P|331:248|291:249,1,62.4999976158143,12|0,3:0|0:0,0:0:0:0:
448,320,193576,1,8,3:0:0:0:
512,256,193755,1,8,2:0:0:0:
253,131,193933,6,0,P|274:254|288:410,1,249.999990463257,12|0,3:0|0:0,0:0:0:0:
448,96,194469,38,0,P|382:93|317:79,1,124.999995231629,12|2,3:0|2:0,0:0:0:0:
94,238,194826,2,0,P|135:245|154:277,1,46.875,2|0,2:0|0:0,0:0:0:0:
77,240,195005,6,0,P|75:203|69:177,1,62.4999976158143,12|0,3:0|0:0,0:0:0:0:
56,89,195183,2,0,P|122:102|147:130,1,93.7500000000001,8|2,2:0|2:0,0:0:0:0:
146,129,195451,1,0,0:0:0:0:
151,141,195541,2,0,B|186:150|232:124|232:124|258:169|293:179,1,168.749988412858,2|0,2:0|0:0,0:0:0:0:
498,57,196076,2,0,P|488:34|434:25,1,46.875,2|0,2:0|0:0,0:0:0:0:
445,15,196255,38,0,P|380:12|320:0,1,124.999995231629,12|2,3:0|2:0,0:0:0:0:
373,120,196612,1,8,2:0:0:0:
240,54,196791,6,0,P|174:55|115:69,1,124.999995231629,12|0,3:0|0:0,0:0:0:0:
381,117,197148,1,0,0:0:0:0:
221,379,197326,38,0,P|237:277|257:89,1,249.999990463257,12|2,3:0|2:0,0:0:0:0:
115,68,197862,6,0,P|122:105|122:130,1,62.4999976158143,12|0,3:0|0:0,0:0:0:0:
38,161,198041,2,0,P|96:157|158:206,1,140.625,8|0,2:0|0:0,0:0:0:0:
159,223,198398,38,0,P|148:292|144:348,1,124.999995231629,12|2,3:0|2:0,0:0:0:0:
67,365,198755,1,2,2:0:0:0:
260,305,198933,6,0,B|262:297|287:303|287:303|299:309|322:312,1,62.4999976158143,12|0,3:0|0:0,0:0:0:0:
400,369,199112,38,0,B|411:373|411:373|428:368|438:358|462:362,1,62.4999976158143,12|0,3:0|0:0,0:0:0:0:
496,292,199291,1,8,3:0:0:0:
392,376,199469,1,8,2:0:0:0:
227,136,199648,6,0,B|225:179|225:179|241:198|242:234|258:286|258:286|257:404,1,249.999990463257,12|0,3:0|0:0,0:0:0:0:
443,145,200183,38,0,P|406:145|347:134,1,62.4999976158143,12|0,3:0|0:0,0:0:0:0:
360,125,200362,2,0,P|323:139|298:181,1,46.875,2|0,2:0|0:0,0:0:0:0:
274,223,200541,1,2,2:0:0:0:
113,73,200719,6,0,P|140:72|175:66,1,62.4999976158143,12|0,3:0|0:0,0:0:0:0:
282,56,200898,2,0,P|319:39|338:-10,1,93.7500000000001,8|2,2:0|2:0,0:0:0:0:
274,223,201255,2,0,P|240:199|188:207,1,93.7500000000001,2|2,2:0|2:0,0:0:0:0:
9,319,201612,2,0,B|45:332|83:315|68:299|97:285|146:300,1,140.625,2|0,2:0|0:0,0:0:0:0:
144,286,201969,38,0,P|147:229|158:162,1,124.999995231629,12|2,3:0|2:0,0:0:0:0:
363,191,202326,1,8,2:0:0:0:
476,75,202505,6,0,P|328:98|192:106,1,249.999990463257,12|0,3:0|0:0,0:0:0:0:
194,327,203041,38,0,P|249:323|336:342,1,124.999995231629,12|2,3:0|2:0,0:0:0:0:
479,240,203398,2,0,P|452:248|433:275,1,46.875,2|0,2:0|0:0,0:0:0:0:
318,340,203576,6,0,P|352:347|390:347,1,62.4999976158143,12|0,3:0|0:0,0:0:0:0:
499,356,203755,1,8,2:0:0:0:
420,179,203933,1,2,2:0:0:0:
317,339,204112,2,0,B|322:301|297:274|276:291|255:265|256:222,1,140.625,2|0,2:0|0:0,0:0:0:0:
261,212,204469,1,2,2:0:0:0:
256,192,204648,12,0,205719,0:0:0:0:
55,242,205898,38,0,P|153:235|324:347,1,281.25,12|0,3:0|0:0,0:0:0:0:
327,321,206255,2,0,P|300:305|289:306,1,31.2499988079071,2|0,2:0|0:0,0:0:0:0:
230,357,206433,38,0,P|178:353|136:367,1,93.7500000000001,12|0,3:0|0:0,0:0:0:0:
407,340,206612,2,0,B|418:294|392:242|367:262|343:217|354:166,2,187.499992847443,8|0|0,2:0|0:0|0:0,0:0:0:0:
333,378,207326,2,0,P|321:351|326:318,1,62.4999976158143,2|0,2:0|0:0,0:0:0:0:
478,246,207505,1,0,0:0:0:0:
341,147,207683,38,0,P|229:125|154:181,1,187.5,12|2,3:0|2:0,0:0:0:0:
85,238,208041,1,8,2:0:0:0:
21,0,208219,38,0,P|172:18|242:255,1,375,12|0,3:0|0:0,0:0:0:0:
500,0,208755,38,0,P|372:137|363:348,1,375,12|2,3:0|2:0,0:0:0:0:
485,279,209291,38,0,P|463:232|473:176,1,93.7500000000001,12|0,3:0|0:0,0:0:0:0:
261,64,209469,2,0,P|317:66|367:118,1,124.999995231629,8|2,2:0|2:0,0:0:0:0:
75,376,209826,38,0,P|178:324|243:147,1,281.25,12|0,3:0|0:0,0:0:0:0:
241,157,210183,2,0,P|227:141|178:132,1,62.4999976158143,2|0,2:0|0:0,0:0:0:0:
104,184,210362,38,0,P|87:140|97:95,1,93.7500000000001,12|0,3:0|0:0,0:0:0:0:
339,206,210541,38,0,P|312:242|262:260,1,93.7500000000001,12|0,3:0|0:0,0:0:0:0:
200,36,210719,1,8,3:0:0:0:
390,108,210898,1,8,2:0:0:0:
467,14,211076,38,0,P|269:29|175:233,1,375,12|0,3:0|0:0,0:0:0:0:
0,0,211612,38,0,P|64:32|96:160,1,187.5,12|2,3:0|2:0,0:0:0:0:
39,323,211969,1,2,2:0:0:0:
41,336,212058,1,0,0:0:0:0:
44,349,212148,38,0,P|82:370|155:345,1,93.7500000000001,12|0,3:0|0:0,0:0:0:0:
276,279,212326,2,0,P|161:310|127:381,1,187.499992847443,8|2,2:0|2:0,0:0:0:0:
139,376,212683,2,0,P|160:335|158:258,1,124.999995231629
101,136,213041,2,0,P|133:120|195:128,1,62.4999976158143,2|0,2:0|0:0,0:0:0:0:
239,188,213219,1,2,2:0:0:0:
246,56,213398,38,0,P|57:67|-19:167,1,281.25,12|0,3:0|0:0,0:0:0:0:
0,137,213755,1,8,2:0:0:0:
362,155,213933,38,0,P|262:41|131:30,1,281.25,12|0,3:0|0:0,0:0:0:0:
129,36,214291,1,2,2:0:0:0:
219,300,214469,38,0,P|268:194|211:39,1,281.25,12|0,3:0|0:0,0:0:0:0:
135,158,214916,1,0,0:0:0:0:
142,174,215005,38,0,L|281:189,1,93.7500000000001,12|0,3:0|0:0,0:0:0:0:
352,224,215183,2,0,B|396:226|425:207|406:191|441:169|477:173,1,124.999995231629,8|2,2:0|2:0,0:0:0:0:
399,27,215541,38,0,B|393:61|393:61|399:78|386:90|386:90|372:135|372:135|386:249|386:249|374:302|374:302|357:308|370:321|370:321|365:342,1,328.124990612269,2|0,1:0|0:0,0:0:0:0:
363,355,215898,1,2,2:0:0:0:
61,225,216076,38,0,P|48:184|54:115,1,93.7500000000001,12|0,3:0|0:0,0:0:0:0:
268,100,216255,38,0,P|269:146|255:191,1,93.7500000000001,12|0,3:0|0:0,0:0:0:0:
116,298,216433,1,8,3:0:0:0:
344,274,216612,2,0,P|291:242|256:192,1,124.999995231629,8|12,2:0|3:0,0:0:0:0:
0,334,216969,2,0,P|54:304|116:298,1,124.999995231629,2|2,2:0|2:0,0:0:0:0:
29,146,217326,6,0,B|93:114|157:167|114:188|188:226|255:192,1,249.999990463257,12|0,3:0|0:0,0:0:0:0:
251,109,217862,1,12,3:0:0:0:
264,278,218041,2,0,P|315:245|329:200,1,93.7500000000001,8|2,2:0|2:0,0:0:0:0:
180,156,218398,1,2,2:0:0:0:
333,135,218576,2,0,P|396:169|379:286,1,187.5,2|2,2:0|2:0,0:0:0:0:
207,360,219112,38,0,P|155:310|201:202,2,187.5,12|8|2,3:0|2:0|2:0,0:0:0:0:
288,384,220005,1,2,2:0:0:0:
323,238,220183,1,12,3:0:0:0:
160,96,221791,6,0,B|173:98|181:100|188:97|196:89|201:74|190:62|179:51|158:38|123:38|94:55|85:82|84:120|104:152|160:161,1,234.375,12|0,3:0|0:0,0:0:0:0:
148,161,222326,2,0,P|173:177|198:264,1,93.7500000000001,8|12,2:0|3:0,0:0:0:0:
148,308,222683,1,2,2:0:0:0:
105,241,222862,1,2,2:0:0:0:
367,218,223755,38,0,P|342:202|317:115,1,93.7500000000001,8|2,2:0|2:0,0:0:0:0:
407,143,224112,1,2,2:0:0:0:
378,231,224291,2,0,B|413:232|437:270|436:315|425:348|390:368|349:368|326:342|303:307|336:275|388:294,1,281.25,2|12,2:0|3:0,0:0:0:0:
256,96,225898,6,0,L|250:1,3,93.7500000000001,12|2|2|12,3:0|2:0|2:0|3:0,0:0:0:0:
320,160,226612,2,0,L|314:253,3,93.7500000000001,8|2|12|2,2:0|2:0|3:0|2:0,0:0:0:0:
192,320,227326,1,2,2:0:0:0:
197,347,227683,1,12,3:0:0:0:
256,192,228755,12,0,240183,0:0:0:0:
