osu file format v14

[General]
AudioFilename: audio.mp3
AudioLeadIn: 0
PreviewTime: 205719
Countdown: 0
SampleSet: Soft
StackLeniency: 0.4
Mode: 0
LetterboxInBreaks: 0
WidescreenStoryboard: 1

[Editor]
Bookmarks: 23041,32683,45898,55541,68755,91612,101254,107683,114469,125897,137326,148755,160183,161255,169826,183041,188755,197862,205898,215540
DistanceSpacing: 1.5
BeatDivisor: 4
GridSize: 16
TimelineZoom: 2.7

[Metadata]
Title:Lucid Dreams (Remix) feat. Lil Uzi Vert
TitleUnicode:Lucid Dreams (Remix) feat. Lil Uzi Vert
Artist:Juice WRLD
ArtistUnicode:Juice WRLD
Creator:1103
Version:1103 & riffy's Hyper
Source:
Tags:goodbye & good riddance english hip hop rap riffy bakari qiyana clubber washedup player dyl-byl shape of my heart sting ft. wont
BeatmapID:3092391
BeatmapSetID:1475832

[Difficulty]
HPDrainRate:5
CircleSize:4
OverallDifficulty:7.7
ApproachRate:8.2
SliderMultiplier:2.19999990463257
SliderTickRate:1

[Events]
//Background and Video events
0,0,"Uvykh4.png",0,0
//Break Periods
2,183239,186955
//Storyboard Layer 0 (Background)
//Storyboard Layer 1 (Fail)
//Storyboard Layer 2 (Pass)
//Storyboard Layer 3 (Foreground)
//Storyboard Layer 4 (Overlay)
//Storyboard Sound Samples

[TimingPoints]
184,714.285714285714,4,2,1,60,1,0
23041,-62.5,4,2,1,60,0,0
68755,691.64265129683,4,2,1,40,1,0
69273,714.285714285714,4,2,1,40,1,0
69630,670.391061452514,4,2,1,40,1,0
70132,725.075528700906,4,2,1,40,1,0
70675,764.331210191083,4,2,1,40,1,0
71057,679.886685552408,4,2,1,40,1,0
71566,676.056338028169,4,2,1,40,1,0
72073,786.885245901639,4,2,1,40,1,0
72466,707.964601769911,4,2,1,40,1,0
72996,712.166172106825,4,2,1,40,1,0
73530,720.720720720721,4,2,1,40,1,0
73890,705.882352941176,4,2,1,40,1,0
74419,710.059171597633,4,2,1,40,1,0
75306,727.272727272727,4,2,1,40,1,0
75851,703.812316715542,4,2,1,40,1,0
76378,731.70731707317,4,2,1,40,1,0
76743,712.166172106825,4,2,1,40,1,0
77277,738.461538461538,4,2,1,40,1,0
79123,712.166172106825,4,2,1,40,1,0
79835,761.904761904762,4,2,1,40,1,0
80215,668.523676880223,4,2,1,40,1,0
80716,716.417910447761,4,2,1,40,1,0
81074,716.417910447761,4,2,1,40,1,0
81611,648.648648648648,4,2,1,40,1,0
82097,830.449826989619,4,2,1,40,1,0
82512,707.964601769911,4,2,1,40,1,0
83042,718.562874251497,4,2,1,40,1,0
83580,727.272727272727,4,2,1,40,1,0
83943,716.417910447761,4,2,1,40,1,0
84480,703.812316715542,4,2,1,40,1,0
85007,718.562874251497,4,2,1,40,1,0
85366,697.674418604651,4,2,1,40,1,0
85889,670.391061452514,4,2,1,40,1,0
86391,764.331210191083,4,2,1,40,1,0
86773,687.679083094556,4,2,1,40,1,0
88146,650.406504065041,4,2,1,40,1,0
89121,712.166172106825,4,2,1,40,1,0
89477,714.285714285714,4,2,1,40,1,0
91612,714.285714285714,4,2,1,60,1,0
91612,-62.5,4,2,1,60,0,0
137326,650.406504065041,4,2,1,45,1,0
137813,718.562874251497,4,2,1,45,1,0
138172,727.272727272727,4,2,1,45,1,0
138717,714.285714285714,4,2,1,45,1,0
139252,813.559322033898,4,2,1,45,1,0
139658,853.849437882453,4,2,1,45,1,0
139871,546.697038724374,4,2,1,45,1,0
140144,727.272727272727,4,2,1,45,1,0
140689,677.966101694915,4,2,1,45,1,0
141027,727.272727272727,4,2,1,45,1,0
141572,703.812316715542,4,2,1,45,1,0
142099,674.157303370787,4,2,1,45,1,0
142604,697.674418604651,4,2,1,45,1,0
142778,941.176470588235,4,2,1,45,1,0
143013,703.812316715542,4,2,1,45,1,0
143540,695.652173913043,4,2,1,45,1,0
143887,720.72072072072,4,2,1,45,1,0
144427,685.714285714285,4,2,1,45,1,0
144941,736.196319018405,4,2,1,45,1,0
145861,714.285714285714,4,2,1,45,1,0
146396,699.708454810495,4,2,1,45,1,0
146745,722.89156626506,4,2,1,45,1,0
147287,676.056338028169,4,2,1,45,1,0
147963,821.917808219178,4,2,1,45,1,0
148579,697.674418604651,4,2,1,45,1,0
148755,714.285714285714,4,2,1,70,1,0
148755,-62.5,4,2,1,70,0,0
160183,-62.5,4,2,1,65,0,0
183039,679.886685552408,4,2,1,50,1,0
183548,729.483282674772,4,2,1,50,1,0
183912,465.116279069767,4,2,1,50,1,0
184144,776.497994046849,4,2,1,50,1,0
184532,641.711229946524,4,2,1,50,1,0
184852,469.667318982387,4,2,1,50,1,0
185086,586.79706601467,4,2,1,50,1,0
185379,754.716981132075,4,2,1,50,1,0
185756,836.236933797909,4,2,1,50,1,0
185965,695.652173913044,4,2,1,50,1,0
186312,695.652173913043,4,2,1,50,1,0
186485,722.89156626506,4,2,1,50,1,0
186665,776.497994046849,4,2,1,50,1,0
186859,604.534005037783,4,2,1,50,1,0
187161,589.813913710224,4,2,1,50,1,0
187455,589.680589680589,4,2,1,50,1,0
187749,481.05061454216,4,2,1,50,1,0
187989,568.720379146919,4,2,1,50,1,0
188273,641.711229946524,4,2,1,50,1,0
188755,714.285714285714,4,2,1,65,1,0
188755,-62.5,4,2,1,65,0,0
205898,-62.5,4,2,1,70,0,0
228755,-66.6666666666667,4,2,1,35,0,0
234469,-66.6666666666667,4,2,1,17,0,0
240183,-66.6666666666667,4,2,1,5,0,0

[Colours]
Combo1 : 75,0,128
Combo2 : 163,59,236
Combo3 : 200,110,34
Combo4 : 209,167,131

[HitObjects]
86,143,23041,22,0,P|148:128|204:229,1,175.999992370606,12|2,3:0|2:0,0:0:0:0:
253,114,23576,2,0,P|242:87|268:27,1,87.9999961853028,12|8,3:0|2:0,0:0:0:0:
134,197,23933,1,0,0:0:0:0:
33,188,24112,1,0,0:0:0:0:
131,204,24291,1,2,2:0:0:0:
235,220,24469,2,0,L|333:200,1,87.9999961853028,2|0,2:0|0:0,0:0:0:0:
502,162,24826,2,0,L|391:186,1,87.9999961853028,12|2,3:0|2:0,0:0:0:0:
325,197,25183,1,8,2:0:0:0:
483,364,25362,2,0,P|448:290|355:305,1,175.999992370606,12|0,3:0|0:0,0:0:0:0:
157,257,25898,6,0,P|192:331|285:316,1,175.999992370606,12|2,3:0|2:0,0:0:0:0:
409,358,26433,1,12,3:0:0:0:
227,266,26612,2,0,L|240:373,1,87.9999961853028,8|2,2:0|2:0,0:0:0:0:
232,256,26969,1,12,3:0:0:0:
337,32,27326,1,2,2:0:0:0:
247,88,27505,1,12,3:0:0:0:
299,179,27683,2,0,P|337:216|336:279,1,87.9999961853028,12|8,3:0|3:0,0:0:0:0:
215,349,28041,1,8,2:0:0:0:
213,355,28219,2,0,B|293:321|307:380|396:333,1,175.999992370606,12|0,3:0|0:0,0:0:0:0:
183,233,28755,38,0,B|103:267|89:208|0:255,1,175.999992370606,12|2,3:0|2:0,0:0:0:0:
129,157,29291,2,0,P|71:147|24:156,1,87.9999961853028,12|8,3:0|2:0,0:0:0:0:
80,314,29648,2,0,P|138:324|249:283,1,175.999992370606,2|0,2:0|0:0,0:0:0:0:
291,177,30183,2,0,L|301:88,1,87.9999961853028,2|2,2:0|2:0,0:0:0:0:
352,264,30541,1,12,3:0:0:0:
357,269,30898,2,0,P|435:226|501:281,1,175.999992370606,8|2,2:0|2:0,0:0:0:0:
399,151,31433,1,2,2:0:0:0:
420,349,31612,6,0,B|363:325|363:325|289:344,2,117.33332824707,12|2|2,3:0|2:0|2:0,0:0:0:0:
264,243,32326,2,0,B|214:280|214:280|194:353,1,117.33332824707,8|0,2:0|0:0,0:0:0:0:
204,344,32683,1,2,1:0:0:0:
52,149,33041,1,2,2:0:0:0:
32,270,33219,2,0,P|111:254|170:156,1,175.999992370606,12|8,3:0|3:0,0:0:0:0:
130,82,33755,1,8,2:0:0:0:
217,86,33933,1,12,3:0:0:0:
304,90,34112,1,2,2:0:0:0:
512,28,34469,38,0,B|466:46|434:91|473:79|439:129|387:159,1,175.999992370606,12|0,3:0|0:0,0:0:0:0:
372,50,35005,1,12,3:0:0:0:
386,154,35183,2,0,L|472:168,2,87.9999961853028,8|2|2,2:0|2:0|2:0,0:0:0:0:
308,182,35719,2,0,P|274:225|355:228,1,175.999992370606,2|2,2:0|2:0,0:0:0:0:
314,99,36255,2,0,P|259:109|211:144,1,87.9999961853028,12|0,3:0|0:0,0:0:0:0:
155,85,36612,5,8,2:0:0:0:
217,23,36791,1,12,3:0:0:0:
166,165,36969,2,0,B|151:209|181:189|156:258,1,87.9999961853028,2|2,2:0|2:0,0:0:0:0:
15,339,37326,2,0,B|63:322|75:257|75:257|82:309|134:341,1,175.999992370606,12|2,3:0|2:0,0:0:0:0:
158,250,37862,2,0,P|203:272|319:349,1,175.999992370606,12|2,3:0|2:0,0:0:0:0:
217,325,38398,37,12,3:0:0:0:
308,340,38576,2,0,P|358:337|436:312,1,87.9999961853028,2|2,2:0|2:0,0:0:0:0:
422,241,38933,2,0,B|446:189|400:202|409:139|275:191|343:313|398:282,1,175.999992370606,12|8,3:0|3:0,0:0:0:0:
467,379,39469,1,8,2:0:0:0:
394,328,39648,1,12,3:0:0:0:
422,241,39826,2,0,P|457:231|511:241,1,87.9999961853028,2|2,2:0|2:0,0:0:0:0:
430,249,40183,2,0,B|402:236|402:236|365:29,1,175.999992370606,12|0,3:0|0:0,0:0:0:0:
104,15,40898,5,8,2:0:0:0:
171,69,41076,1,2,2:0:0:0:
130,147,41255,1,2,2:0:0:0:
61,91,41433,2,0,P|135:95|265:130,1,175.999992370606,2|2,2:0|2:0,0:0:0:0:
309,69,41969,2,0,P|314:116|326:174,1,87.9999961853028,12|2,3:0|2:0,0:0:0:0:
402,196,42326,37,8,2:0:0:0:
335,250,42504,1,12,3:0:0:0:
376,328,42683,1,2,2:0:0:0:
445,272,42861,2,0,P|329:283|243:314,1,175.999992370606,2|2,2:0|2:0,0:0:0:0:
181,332,43398,2,0,P|195:294|204:224,1,87.9999961853028,2|12,2:0|3:0,0:0:0:0:
127,200,43755,6,0,P|165:173|215:156,1,87.9999961853028,8|2,2:0|2:0,0:0:0:0:
188,56,44112,2,0,P|233:63|281:87,1,87.9999961853028,12|2,3:0|2:0,0:0:0:0:
97,118,44469,1,2,2:0:0:0:
97,118,44826,1,12,3:0:0:0:
199,245,45183,1,8,2:0:0:0:
199,245,45540,1,2,2:0:0:0:
275,181,45898,38,0,B|345:127|369:218|443:156,1,175.999992370606,12|0,3:0|0:0,0:0:0:0:
324,247,46433,2,0,P|377:260|418:255,1,87.9999961853028,12|8,3:0|2:0,0:0:0:0:
380,90,46791,2,0,P|337:77|294:79,2,87.9999961853028,2|0|0,2:0|0:0|0:0,0:0:0:0:
194,143,47326,2,0,B|226:225|293:159|325:250,1,175.999992370606,2|12,2:0|3:0,0:0:0:0:
278,101,47862,1,2,2:0:0:0:
279,110,48041,1,8,2:0:0:0:
223,281,48219,2,0,P|281:345|379:339,1,175.999992370606,12|0,3:0|0:0,0:0:0:0:
160,372,48755,6,0,P|109:321|-8:320,1,175.999992370606,12|2,3:0|2:0,0:0:0:0:
117,271,49291,1,12,3:0:0:0:
1,169,49469,2,0,P|79:194|113:191,1,87.9999961853028,8|2,2:0|2:0,0:0:0:0:
168,137,49826,1,12,3:0:0:0:
168,137,50183,1,2,2:0:0:0:
204,203,50362,1,12,3:0:0:0:
200,283,50541,2,0,L|183:376,1,87.9999961853028,12|8,3:0|3:0,0:0:0:0:
296,243,50898,37,8,2:0:0:0:
296,243,51076,1,2,2:0:0:0:
43,61,51612,6,0,P|114:129|196:107,1,175.999992370606,12|2,3:0|2:0,0:0:0:0:
40,190,52148,2,0,P|26:255|41:295,1,87.9999961853028,12|8,3:0|2:0,0:0:0:0:
132,41,52505,1,2,2:0:0:0:
132,41,52862,1,0,0:0:0:0:
196,192,53041,2,0,B|161:113|261:109|222:-2,1,175.999992370606,2|12,2:0|3:0,0:0:0:0:
292,166,53576,1,2,2:0:0:0:
357,308,53755,2,0,B|325:225|425:221|390:142,1,175.999992370606,8|2,2:0|2:0,0:0:0:0:
292,166,54291,1,2,2:0:0:0:
464,300,54469,37,12,3:0:0:0:
464,300,54648,1,0,0:0:0:0:
464,300,54826,2,0,P|445:356|404:374,1,87.9999961853028,0|12,0:0|3:0,0:0:0:0:
332,214,55183,1,8,2:0:0:0:
332,214,55362,1,2,2:0:0:0:
332,214,55541,2,0,P|293:169|297:125,1,87.9999961853028,2|2,1:0|2:0,0:0:0:0:
404,40,55898,6,0,P|406:80|379:133,1,87.9999961853028,2|12,2:0|3:0,0:0:0:0:
229,81,56255,2,0,P|201:47|191:4,1,87.9999961853028,12|8,3:0|3:0,0:0:0:0:
252,235,56612,2,0,P|243:274|203:318,1,87.9999961853028,8|12,2:0|3:0,0:0:0:0:
129,247,56969,2,0,P|119:204|91:170,1,87.9999961853028,2|2,2:0|2:0,0:0:0:0:
12,275,57326,38,0,P|98:259|107:346,1,175.999992370606,12|0,3:0|0:0,0:0:0:0:
294,372,58041,5,8,2:0:0:0:
206,318,58219,1,2,2:0:0:0:
252,235,58398,2,0,P|283:220|331:152,1,87.9999961853028,2|2,2:0|2:0,0:0:0:0:
287,0,58933,1,2,2:0:0:0:
229,59,59112,2,0,P|225:102|238:144,1,87.9999961853028,12|0,3:0|0:0,0:0:0:0:
326,171,59469,38,0,L|434:195,2,87.9999961853028,8|12|2,2:0|3:0|2:0,0:0:0:0:
236,150,60005,1,2,2:0:0:0:
149,210,60183,2,0,P|174:129|239:180,1,175.999992370606,12|2,3:0|2:0,0:0:0:0:
207,281,60719,2,0,P|136:228|53:200,1,175.999992370606,12|2,3:0|2:0,0:0:0:0:
16,274,61255,2,0,P|98:302|169:354,1,175.999992370606,12|2,3:0|2:0,0:0:0:0:
254,381,61791,1,12,3:0:0:0:
337,362,61969,2,0,P|368:331|377:270,1,87.9999961853028,12|8,3:0|3:0,0:0:0:0:
301,236,62326,5,8,2:0:0:0:
214,169,62505,1,12,3:0:0:0:
389,183,62683,1,2,2:0:0:0:
390,193,62862,1,2,2:0:0:0:
490,16,63755,38,0,P|432:23|408:53,2,87.9999961853028,8|2|2,2:0|2:0|2:0,0:0:0:0:
488,98,64291,2,0,P|379:72|264:75,1,175.999992370606,2|2,2:0|2:0,0:0:0:0:
241,96,64826,1,12,3:0:0:0:
241,96,65005,1,2,2:0:0:0:
288,164,65183,6,0,P|300:210|303:268,1,87.9999961853028,8|12,2:0|3:0,0:0:0:0:
259,352,65541,1,2,2:0:0:0:
216,250,65719,2,0,P|305:235|346:358,1,175.999992370606,2|2,2:0|2:0,0:0:0:0:
439,312,66255,2,0,P|422:349|375:377,1,87.9999961853028,2|12,2:0|3:0,0:0:0:0:
355,295,66612,37,8,2:0:0:0:
406,232,66791,1,2,2:0:0:0:
512,260,66969,1,12,3:0:0:0:
266,331,67326,1,2,2:0:0:0:
264,337,67683,1,12,3:0:0:0:
180,304,68041,1,8,2:0:0:0:
182,310,68398,1,2,2:0:0:0:
343,337,68755,5,2,2:0:0:0:
453,341,69273,2,0,P|382:335|303:345,1,109.999995231628,2|2,2:0|2:0,0:0:0:0:
453,341,70132,2,0,P|382:335|287:348,1,164.999992847443,2|2,2:0|2:0,0:0:0:0:
453,341,71057,1,2,2:0:0:0:
453,341,71566,38,0,P|382:335|288:350,1,164.999992847443,2|2,2:0|2:0,0:0:0:0:
453,341,72466,1,2,2:0:0:0:
453,341,72996,1,2,2:0:0:0:
356,237,73530,1,2,2:0:0:0:
407,112,73890,1,2,2:0:0:0:
74,62,74419,6,0,P|136:33|245:23,1,164.999992847443,2|2,2:0|2:0,0:0:0:0:
74,62,75306,1,2,2:0:0:0:
74,62,75851,2,0,P|131:38|241:24,1,164.999992847443,2|2,2:0|2:0,0:0:0:0:
74,62,76743,1,2,2:0:0:0:
74,62,77277,2,0,P|131:38|234:27,1,164.999992847443,2|0,2:0|0:0,0:0:0:0:
327,235,80215,38,0,L|162:219,1,164.999992847443,2|2,2:0|2:0,0:0:0:0:
162,219,81074,1,2,2:0:0:0:
327,235,81611,2,0,L|150:218,1,164.999992847443,2|2,2:0|2:0,0:0:0:0:
162,219,82512,1,2,2:0:0:0:
251,124,83042,5,2,2:0:0:0:
112,26,83580,1,2,2:0:0:0:
44,165,83943,2,0,P|48:105|113:25,1,164.999992847443,2|2,2:0|2:0,0:0:0:0:
111,25,85007,1,2,2:0:0:0:
44,165,85366,1,2,2:0:0:0:
139,315,85889,38,0,L|310:289,1,164.999992847443,2|2,2:0|2:0,0:0:0:0:
302,290,86773,1,2,2:0:0:0:
130,191,87288,2,0,L|309:208,1,164.999992847443,2|2,2:0|2:0,0:0:0:0:
294,206,88146,1,2,2:0:0:0:
224,54,89121,5,2,2:0:0:0:
256,192,89477,12,0,91262,0:0:0:0:
240,333,91612,38,0,P|336:282|520:264,2,263.999988555908,12|12|0,3:0|3:0|0:0,0:0:0:0:
177,374,92862,1,2,2:0:0:0:
116,317,93040,1,2,2:0:0:0:
221,201,93397,1,12,3:0:0:0:
106,91,93933,1,12,3:0:0:0:
190,12,94290,1,2,2:0:0:0:
98,1,94469,6,0,P|186:45|314:193,2,263.999988555908,12|12|12,3:0|3:0|3:0,0:0:0:0:
41,54,95719,1,0,0:0:0:0:
82,123,95897,1,2,2:0:0:0:
248,36,96254,1,12,3:0:0:0:
302,96,96612,1,8,2:0:0:0:
302,96,96790,1,2,2:0:0:0:
497,64,97326,38,0,B|522:18|442:-11|311:59|418:172,2,263.999988555908,12|12|2,3:0|3:0|2:0,0:0:0:0:
433,11,98576,1,0,0:0:0:0:
433,11,98754,1,2,2:0:0:0:
485,145,99112,1,12,3:0:0:0:
341,198,99469,1,8,2:0:0:0:
316,130,99647,1,12,3:0:0:0:
271,296,100004,1,0,0:0:0:0:
330,348,100183,6,0,P|426:311|533:308,1,175.999992370606,12|0,3:0|0:0,0:0:0:0:
380,267,100719,1,12,3:0:0:0:
445,384,100897,1,8,2:0:0:0:
490,96,101254,1,2,1:0:0:0:
490,96,101612,1,0,0:0:0:0:
468,165,101790,1,12,3:0:0:0:
502,244,101969,1,12,3:0:0:0:
278,58,102326,1,8,2:0:0:0:
265,135,102504,1,12,3:0:0:0:
239,350,103040,38,0,P|193:296|90:322,1,175.999992370606,12|0,3:0|0:0,0:0:0:0:
204,251,103576,1,12,3:0:0:0:
257,189,103754,1,8,2:0:0:0:
123,157,103933,2,0,P|73:174|30:291,1,175.999992370606,2|0,2:0|0:0,0:0:0:0:
16,100,104469,2,0,P|1:65|19:12,1,87.9999961853028,2|0,2:0|0:0,0:0:0:0:
64,182,104826,1,12,3:0:0:0:
329,155,105183,1,8,2:0:0:0:
253,212,105362,2,0,P|191:165|207:73,1,175.999992370606,12|0,3:0|0:0,0:0:0:0:
145,254,105897,6,0,P|115:303|217:341,1,175.999992370606,12|0,3:0|0:0,0:0:0:0:
27,283,106433,1,12,3:0:0:0:
70,184,106612,1,8,2:0:0:0:
70,184,106969,1,12,3:0:0:0:
70,184,107326,1,2,2:0:0:0:
32,105,107504,1,12,3:0:0:0:
63,18,107683,2,0,P|105:49|123:105,1,87.9999961853028,12|8,3:0|3:0,0:0:0:0:
185,188,108040,2,0,P|223:98|247:69,1,87.9999961853028,8|12,2:0|3:0,0:0:0:0:
340,20,108397,2,0,P|303:88|357:127,1,87.9999961853028
353,187,108754,37,12,3:0:0:0:
465,109,109290,1,12,3:0:0:0:
465,109,109469,1,8,2:0:0:0:
400,305,109826,1,0,0:0:0:0:
314,271,110183,1,2,2:0:0:0:
314,271,110540,1,12,3:0:0:0:
314,271,110897,1,8,2:0:0:0:
331,189,111076,2,0,P|287:140|237:114,1,87.9999961853028,12|0,3:0|0:0,0:0:0:0:
191,144,111433,1,0,0:0:0:0:
191,144,111612,1,12,3:0:0:0:
134,11,111969,5,2,2:0:0:0:
10,180,112326,37,8,2:0:0:0:
103,162,112683,1,12,3:0:0:0:
14,200,113219,5,12,3:0:0:0:
107,182,113397,1,12,3:0:0:0:
19,217,113933,37,12,3:0:0:0:
112,199,114111,1,2,2:0:0:0:
275,167,114469,5,2,2:0:0:0:
202,220,115183,38,0,P|149:243|152:366,1,175.999992370606,8|2,2:0|2:0,0:0:0:0:
10,245,115719,2,0,P|78:231|118:248,1,87.9999961853028,2|0,2:0|0:0,0:0:0:0:
208,306,116076,1,8,2:0:0:0:
255,153,116254,2,0,P|224:177|200:227,1,87.9999961853028,12|2,3:0|2:0,0:0:0:0:
208,306,116611,1,2,2:0:0:0:
89,241,116790,1,12,3:0:0:0:
199,215,116969,1,2,2:0:0:0:
211,317,117147,1,2,2:0:0:0:
385,72,118040,6,0,L|271:58,1,87.9999961853028,8|2,2:0|2:0,0:0:0:0:
409,55,118397,1,12,3:0:0:0:
457,141,118576,1,2,2:0:0:0:
457,141,118933,1,12,3:0:0:0:
353,261,119111,2,0,P|350:216|374:170,1,87.9999961853028,12|8,3:0|3:0,0:0:0:0:
443,331,119469,1,8,2:0:0:0:
378,371,119647,1,12,3:0:0:0:
450,339,119826,2,0,P|453:294|429:248,1,87.9999961853028,2|2,2:0|2:0,0:0:0:0:
286,195,120183,38,0,B|229:280|337:277|273:373,1,175.999992370606,12|2,3:0|2:0,0:0:0:0:
352,242,120719,1,12,3:0:0:0:
203,318,120897,2,0,P|185:274|185:214,1,87.9999961853028,8|2,2:0|2:0,0:0:0:0:
26,167,121254,1,2,2:0:0:0:
22,183,121433,2,0,P|40:227|37:360,1,175.999992370606,2|0,2:0|0:0,0:0:0:0:
169,181,121969,2,0,P|165:154|144:188,1,87.9999961853028,12|2,3:0|2:0,0:0:0:0:
261,104,122326,1,8,2:0:0:0:
197,49,122504,2,0,P|132:42|84:49,1,87.9999961853028,12|2,3:0|2:0,0:0:0:0:
236,184,122861,5,8,2:0:0:0:
476,63,123754,38,0,P|454:57|473:93,1,87.9999961853028
482,221,124111,2,0,P|509:178|428:185,1,175.999992370606
331,254,124647,2,0,P|392:197|471:224,1,175.999992370606
450,299,125183,1,0,0:0:0:0:
51,352,125897,6,0,P|47:302|29:244,1,87.9999961853028,12|2,3:0|2:0,0:0:0:0:
138,252,126254,2,0,P|142:302|160:360,1,87.9999961853028,2|12,2:0|3:0,0:0:0:0:
228,363,126611,1,8,2:0:0:0:
283,304,126790,1,2,2:0:0:0:
283,304,126969,1,2,2:0:0:0:
237,181,127147,2,0,P|297:176|391:244,1,175.999992370606,2|0,2:0|0:0,0:0:0:0:
372,323,127683,1,12,3:0:0:0:
350,165,128040,2,0,P|414:94|524:117,1,175.999992370606,8|0,2:0|0:0,0:0:0:0:
376,29,128754,37,12,3:0:0:0:
376,29,128933,1,2,2:0:0:0:
376,29,129111,1,2,2:0:0:0:
376,29,129290,1,12,3:0:0:0:
334,91,129469,1,8,2:0:0:0:
177,19,129826,5,12,3:0:0:0:
177,19,130004,1,2,2:0:0:0:
213,90,130183,1,2,2:0:0:0:
207,174,130361,1,12,3:0:0:0:
150,240,130540,2,0,P|126:206|127:139,1,87.9999961853028,12|2,3:0|2:0,0:0:0:0:
280,137,130897,1,8,2:0:0:0:
411,342,131612,37,12,3:0:0:0:
411,342,131790,1,2,2:0:0:0:
411,342,131969,1,2,2:0:0:0:
411,342,132147,1,12,3:0:0:0:
329,310,132326,1,8,2:0:0:0:
178,330,132683,5,2,2:0:0:0:
178,330,132862,1,2,2:0:0:0:
96,360,133040,1,2,2:0:0:0:
46,291,133219,1,2,2:0:0:0:
60,203,133397,2,0,P|106:229|134:260,1,87.9999961853028,12|0,3:0|0:0,0:0:0:0:
15,371,133754,1,8,2:0:0:0:
207,160,134469,38,0,B|205:127|235:91|216:55|208:97|200:117|197:124|182:100|164:64|143:101|197:126|207:160,1,175.999992370606,12|2,3:0|2:0,0:0:0:0:
251,239,135004,1,12,3:0:0:0:
295,130,135183,2,0,B|296:97|266:61|285:25|293:67|301:87|304:94|319:70|337:34|358:71|304:96|295:130,1,175.999992370606,12|2,3:0|2:0,0:0:0:0:
252,248,135719,1,12,3:0:0:0:
207,160,135897,2,0,B|205:127|235:91|216:55|208:97|200:117|197:124|182:100|164:64|143:101|197:126|207:160,1,175.999992370606,12|2,3:0|2:0,0:0:0:0:
253,257,136433,1,12,3:0:0:0:
295,130,136611,2,0,B|296:97|266:61|285:25|293:67|301:87|304:94|319:70|337:34|358:71|304:96|295:130,1,175.999992370606,12|2,3:0|2:0,0:0:0:0:
72,310,137326,5,2,2:0:0:0:
22,207,137813,1,2,2:0:0:0:
83,138,138172,1,2,2:0:0:0:
30,28,138717,1,2,2:0:0:0:
160,79,139252,1,2,2:0:0:0:
249,31,140144,37,2,2:0:0:0:
249,31,140689,2,0,P|240:84|238:165,1,109.999995231628,2|2,2:0|2:0,0:0:0:0:
237,140,141572,1,2,2:0:0:0:
237,140,142099,2,0,P|240:76|312:2,1,164.999992847443,2|2,2:0|2:0,0:0:0:0:
305,4,143013,5,2,2:0:0:0:
237,140,143540,1,2,2:0:0:0:
122,65,143887,1,2,2:0:0:0:
10,135,144427,1,2,2:0:0:0:
99,256,144941,1,2,2:0:0:0:
16,341,145861,38,0,P|86:344|139:370,1,109.999995231628,2|0,2:0|0:0,0:0:0:0:
165,343,146396,1,2,2:0:0:0:
256,369,146745,1,2,2:0:0:0:
376,306,147287,1,2,2:0:0:0:
495,378,147963,5,2,2:0:0:0:
252,359,148579,1,2,2:0:0:0:
275,262,148755,38,0,P|244:200|171:117,1,175.999992370606,12|2,3:0|2:0,0:0:0:0:
136,195,149290,2,0,P|169:234|189:274,1,87.9999961853028,12|8,3:0|2:0,0:0:0:0:
32,364,149647,2,0,P|8:321|101:265,1,175.999992370606,2|0,2:0|0:0,0:0:0:0:
139,327,150183,1,2,2:0:0:0:
139,327,150362,1,0,0:0:0:0:
49,153,150540,2,0,P|88:112|165:123,1,87.9999961853028,12|2,3:0|2:0,0:0:0:0:
205,149,150897,1,8,2:0:0:0:
37,61,151076,2,0,P|92:74|121:146,1,87.9999961853028,12|0,3:0|0:0,0:0:0:0:
133,198,151433,1,0,0:0:0:0:
275,239,151612,6,0,P|182:201|150:340,2,263.999988555908,12|12|12,3:0|3:0|3:0,0:0:0:0:
259,315,152862,1,0,0:0:0:0:
363,341,153040,1,2,2:0:0:0:
363,341,153219,1,12,3:0:0:0:
389,220,153397,1,12,3:0:0:0:
389,220,153576,1,8,3:0:0:0:
495,235,153755,2,0,P|484:278|479:321,1,87.9999961853028,8|12,2:0|3:0,0:0:0:0:
389,220,154112,2,0,P|384:176|373:133,1,87.9999961853028
447,68,154469,38,0,P|345:98|225:98,1,175.999992370606,12|2,3:0|2:0,0:0:0:0:
238,32,155005,2,0,P|197:22|156:-1,1,87.9999961853028,12|8,3:0|2:0,0:0:0:0:
73,24,155362,2,0,P|86:109|167:81,1,175.999992370606,2|0,2:0|0:0,0:0:0:0:
93,142,155897,1,2,2:0:0:0:
93,142,156076,1,0,0:0:0:0:
188,173,156255,2,0,B|139:261|128:212|75:305,1,175.999992370606,12|8,3:0|2:0,0:0:0:0:
23,244,156790,2,0,P|79:219|144:335,1,175.999992370606,12|0,3:0|0:0,0:0:0:0:
131,367,157326,6,0,L|512:382,1,351.999984741211,12|8,3:0|2:0,0:0:0:0:
482,380,158755,2,0,L|131:367,1,351.999984741211
32,42,160183,6,0,B|30:88|79:113|79:113|78:219,1,175.999992370606,12|2,3:0|2:0,0:0:0:0:
113,34,160719,1,12,3:0:0:0:
158,113,160897,1,8,2:0:0:0:
0,242,161076,2,0,P|66:289|151:253,1,175.999992370606,2|0,2:0|0:0,0:0:0:0:
341,203,161612,2,0,P|275:156|190:192,1,175.999992370606,2|12,2:0|3:0,0:0:0:0:
359,296,162147,2,0,P|425:343|510:307,2,175.999992370606,2|12|0,2:0|3:0|0:0,0:0:0:0:
423,85,163040,6,0,L|437:273,1,175.999992370606,12|0,3:0|0:0,0:0:0:0:
269,143,163576,1,12,3:0:0:0:
238,232,163755,1,8,2:0:0:0:
112,102,163933,2,0,L|126:290,1,175.999992370606,2|2,2:0|2:0,0:0:0:0:
133,368,164469,1,2,2:0:0:0:
226,303,164647,1,12,3:0:0:0:
211,365,164826,1,12,3:0:0:0:
308,325,165005,1,8,3:0:0:0:
290,361,165183,1,8,2:0:0:0:
373,375,165362,1,0,0:0:0:0:
141,300,165897,38,0,B|91:224|91:224|91:132,1,175.999992370606,12|0,3:0|0:0,0:0:0:0:
213,166,166433,1,12,3:0:0:0:
299,166,166612,1,8,2:0:0:0:
371,300,166790,2,0,B|421:224|421:224|421:132,1,175.999992370606,2|0,2:0|0:0,0:0:0:0:
222,364,167326,2,0,P|254:300|286:364,1,175.999992370606,2|12,2:0|3:0,0:0:0:0:
173,237,167862,1,2,2:0:0:0:
202,154,168040,1,8,2:0:0:0:
339,237,168219,2,0,B|308:151|308:151|308:56,1,175.999992370606,12|0,3:0|0:0,0:0:0:0:
512,217,168755,6,0,P|424:285|456:355,1,175.999992370606,12|0,3:0|0:0,0:0:0:0:
417,201,169290,1,12,3:0:0:0:
438,37,169469,2,0,P|460:74|470:116,1,87.9999961853028,8|2,2:0|2:0,0:0:0:0:
187,76,169826,2,0,P|251:28|324:75,1,175.999992370606,2|2,1:0|2:0,0:0:0:0:
256,160,170362,1,12,3:0:0:0:
256,160,170540,1,12,3:0:0:0:
176,256,170719,1,8,3:0:0:0:
336,256,170897,1,8,2:0:0:0:
256,352,171076,2,0,B|193:389|111:361|152:315|77:296|11:333,1,263.999988555908,12|12,3:0|3:0,0:0:0:0:
32,112,172147,38,0,B|78:114|103:65|103:65|209:66,1,175.999992370606,12|2,3:0|2:0,0:0:0:0:
256,112,172683,1,0,0:0:0:0:
186,55,172862,1,2,2:0:0:0:
258,122,173040,2,0,P|214:151|185:201,1,87.9999961853028,2|0,2:0|0:0,0:0:0:0:
183,258,173397,1,12,3:0:0:0:
347,322,173576,2,0,P|337:219|264:208,2,175.999992370606,2|12|0,2:0|3:0|0:0,0:0:0:0:
331,334,174469,5,12,3:0:0:0:
331,334,174647,1,2,2:0:0:0:
432,384,174826,1,2,2:0:0:0:
432,384,175004,1,12,3:0:0:0:
496,288,175183,1,8,2:0:0:0:
496,288,175361,1,2,2:0:0:0:
400,240,175540,1,12,3:0:0:0:
432,160,175718,1,2,2:0:0:0:
481,87,175897,38,0,P|408:77|368:102,1,87.9999961853028,2|12,2:0|3:0,0:0:0:0:
375,0,176255,2,0,P|316:44|305:90,1,87.9999961853028,12|8,3:0|3:0,0:0:0:0:
396,89,176612,1,8,2:0:0:0:
234,73,176790,2,0,P|335:82|410:224,1,263.999988555908,12|12,3:0|3:0,0:0:0:0:
288,352,177862,6,0,P|294:311|311:254,1,87.9999961853028,12|8,3:0|2:0,0:0:0:0:
203,341,178219,2,0,P|209:300|226:243,1,87.9999961853028,2|0,2:0|0:0,0:0:0:0:
372,326,178576,1,2,2:0:0:0:
221,240,178755,2,0,B|174:206|123:233|153:246|99:267|51:247,1,175.999992370606,2|12,2:0|3:0,0:0:0:0:
19,163,179290,2,0,L|56:398,1,175.999992370606,2|12,2:0|3:0,0:0:0:0:
128,16,180183,37,12,3:0:0:0:
208,112,180362,1,2,2:0:0:0:
256,32,180540,1,2,2:0:0:0:
304,112,180719,1,12,3:0:0:0:
384,16,180897,2,0,L|448:16,1,43.9999980926514,8|2,2:0|2:0,0:0:0:0:
128,16,181255,2,0,L|64:16,1,43.9999980926514,12|0,3:0|0:0,0:0:0:0:
192,128,181612,5,2,2:0:0:0:
320,128,181790,1,12,3:0:0:0:
256,240,181969,1,12,3:0:0:0:
256,240,182147,1,8,3:0:0:0:
165,222,182326,2,0,P|252:143|345:230,1,263.999988555908,8|2,2:0|2:0,0:0:0:0:
256,324,183039,1,2,2:0:0:0:
196,253,188755,37,12,3:0:0:0:
112,225,188933,1,2,2:0:0:0:
112,137,189112,1,2,2:0:0:0:
196,110,189290,1,12,3:0:0:0:
247,181,189469,2,0,B|314:244|350:150|416:222,1,175.999992370606,8|2,2:0|2:0,0:0:0:0:
309,115,190005,2,0,P|376:106|402:111,1,87.9999961853028,2|0,2:0|0:0,0:0:0:0:
479,158,190362,1,2,2:0:0:0:
409,215,190540,1,12,3:0:0:0:
209,104,190897,2,0,P|201:74|201:12,1,87.9999961853028,8|12,2:0|3:0,0:0:0:0:
217,111,191255,1,0,0:0:0:0:
333,200,191612,5,12,3:0:0:0:
417,228,191790,1,2,2:0:0:0:
417,316,191969,1,2,2:0:0:0:
333,343,192147,1,12,3:0:0:0:
282,272,192326,2,0,B|215:209|179:303|113:231,1,175.999992370606,8|2,2:0|1:0,0:0:0:0:
228,329,192862,1,2,2:0:0:0:
177,174,193040,2,0,P|216:165|272:175,1,87.9999961853028,2|12,2:0|3:0,0:0:0:0:
106,233,193397,2,0,P|94:271|57:314,1,87.9999961853028,12|8,3:0|3:0,0:0:0:0:
101,224,193755,1,8,2:0:0:0:
42,25,193933,2,0,P|59:95|128:183,1,175.999992370606,12|0,3:0|0:0,0:0:0:0:
307,178,194469,38,0,B|363:107|268:87|320:3,1,175.999992370606,12|2,3:0|2:0,0:0:0:0:
235,127,195005,1,12,3:0:0:0:
389,50,195183,2,0,P|407:93|398:162,1,87.9999961853028,8|2,2:0|2:0,0:0:0:0:
448,279,195540,2,0,P|468:240|505:205,1,87.9999961853028,2|2,2:0|2:0,0:0:0:0:
293,234,195897,2,0,P|345:215|383:211,1,87.9999961853028,0|2,0:0|2:0,0:0:0:0:
304,114,196255,1,12,3:0:0:0:
239,339,196612,1,8,2:0:0:0:
181,257,196790,2,0,P|107:198|17:207,1,175.999992370606,12|0,3:0|0:0,0:0:0:0:
158,78,197326,6,0,P|148:139|125:184,1,87.9999961853028,12|2,3:0|2:0,0:0:0:0:
147,61,197683,1,2,2:0:0:0:
147,61,197862,1,12,3:0:0:0:
54,12,198040,2,0,P|149:77|315:84,1,263.999988555908,8|2,2:0|2:0,0:0:0:0:
368,32,198755,1,2,2:0:0:0:
368,32,198933,1,12,3:0:0:0:
448,64,199112,1,12,3:0:0:0:
294,185,199290,2,0,L|304:96,1,87.9999961853028,8|8,3:0|2:0,0:0:0:0:
480,144,199647,1,12,3:0:0:0:
289,293,200183,38,0,P|336:265|389:254,1,87.9999961853028,12|2,3:0|2:0,0:0:0:0:
512,368,200540,2,0,P|470:354|433:331,1,87.9999961853028,2|12,2:0|3:0,0:0:0:0:
376,246,200897,1,8,2:0:0:0:
455,214,201076,1,2,2:0:0:0:
298,286,201255,2,0,P|249:217|58:198,1,263.999988555908,2|0,2:0|0:0,0:0:0:0:
26,245,201969,1,12,3:0:0:0:
26,245,202147,1,2,2:0:0:0:
94,289,202326,1,8,2:0:0:0:
13,371,202505,1,12,3:0:0:0:
256,192,203040,12,0,205183,0:0:0:0:
206,334,205897,38,0,P|159:271|58:286,1,175.999992370606,12|2,3:0|2:0,0:0:0:0:
175,222,206433,1,12,3:0:0:0:
130,102,206612,2,0,P|104:137|83:191,1,87.9999961853028,8|2,2:0|2:0,0:0:0:0:
144,93,206969,1,0,0:0:0:0:
250,370,207326,2,0,B|312:330|234:278|314:213,1,175.999992370606,2|12,2:0|3:0,0:0:0:0:
190,303,207862,1,2,2:0:0:0:
219,224,208040,1,8,2:0:0:0:
311,215,208219,2,0,P|236:232|165:142,1,175.999992370606,12|0,3:0|0:0,0:0:0:0:
346,302,208755,38,0,P|421:285|492:375,1,175.999992370606,12|2,3:0|2:0,0:0:0:0:
395,232,209290,1,12,3:0:0:0:
342,337,209469,2,0,L|233:324,1,87.9999961853028,8|2,2:0|2:0,0:0:0:0:
147,355,209826,2,0,L|39:341,1,87.9999961853028,12|2,3:0|2:0,0:0:0:0:
157,350,210183,1,2,2:0:0:0:
15,244,210362,1,12,3:0:0:0:
21,236,210540,2,0,P|74:238|117:267,1,87.9999961853028,12|8,3:0|3:0,0:0:0:0:
225,235,210897,1,8,2:0:0:0:
183,151,211075,2,0,P|219:189|222:311,1,175.999992370606,12|0,3:0|0:0,0:0:0:0:
319,161,211612,38,0,P|282:122|280:1,1,175.999992370606,12|2,3:0|2:0,0:0:0:0:
412,163,212147,1,12,3:0:0:0:
387,259,212326,2,0,P|387:229|409:159,1,87.9999961853028,8|2,2:0|2:0,0:0:0:0:
489,19,212683,2,0,P|489:49|467:119,1,87.9999961853028
379,268,213040,1,2,2:0:0:0:
389,171,213219,1,2,2:0:0:0:
466,114,213397,1,12,3:0:0:0:
468,355,213755,1,8,2:0:0:0:
456,360,213933,2,0,L|346:340,1,87.9999961853028,12|2,3:0|2:0,0:0:0:0:
202,365,214290,1,2,2:0:0:0:
191,371,214469,38,0,L|81:351,1,87.9999961853028,12|2,3:0|2:0,0:0:0:0:
29,274,214826,1,2,2:0:0:0:
98,200,215005,1,12,3:0:0:0:
87,104,215183,1,8,2:0:0:0:
157,34,215362,1,2,2:0:0:0:
18,53,215540,38,0,L|320:92,1,263.999988555908,2|12,1:0|3:0,0:0:0:0:
368,112,216255,1,12,3:0:0:0:
432,48,216433,1,8,3:0:0:0:
288,94,216612,1,8,2:0:0:0:
288,94,216790,1,12,3:0:0:0:
224,224,216969,1,2,2:0:0:0:
224,224,217147,1,2,2:0:0:0:
382,288,217326,2,0,P|348:191|231:268,1,263.999988555908,12|12,3:0|3:0,0:0:0:0:
240,330,218040,38,0,L|336:350,2,87.9999961853028,8|2|2,2:0|2:0|2:0,0:0:0:0:
159,292,218576,2,0,P|70:322|9:383,1,175.999992370606,2|2,2:0|2:0,0:0:0:0:
90,368,219112,1,12,3:0:0:0:
32,112,219469,1,8,2:0:0:0:
96,144,219647,1,12,3:0:0:0:
144,80,219826,1,2,2:0:0:0:
208,128,220005,2,0,L|306:110,1,87.9999961853028,2|12,2:0|3:0,0:0:0:0:
380,298,221790,6,0,L|151:275,1,175.999992370606,12|8,3:0|3:0,0:0:0:0:
92,267,222326,1,8,2:0:0:0:
134,344,222505,1,12,3:0:0:0:
200,287,222683,1,2,2:0:0:0:
158,213,222862,1,2,2:0:0:0:
496,128,223755,37,8,2:0:0:0:
432,96,223933,1,2,2:0:0:0:
384,160,224112,1,2,2:0:0:0:
320,112,224291,2,0,L|222:130,1,87.9999961853028,2|0,2:0|0:0,0:0:0:0:
0,2,225897,6,0,P|63:21|97:49,1,87.9999961853028,12|2,3:0|2:0,0:0:0:0:
177,32,226255,2,0,P|208:89|212:133,1,87.9999961853028,2|12,2:0|3:0,0:0:0:0:
327,134,226612,2,0,P|292:189|256:215,1,87.9999961853028,8|2,2:0|2:0,0:0:0:0:
288,322,226969,2,0,P|225:303|191:275,1,87.9999961853028,12|2,3:0|2:0,0:0:0:0:
99,282,227326,2,0,P|118:219|146:185,1,87.9999961853028,2|12,2:0|3:0,0:0:0:0:
256,192,227683,1,12,3:0:0:0:
256,192,228755,12,0,240183,0:0:0:0:
