osu file format v14

[General]
AudioFilename: audio.mp3
AudioLeadIn: 0
PreviewTime: 40980
Countdown: 0
SampleSet: Soft
StackLeniency: 0.4
Mode: 0
LetterboxInBreaks: 0
WidescreenStoryboard: 0

[Editor]
DistanceSpacing: 2.3
BeatDivisor: 4
GridSize: 32
TimelineZoom: 2

[Metadata]
Title:Legends
TitleUnicode:Legends
Artist:Juice WRLD
ArtistUnicode:Juice WRLD
Creator:Smoke
Version:Paranoia
Source:
Tags:rap hip hop world english Tribute Lil Peep XXXTentacion hip-hop
BeatmapID:2481605
BeatmapSetID:1191018

[Difficulty]
HPDrainRate:5.2
CircleSize:4.3
OverallDifficulty:8
ApproachRate:8.5
SliderMultiplier:1.6
SliderTickRate:1

[Events]
//Background and Video events
0,0,"edgy anime boy 1080p.jpg",0,0
//Break Periods
2,67900,79631
2,135505,147267
//Storyboard Layer 0 (Background)
//Storyboard Layer 1 (Fail)
//Storyboard Layer 2 (Pass)
//Storyboard Layer 3 (Foreground)
//Storyboard Layer 4 (Overlay)
//Storyboard Sound Samples

[TimingPoints]
95,845.070422535211,4,2,1,35,1,0
95,-100,4,2,1,35,0,0
13616,-50,4,2,1,80,0,0
67700,-71.4285714285714,4,2,1,70,0,0
81221,-50,4,2,1,80,0,0
104883,-62.5,4,2,1,60,0,0
108263,-55.5555555555556,4,2,1,70,0,0
135306,-71.4285714285714,4,2,1,40,0,0
148827,-50,4,2,1,80,0,0
175869,-71.4285714285714,4,2,1,70,0,0

[Colours]
Combo1 : 121,69,231
Combo2 : 23,156,236
Combo3 : 174,123,230
Combo4 : 41,183,224

[HitObjects]
171,133,13616,5,6,3:2:0:0:
196,255,13827,1,2,0:0:0:0:
168,120,14038,1,2,0:0:0:0:
197,265,14249,1,2,0:0:0:0:
246,98,14461,5,10,0:0:0:0:
133,197,14672,1,2,0:0:0:0:
257,87,14883,1,2,3:2:0:0:
123,204,15094,1,2,0:0:0:0:
326,148,15306,5,2,0:0:0:0:
162,92,15517,1,2,0:0:0:0:
343,152,15728,1,2,3:2:0:0:
150,86,15939,1,2,0:0:0:0:
332,246,16151,5,10,0:0:0:0:
295,59,16362,1,2,0:0:0:0:
337,264,16573,1,2,0:0:0:0:
294,45,16784,1,2,0:0:0:0:
207,311,16996,6,0,B|260:295|295:327|271:333|312:364|362:345,1,160,6|0,3:2|0:0,0:0:0:0:
512,257,17630,1,0,0:0:0:0:
387,174,17841,2,0,P|400:217|410:263,1,80,8|0,0:0|0:0,0:0:0:0:
512,111,18263,2,0,P|484:92|429:98,1,80,2|0,3:2|0:0,0:0:0:0:
288,146,18686,6,0,P|260:137|207:125,1,80,2|0,0:0|0:0,0:0:0:0:
338,9,19108,2,0,P|354:39|350:86,1,80,2|0,3:2|0:0,0:0:0:0:
236,219,19531,1,10,0:0:0:0:
213,38,19742,2,0,L|210:6,2,20
372,187,19954,2,0,L|368:220,2,20
157,238,20165,1,2,0:0:0:0:
307,111,20376,5,6,3:2:0:0:
185,136,20587,1,2,0:0:0:0:
320,108,20798,1,2,0:0:0:0:
175,137,21009,1,2,0:0:0:0:
342,186,21221,5,10,0:0:0:0:
243,73,21432,1,2,0:0:0:0:
353,197,21643,1,2,3:2:0:0:
236,63,21854,1,2,0:0:0:0:
292,266,22066,5,2,0:0:0:0:
348,102,22277,1,2,0:0:0:0:
288,283,22488,1,2,3:2:0:0:
354,90,22699,1,2,0:0:0:0:
194,272,22911,5,10,0:0:0:0:
381,235,23122,1,2,0:0:0:0:
176,277,23333,1,2,0:0:0:0:
395,234,23544,1,2,0:0:0:0:
112,124,23756,6,0,P|66:171|93:257,2,160,6|2|8,3:2|0:0|0:0,0:0:0:0:
281,78,24813,1,0,3:2:0:0:
168,0,25024,2,0,P|180:37|196:97,1,80,2|0,3:2|0:0,0:0:0:0:
284,241,25446,6,0,P|293:207|308:161,1,80,2|0,0:0|0:0,0:0:0:0:
446,28,25869,1,2,3:2:0:0:
281,78,26080,1,2,0:0:0:0:
433,178,26292,2,0,P|443:211|456:256,1,80,10|0,0:0|0:0,0:0:0:0:
381,293,26608,2,0,P|371:326|361:350,1,40,2|0,0:0|3:2,0:0:0:0:
438,384,26820,1,2,3:2:0:0:
438,384,26925,1,0,3:2:0:0:
256,299,27137,6,0,P|219:294|159:324,1,80,6|0,3:2|0:0,0:0:0:0:
61,384,27559,2,0,P|83:354|85:286,1,80,2|0,0:0|0:0,0:0:0:0:
0,177,27982,2,0,P|12:212|24:261,1,80,8|0,0:0|0:0,0:0:0:0:
124,114,28404,2,0,B|91:91|91:91|37:109,1,80,2|0,3:2|0:0,0:0:0:0:
176,229,28827,6,0,P|185:195|199:153,1,80,2|0,0:0|0:0,0:0:0:0:
343,84,29249,1,2,3:2:0:0:
343,84,29355,1,2,0:0:0:0:
343,84,29461,1,2,0:0:0:0:
224,3,29672,2,0,P|235:36|249:84,1,80,10|0,0:0|0:0,0:0:0:0:
283,211,30094,1,2,0:0:0:0:
120,114,30306,1,2,0:0:0:0:
317,0,30517,6,0,P|356:-4|411:32,1,80,2|0,3:2|0:0,0:0:0:0:
489,138,30939,2,0,P|499:99|512:61,1,80,2|2,0:0|0:0,0:0:0:0:
343,132,31362,2,0,P|355:169|366:208,1,80,8|0,0:0|0:0,0:0:0:0:
493,306,31785,2,0,B|459:285|459:285|420:300,1,80,2|0,3:2|0:0,0:0:0:0:
285,372,32207,6,0,P|295:333|308:295,1,80,2|0,0:0|0:0,0:0:0:0:
172,176,32630,2,0,P|184:213|195:252,1,80,2|0,3:2|0:0,0:0:0:0:
26,362,33052,1,10,0:0:0:0:
84,202,33263,2,0,L|78:171,2,20
173,342,33475,2,0,L|167:373,2,20,2|0|0,0:0|0:0|0:0,0:0:0:0:
15,270,33686,1,2,0:0:0:0:
172,176,33897,6,0,P|211:172|262:209,1,80,2|0,3:2|0:0,0:0:0:0:
365,268,34320,2,0,P|387:197|419:103,2,160,2|8|2,0:0|0:0|3:2,0:0:0:0:
140,364,35587,6,0,P|130:322|116:276,1,80,2|2,0:0|0:0,0:0:0:0:
21,168,36010,2,0,P|9:206|0:245,1,80,2|2,3:2|0:0,0:0:0:0:
218,151,36432,2,0,P|156:90|69:120,1,160,8|2,0:0|0:0,0:0:0:0:
90,101,37277,6,0,P|132:107|181:81,1,80,2|2,3:2|0:0,0:0:0:0:
308,8,37700,2,0,P|281:41|279:96,1,80,2|2,0:0|0:0,0:0:0:0:
419,178,38123,2,0,P|431:136|446:91,1,80,8|0,0:0|0:0,0:0:0:0:
236,175,38545,2,0,P|248:213|259:251,1,80,2|0,3:2|0:0,0:0:0:0:
300,384,38968,5,2,0:0:0:0:
179,323,39179,1,2,0:0:0:0:
366,266,39390,2,0,P|404:263|447:293,1,80,2|0,3:2|0:0,0:0:0:0:
300,384,39813,1,10,0:0:0:0:
346,176,40024,2,0,L|352:145,2,20,2|0|0,0:0|0:0|0:0,0:0:0:0:
499,360,40235,1,2,3:2:0:0:
499,360,40341,1,0,3:2:0:0:
499,360,40446,1,0,3:2:0:0:
259,251,40658,6,0,P|221:248|178:278,1,80,4|0,3:2|0:0,0:0:0:0:
84,355,41080,1,2,0:0:0:0:
143,181,41292,1,2,0:0:0:0:
297,364,41503,1,10,0:0:0:0:
229,166,41714,1,2,0:0:0:0:
84,355,41925,1,2,3:2:0:0:
311,266,42137,1,2,0:0:0:0:
48,139,42348,6,0,P|61:181|71:227,1,80,2|0,0:0|0:0,0:0:0:0:
183,346,42770,2,0,P|192:307|204:268,1,80,2|0,3:2|0:0,0:0:0:0:
321,109,43193,2,0,P|330:147|342:186,1,80,10|0,0:0|0:0,0:0:0:0:
481,321,43616,1,2,0:0:0:0:
274,230,43827,1,2,0:0:0:0:
498,131,44038,6,0,P|456:126|417:156,1,80,0|0,3:2|0:0,0:0:0:0:
295,313,44461,1,2,0:0:0:0:
221,117,44672,1,2,0:0:0:0:
406,271,44883,1,10,0:0:0:0:
406,271,44989,1,2,0:0:0:0:
406,271,45094,1,2,0:0:0:0:
185,363,45306,2,0,P|172:323|157:285,1,80,2|0,3:2|0:0,0:0:0:0:
76,140,45728,5,2,0:0:0:0:
250,250,45939,1,2,0:0:0:0:
13,380,46151,2,0,P|28:315|56:221,1,160,2|8,3:2|0:0,0:0:0:0:
21,49,46785,2,0,L|15:18,2,20
147,185,46996,2,0,L|141:216,2,20,2|0|0,0:0|0:0|0:0,0:0:0:0:
180,28,47207,1,0,0:0:0:0:
1,156,47418,6,0,P|39:139|98:151,1,80,2|0,3:2|0:0,0:0:0:0:
263,235,47841,1,2,0:0:0:0:
144,78,48052,1,2,0:0:0:0:
168,284,48263,1,10,0:0:0:0:
251,106,48475,1,2,0:0:0:0:
54,228,48686,2,0,P|40:265|29:304,1,80,2|0,3:2|0:0,0:0:0:0:
279,378,49108,6,0,P|277:338|253:302,1,80,2|0,0:0|0:0,0:0:0:0:
138,172,49531,2,0,P|173:190|216:187,1,80,2|0,3:2|0:0,0:0:0:0:
384,149,49954,2,0,P|350:170|331:209,1,80,10|0,0:0|0:0,0:0:0:0:
279,378,50376,1,2,0:0:0:0:
212,188,50587,1,2,0:0:0:0:
409,316,50799,6,0,P|449:304|504:293,1,80,0|0,3:2|0:0,0:0:0:0:
279,378,51221,1,2,0:0:0:0:
331,204,51432,1,2,0:0:0:0:
486,384,51644,1,10,0:0:0:0:
425,193,51855,1,2,0:0:0:0:
279,378,52066,1,2,3:2:0:0:
486,295,52277,1,2,0:0:0:0:
251,192,52489,5,2,0:0:0:0:
389,369,52700,1,2,0:0:0:0:
511,128,52911,2,0,P|434:111|337:90,1,160,2|8,3:2|0:0,0:0:0:0:
251,192,53545,2,0,L|245:223,2,20
437,199,53756,2,0,P|398:190|335:178,1,80,2|0,0:0|0:0,0:0:0:0:
135,59,54179,6,0,B|174:106|174:106|147:214,1,160,2|2,3:2|0:0,0:0:0:0:
106,357,54813,1,0,0:0:0:0:
0,243,55024,2,0,L|83:267,1,80,8|0,0:0|0:0,0:0:0:0:
203,340,55446,2,0,L|286:316,1,80,0|0,3:2|0:0,0:0:0:0:
339,138,55869,6,0,P|313:170|316:232,1,80,2|2,0:0|0:0,0:0:0:0:
341,246,56186,1,2,0:0:0:0:
341,246,56292,2,0,P|367:278|364:340,1,80,2|2,3:2|0:0,0:0:0:0:
143,384,56714,1,10,0:0:0:0:
206,181,56925,1,2,0:0:0:0:
279,317,57137,2,0,L|196:293,1,80,2|0,0:0|0:0,0:0:0:0:
24,337,57559,6,0,P|48:309|55:255,1,80,0|0,3:2|0:0,0:0:0:0:
6,85,57982,1,2,0:0:0:0:
6,85,58193,2,0,P|18:119|61:152,1,80,2|8,0:0|0:0,0:0:0:0:
231,125,58616,1,0,0:0:0:0:
159,0,58827,2,0,P|143:40|133:75,1,80,0|0,3:2|0:0,0:0:0:0:
204,226,59249,5,2,0:0:0:0:
333,102,59461,2,0,P|379:98|415:124,1,80,2|0,0:0|3:2,0:0:0:0:
512,203,59883,1,2,0:0:0:0:
462,25,60094,1,10,0:0:0:0:
356,184,60306,2,0,L|350:215,2,20,2|0|0,0:0|0:0|0:0,0:0:0:0:
504,121,60517,2,0,L|498:90,2,20,2|0|0,0:0|0:0|0:0,0:0:0:0:
314,21,60728,1,2,0:0:0:0:
433,205,60939,6,0,P|423:248|415:296,1,80,2|2,3:2|0:0,0:0:0:0:
253,358,61362,2,0,P|245:318|236:279,1,80,2|2,0:0|0:0,0:0:0:0:
114,126,61785,1,10,0:0:0:0:
282,172,61996,1,2,0:0:0:0:
92,310,62207,1,2,3:2:0:0:
320,255,62418,1,2,0:0:0:0:
114,126,62630,6,0,P|93:162|97:210,1,80,2|2,0:0|0:0,0:0:0:0:
292,75,63052,2,0,P|291:35|271:1,1,80,2|2,3:2|0:0,0:0:0:0:
177,187,63475,1,10,0:0:0:0:
383,98,63686,1,2,0:0:0:0:
165,45,63897,2,0,P|127:35|85:27,1,80,2|2,0:0|0:0,0:0:0:0:
320,197,64320,5,2,3:2:0:0:
271,1,64531,1,2,0:0:0:0:
130,220,64742,1,2,0:0:0:0:
165,45,64953,1,2,0:0:0:0:
320,197,65165,1,10,0:0:0:0:
161,136,65376,1,2,0:0:0:0:
351,68,65587,2,0,P|391:68|438:104,1,80,2|0,3:2|0:0,0:0:0:0:
490,227,66010,6,0,P|499:191|516:142,1,80,2|0,0:0|0:0,0:0:0:0:
273,28,66432,1,2,3:2:0:0:
406,176,66644,1,2,0:0:0:0:
222,260,66855,1,10,0:0:0:0:
292,135,67066,1,2,0:0:0:0:
435,298,67277,2,0,P|399:273|345:281,1,80,2|0,0:0|0:0,0:0:0:0:
141,353,67700,5,2,0:0:0:0:
256,192,80376,5,8,0:0:0:0:
220,266,81221,5,6,3:2:0:0:
246,112,81432,1,2,0:0:0:0:
315,252,81644,1,2,0:0:0:0:
178,178,81855,1,2,0:0:0:0:
344,150,82066,5,10,0:0:0:0:
214,279,82277,1,2,0:0:0:0:
245,98,82489,1,2,3:2:0:0:
322,264,82700,1,2,0:0:0:0:
152,168,82911,5,2,0:0:0:0:
357,135,83123,1,2,0:0:0:0:
208,294,83334,1,2,3:2:0:0:
243,80,83545,1,2,0:0:0:0:
333,284,83756,5,10,0:0:0:0:
138,162,83968,1,2,0:0:0:0:
366,123,84179,1,2,0:0:0:0:
203,304,84390,1,2,0:0:0:0:
241,63,84601,6,0,B|288:25|288:25|401:53,1,160,6|0,3:2|0:0,0:0:0:0:
512,82,85235,1,0,0:0:0:0:
398,199,85446,2,0,P|358:207|307:177,1,80,8|0,0:0|0:0,0:0:0:0:
241,63,85869,2,0,P|226:108|209:155,1,80,2|0,3:2|0:0,0:0:0:0:
96,222,86292,6,0,P|84:183|70:146,1,80,2|0,0:0|0:0,0:0:0:0:
252,273,86714,2,0,P|223:291|166:284,1,80,2|0,3:2|0:0,0:0:0:0:
70,146,87137,1,10,0:0:0:0:
106,340,87348,2,0,L|112:371,2,20
256,192,87559,2,0,L|262:161,2,20
91,254,87770,1,2,0:0:0:0:
339,191,87982,5,6,3:2:0:0:
192,136,88193,1,2,0:0:0:0:
279,266,88405,1,2,0:0:0:0:
283,110,88616,1,2,0:0:0:0:
176,240,88827,5,10,0:0:0:0:
353,192,89038,1,2,0:0:0:0:
181,128,89250,1,2,3:2:0:0:
286,278,89461,1,2,0:0:0:0:
288,83,89672,5,2,0:0:0:0:
157,244,89884,1,2,0:0:0:0:
369,194,90095,1,2,3:2:0:0:
166,117,90306,1,2,0:0:0:0:
298,297,90517,5,10,0:0:0:0:
289,67,90729,1,2,0:0:0:0:
142,245,90940,1,2,0:0:0:0:
380,195,91151,1,2,0:0:0:0:
152,107,91362,6,0,B|110:86|60:113|91:118|43:149|0:126,2,160,6|2|8,3:2|0:0|0:0,0:0:0:0:
299,184,92418,1,0,3:2:0:0:
205,35,92630,2,0,P|233:67|237:109,1,80,2|0,3:2|0:0,0:0:0:0:
83,251,93052,6,0,P|96:209|131:185,1,80,2|0,0:0|0:0,0:0:0:0:
311,298,93475,1,2,3:2:0:0:
139,329,93686,1,2,0:0:0:0:
290,203,93897,2,0,P|328:209|396:226,1,80,10|0,0:0|0:0,0:0:0:0:
429,275,94214,2,0,P|452:272|485:264,1,40,2|0,0:0|3:2,0:0:0:0:
512,199,94425,1,2,3:2:0:0:
512,199,94531,1,0,3:2:0:0:
311,298,94742,6,0,P|271:289|232:282,1,80,6|0,3:2|0:0,0:0:0:0:
180,156,95165,2,0,P|219:147|258:140,1,80,2|0,0:0|0:0,0:0:0:0:
109,29,95587,2,0,P|84:61|85:107,1,80,8|0,0:0|0:0,0:0:0:0:
127,248,96010,2,0,P|111:210|71:188,1,80,2|0,3:2|0:0,0:0:0:0:
0,365,96432,6,0,P|39:356|78:349,1,80,2|0,0:0|0:0,0:0:0:0:
233,288,96855,1,2,3:2:0:0:
233,288,96961,1,2,0:0:0:0:
233,288,97066,1,2,0:0:0:0:
79,189,97277,2,0,P|112:210|126:247,1,80,10|0,0:0|0:0,0:0:0:0:
159,384,97700,1,2,0:0:0:0:
46,268,97911,1,2,0:0:0:0:
231,194,98123,6,0,P|271:202|321:215,1,80,2|0,3:2|0:0,0:0:0:0:
460,291,98545,2,0,P|421:300|382:308,1,80,2|2,0:0|0:0,0:0:0:0:
458,133,98968,2,0,B|486:165|486:165|478:201,1,80,8|0,0:0|0:0,0:0:0:0:
314,42,99390,2,0,P|292:73|293:132,1,80,2|0,3:2|0:0,0:0:0:0:
512,55,99813,6,0,P|471:46|422:34,1,80,2|0,0:0|0:0,0:0:0:0:
288,114,100235,2,0,P|247:122|198:135,1,80,2|0,3:2|0:0,0:0:0:0:
48,56,100658,1,10,0:0:0:0:
128,217,100869,2,0,L|134:247,2,20
161,43,101080,2,0,L|167:12,2,20,2|0|0,0:0|0:0|0:0,0:0:0:0:
31,177,101292,1,2,0:0:0:0:
210,131,101503,6,0,P|249:132|289:167,1,80,2|0,3:2|0:0,0:0:0:0:
236,294,101925,2,0,P|217:259|227:207,1,80,2|0,0:0|0:0,0:0:0:0:
353,92,102348,2,0,P|363:133|376:178,1,80,8|0,0:0|0:0,0:0:0:0:
477,272,102770,2,0,P|486:232|497:194,1,80,2|0,3:2|0:0,0:0:0:0:
299,240,103193,5,2,0:0:0:0:
428,336,103404,1,2,0:0:0:0:
238,384,103616,2,0,P|202:374|152:361,1,80,2|2,3:2|0:0,0:0:0:0:
41,215,104038,2,0,B|69:264|69:264|37:363,1,160,8|2,0:0|0:0,0:0:0:0:
37,362,104883,6,0,B|34:327|34:327|62:302,1,64,2|0,0:0|0:0,0:0:0:0:
148,245,105306,1,2,0:0:0:0:
148,245,105517,2,0,P|124:144|103:29,1,192,2|2,0:0|0:0,0:0:0:0:
107,57,106573,6,0,P|139:53|172:72,1,64,2|2,0:0|0:0,0:0:0:0:
255,149,106996,2,0,P|316:137|390:125,2,128,2|10|2,0:0|0:0|0:0,0:0:0:0:
255,149,108263,5,0,3:2:0:0:
276,17,108475,2,0,L|282:-16,2,17.9999994506836
380,126,108686,2,0,P|385:165|364:202,1,71.9999978027344,2|0,0:0|0:0,0:0:0:0:
198,230,109108,2,0,P|238:239|284:252,1,71.9999978027344,8|0,0:0|0:0,0:0:0:0:
393,315,109531,2,0,P|353:324|307:337,1,71.9999978027344,2|0,3:2|0:0,0:0:0:0:
199,361,109954,2,0,B|154:325|154:325|56:342,1,143.999995605469,2|0,0:0|3:2,0:0:0:0:
69,340,110799,2,0,P|56:303|70:260,1,71.9999978027344,10|0,0:0|0:0,0:0:0:0:
10,141,111221,6,0,B|55:177|55:177|153:160,1,143.999995605469,2|0,0:0|3:2,0:0:0:0:
140,162,112066,2,0,L|213:149,1,71.9999978027344,2|0,0:0|0:0,0:0:0:0:
108,20,112489,2,0,P|85:47|86:103,1,71.9999978027344,8|0,0:0|0:0,0:0:0:0:
294,128,112911,2,0,P|282:94|233:67,1,71.9999978027344,2|0,3:2|0:0,0:0:0:0:
137,251,113334,2,0,L|210:238,1,71.9999978027344,2|0,0:0|0:0,0:0:0:0:
384,286,113756,1,0,3:2:0:0:
274,381,113968,2,0,L|287:308,1,71.9999978027344,2|8,0:0|0:0,0:0:0:0:
308,168,114390,2,0,L|303:137,2,17.9999994506836
476,298,114601,2,0,L|463:225,1,71.9999978027344,2|0,0:0|0:0,0:0:0:0:
491,62,115024,6,0,P|439:44|371:98,2,143.999995605469,0|2|8,3:2|0:0|0:0,0:0:0:0:
491,62,116292,2,0,P|455:45|415:52,1,71.9999978027344,2|0,3:2|0:0,0:0:0:0:
240,132,116714,2,0,P|230:96|214:54,1,71.9999978027344,2|0,0:0|0:0,0:0:0:0:
53,18,117137,1,0,3:2:0:0:
53,18,117559,2,0,P|32:46|31:86,1,71.9999978027344,10|0,0:0|0:0,0:0:0:0:
141,206,117982,2,0,P|127:173|92:152,1,71.9999978027344,2|0,0:0|0:0,0:0:0:0:
0,310,118404,6,0,P|34:302|94:294,1,71.9999978027344,0|0,3:2|0:0,0:0:0:0:
211,219,118827,2,0,P|175:213|140:205,1,71.9999978027344,2|0,0:0|0:0,0:0:0:0:
268,344,119249,1,8,0:0:0:0:
268,344,119672,2,0,B|286:312|286:312|271:271,1,71.9999978027344,0|0,3:2|0:0,0:0:0:0:
202,131,120094,2,0,P|233:149|267:147,1,71.9999978027344,2|0,0:0|0:0,0:0:0:0:
408,82,120517,1,0,3:2:0:0:
298,7,120728,2,0,P|297:42|316:71,1,71.9999978027344,2|8,0:0|0:0,0:0:0:0:
472,153,121151,2,0,L|477:122,2,17.9999994506836
341,242,121362,2,0,P|348:205|360:155,1,71.9999978027344,2|0,0:0|0:0,0:0:0:0:
512,302,121785,6,0,P|457:283|396:338,2,143.999995605469,0|0|8,3:2|0:0|0:0,0:0:0:0:
512,302,123052,2,0,P|491:288|425:296,1,71.9999978027344,2|0,3:2|0:0,0:0:0:0:
301,368,123475,2,0,P|294:334|281:286,1,71.9999978027344,2|0,0:0|0:0,0:0:0:0:
330,167,123897,1,0,3:2:0:0:
180,268,124108,2,0,P|187:234|200:186,1,71.9999978027344,2|8,0:0|0:0,0:0:0:0:
111,69,124531,1,0,0:0:0:0:
249,132,124742,2,0,P|217:113|162:123,1,71.9999978027344,2|0,0:0|0:0,0:0:0:0:
39,189,125165,6,0,P|55:267|69:339,2,143.999995605469,0|2|10,3:2|0:0|0:0,0:0:0:0:
162,112,126221,1,2,0:0:0:0:
85,10,126432,2,0,P|71:51|61:99,1,71.9999978027344,2|0,3:2|0:0,0:0:0:0:
139,200,126855,2,0,P|173:203|224:173,1,71.9999978027344,2|0,0:0|0:0,0:0:0:0:
317,109,127277,1,0,3:2:0:0:
186,47,127489,2,0,P|166:74|166:134,1,71.9999978027344,2|8,0:0|0:0,0:0:0:0:
302,203,127911,2,0,L|307:234,2,17.9999994506836
406,94,128122,2,0,P|441:103|493:113,1,71.9999978027344,2|0,0:0|0:0,0:0:0:0:
372,284,128545,6,0,P|446:267|520:253,2,143.999995605469,0|2|8,3:2|0:0|0:0,0:0:0:0:
372,284,129813,2,0,P|341:268|299:268,1,71.9999978027344,2|0,3:2|0:0,0:0:0:0:
163,369,130235,2,0,P|175:335|187:294,1,71.9999978027344,2|0,0:0|0:0,0:0:0:0:
32,207,130658,1,0,3:2:0:0:
101,116,130869,2,0,P|111:150|123:184,1,71.9999978027344,2|8,0:0|0:0,0:0:0:0:
55,312,131292,1,2,0:0:0:0:
221,220,131503,1,2,0:0:0:0:
28,196,131714,1,2,0:0:0:0:
185,300,131925,6,0,P|225:308|304:234,1,143.999995605469,0|2,3:2|0:0,0:0:0:0:
300,248,132770,2,0,P|336:254|370:262,1,71.9999978027344,8|0,0:0|0:0,0:0:0:0:
463,152,133193,2,0,P|428:161|392:166,1,71.9999978027344,2|0,3:2|0:0,0:0:0:0:
229,84,133616,2,0,P|281:36|357:53,1,143.999995605469,2|0,0:0|3:2,0:0:0:0:
245,176,134249,2,0,P|208:177|163:144,1,71.9999978027344,2|8,0:0|0:0,0:0:0:0:
65,54,134672,2,0,L|60:23,2,17.9999994506836
91,200,134883,2,0,P|106:278|118:345,1,143.999995605469,2|2,0:0|0:0,0:0:0:0:
256,192,147982,5,8,0:0:0:0:
207,276,148827,5,6,3:2:0:0:
175,137,149038,1,2,0:0:0:0:
311,109,149249,1,2,0:0:0:0:
340,244,149461,1,2,0:0:0:0:
160,129,149672,5,10,0:0:0:0:
200,289,149883,1,2,0:0:0:0:
355,253,150094,1,2,3:2:0:0:
322,94,150306,1,2,0:0:0:0:
191,303,150517,5,2,0:0:0:0:
145,122,150728,1,2,0:0:0:0:
333,79,150939,1,2,3:2:0:0:
370,262,151151,1,2,0:0:0:0:
130,115,151362,5,10,0:0:0:0:
182,317,151573,1,2,0:0:0:0:
384,270,151785,1,2,0:0:0:0:
343,63,151996,1,2,0:0:0:0:
173,331,152207,6,0,P|97:308|18:289,1,160,6|0,3:2|0:0,0:0:0:0:
114,212,152841,1,0,0:0:0:0:
59,107,153052,2,0,P|32:141|31:202,1,80,8|0,0:0|0:0,0:0:0:0:
173,331,153475,2,0,P|185:292|202:243,1,80,2|0,3:2|0:0,0:0:0:0:
331,167,153897,6,0,P|293:179|255:192,1,80,2|0,0:0|0:0,0:0:0:0:
189,21,154320,2,0,P|227:33|264:46,1,80,2|0,3:2|0:0,0:0:0:0:
385,23,154742,1,10,0:0:0:0:
255,191,154954,2,0,L|261:222,2,20
456,160,155165,2,0,L|462:129,2,20
264,46,155376,1,2,0:0:0:0:
305,276,155587,5,6,3:2:0:0:
337,137,155798,1,2,0:0:0:0:
201,109,156009,1,2,0:0:0:0:
172,244,156221,1,2,0:0:0:0:
352,129,156432,5,10,0:0:0:0:
312,289,156643,1,2,0:0:0:0:
157,253,156854,1,2,3:2:0:0:
190,94,157066,1,2,0:0:0:0:
321,303,157277,5,2,0:0:0:0:
367,122,157488,1,2,0:0:0:0:
179,79,157699,1,2,3:2:0:0:
142,262,157911,1,2,0:0:0:0:
382,115,158122,5,10,0:0:0:0:
330,317,158333,1,2,0:0:0:0:
128,270,158545,1,2,0:0:0:0:
169,63,158756,1,2,0:0:0:0:
339,331,158967,6,0,P|415:308|494:289,2,160,6|2|8,3:2|0:0|0:0,0:0:0:0:
187,251,160024,1,0,3:2:0:0:
307,167,160235,2,0,P|292:212|280:256,1,80,2|0,3:2|0:0,0:0:0:0:
120,344,160658,2,0,P|109:305|96:267,1,80,2|0,0:0|0:0,0:0:0:0:
43,126,161080,1,2,3:2:0:0:
180,233,161292,1,2,0:0:0:0:
282,78,161503,2,0,P|250:57|193:61,1,80,10|0,0:0|0:0,0:0:0:0:
146,112,161820,2,0,P|152:134|160:163,1,40,2|0,0:0|3:2,0:0:0:0:
180,233,162032,1,2,3:2:0:0:
180,233,162137,1,0,3:2:0:0:
381,112,162348,6,0,P|370:152|361:192,1,80,6|0,3:2|0:0,0:0:0:0:
499,316,162770,2,0,P|490:276|479:238,1,80,2|0,0:0|0:0,0:0:0:0:
333,362,163193,2,0,P|370:380|420:367,1,80,8|0,0:0|0:0,0:0:0:0:
268,224,163616,2,0,P|257:264|248:304,1,80,2|0,3:2|0:0,0:0:0:0:
479,238,164038,6,0,P|470:198|459:160,1,80,2|0,0:0|0:0,0:0:0:0:
304,80,164461,1,2,3:2:0:0:
304,80,164566,1,2,0:0:0:0:
304,80,164672,1,2,0:0:0:0:
423,4,164883,2,0,P|412:42|403:81,1,80,10|0,0:0|0:0,0:0:0:0:
349,261,165306,1,2,0:0:0:0:
304,80,165517,1,2,0:0:0:0:
459,160,165728,6,0,P|422:178|367:171,1,80,2|0,3:2|0:0,0:0:0:0:
228,62,166151,2,0,P|267:61|303:79,1,80,2|2,0:0|0:0,0:0:0:0:
154,214,166573,2,0,P|144:175|128:126,1,80,8|0,0:0|0:0,0:0:0:0:
28,15,166996,2,0,P|15:53|5:91,1,80,2|0,3:2|0:0,0:0:0:0:
164,212,167418,2,0,P|154:173|138:124,1,80,2|0,0:0|0:0,0:0:0:0:
5,274,167841,2,0,P|37:291|82:283,1,80,2|0,3:2|0:0,0:0:0:0:
261,205,168263,1,10,0:0:0:0:
51,206,168475,2,0,L|45:175,2,20
236,313,168686,2,0,L|241:344,2,20,2|0|0,0:0|0:0|0:0,0:0:0:0:
136,136,168897,1,2,0:0:0:0:
144,361,169108,6,0,P|151:319|164:264,1,80,2|0,3:2|0:0,0:0:0:0:
344,194,169531,2,0,P|276:197|230:112,2,160,2|8|2,0:0|0:0|3:2,0:0:0:0:
344,194,170799,6,0,P|392:187|434:207,1,80,2|2,0:0|0:0,0:0:0:0:
289,366,171221,2,0,P|278:326|262:277,1,80,2|2,3:2|0:0,0:0:0:0:
309,121,171644,2,0,P|377:103|470:132,1,160,8|2,0:0|0:0,0:0:0:0:
461,126,172489,6,0,P|431:159|429:209,1,80,2|0,3:2|0:0,0:0:0:0:
495,362,172911,2,0,P|481:319|439:292,1,80,2|2,0:0|0:0,0:0:0:0:
266,341,173334,2,0,P|279:299|298:251,1,80,8|0,0:0|3:2,0:0:0:0:
121,157,173756,2,0,P|135:194|146:232,1,80,2|0,3:2|0:0,0:0:0:0:
202,68,174179,5,2,0:0:0:0:
5,133,174390,1,2,0:0:0:0:
146,232,174601,2,0,P|189:233|231:204,1,80,2|0,3:2|0:0,0:0:0:0:
357,78,175024,1,10,0:0:0:0:
319,276,175235,2,0,L|313:307,2,20,2|0|0,0:0|0:0|0:0,0:0:0:0:
220,87,175446,1,2,3:2:0:0:
220,87,175552,1,2,3:2:0:0:
220,87,175658,1,2,3:2:0:0:
425,220,175869,5,2,0:0:0:0:
