osu file format v14

[General]
AudioFilename: audio.mp3
AudioLeadIn: 0
PreviewTime: 40980
Countdown: 0
SampleSet: Soft
StackLeniency: 0.4
Mode: 0
LetterboxInBreaks: 0
WidescreenStoryboard: 1

[Editor]
DistanceSpacing: 2.3
BeatDivisor: 4
GridSize: 32
TimelineZoom: 2

[Metadata]
Title:Legends
TitleUnicode:Legends
Artist:Juice WRLD
ArtistUnicode:Juice WRLD
Creator:Smoke
Version:Insane
Source:
Tags:rap hip hop world english Tribute Lil Peep XXXTentacion hip-hop
BeatmapID:2481603
BeatmapSetID:1191018

[Difficulty]
HPDrainRate:4.8
CircleSize:4
OverallDifficulty:7.5
ApproachRate:8
SliderMultiplier:1.5
SliderTickRate:1

[Events]
//Background and Video events
0,0,"edgy anime boy 1080p.jpg",0,0
//Break Periods
2,67900,79626
2,135506,147232
//Storyboard Layer 0 (Background)
//Storyboard Layer 1 (Fail)
//Storyboard Layer 2 (Pass)
//Storyboard Layer 3 (Foreground)
//Storyboard Layer 4 (Overlay)
//Storyboard Sound Samples

[TimingPoints]
95,845.070422535211,4,2,1,35,1,0
95,-100,4,2,1,35,0,0
13616,-50,4,2,1,80,0,0
67700,-62.5,4,2,1,70,0,0
81221,-50,4,2,1,80,0,0
104883,-58.8235294117647,4,2,1,60,0,0
108263,-55.5555555555556,4,2,1,70,0,0
135306,-62.5,4,2,1,40,0,0
148827,-50,4,2,1,80,0,0
175869,-62.5,4,2,1,70,0,0

[Colours]
Combo1 : 121,69,231
Combo2 : 23,156,236
Combo3 : 174,123,230
Combo4 : 41,183,224

[HitObjects]
266,122,13616,5,6,3:2:0:0:
243,263,13827,1,2,0:0:0:0:
268,109,14038,2,0,L|279:33,1,75,2|2,0:0|0:0,0:0:0:0:
174,179,14461,5,10,0:0:0:0:
338,204,14672,1,2,0:0:0:0:
158,176,14883,2,0,L|80:162,1,75,2|2,3:2|0:0,0:0:0:0:
240,278,15306,5,2,0:0:0:0:
270,97,15517,1,2,0:0:0:0:
237,295,15728,2,0,L|222:382,1,75,2|2,3:2|0:0,0:0:0:0:
355,207,16151,5,10,0:0:0:0:
158,176,16362,1,2,0:0:0:0:
369,210,16573,2,0,L|459:225,1,75,2|2,0:0|0:0,0:0:0:0:
224,368,16996,6,0,B|180:335|180:335|71:361,2,150,6|0|8,3:2|0:0|0:0,0:0:0:0:
383,313,18052,1,0,0:0:0:0:
296,208,18263,2,0,P|281:242|282:279,1,75,2|0,3:2|0:0,0:0:0:0:
462,238,18686,2,0,P|446:163|422:77,1,150,2|2,0:0|3:2,0:0:0:0:
483,0,19320,1,0,0:0:0:0:
321,47,19531,2,0,P|249:30|187:83,1,150,10|0,0:0|0:0,0:0:0:0:
376,212,20165,1,2,0:0:0:0:
246,262,20376,5,6,3:2:0:0:
269,121,20587,1,2,0:0:0:0:
244,275,20798,2,0,L|233:351,1,75,2|2,0:0|0:0,0:0:0:0:
338,205,21221,5,10,0:0:0:0:
174,180,21432,1,2,0:0:0:0:
354,208,21643,2,0,L|432:222,1,75,2|2,3:2|0:0,0:0:0:0:
272,106,22066,5,2,0:0:0:0:
242,287,22277,1,2,0:0:0:0:
275,89,22488,2,0,L|290:2,1,75,2|2,3:2|0:0,0:0:0:0:
157,177,22911,5,10,0:0:0:0:
354,208,23122,1,2,0:0:0:0:
143,174,23333,2,0,L|53:159,1,75,2|2,0:0|0:0,0:0:0:0:
275,14,23756,6,0,P|356:17|396:95,2,150,6|2|8,3:2|0:0|0:0,0:0:0:0:
117,113,24813,1,0,3:2:0:0:
167,0,25024,2,0,P|182:34|194:69,1,75,2|0,3:2|0:0,0:0:0:0:
251,194,25446,2,0,P|263:158|278:124,1,75,2|0,0:0|0:0,0:0:0:0:
79,193,25869,2,0,P|94:227|106:262,1,75,2|2,3:2|0:0,0:0:0:0:
167,374,26292,2,0,P|203:380|249:350,1,75,10|0,0:0|0:0,0:0:0:0:
268,322,26608,1,2,0:0:0:0:
268,322,26714,2,0,L|260:282,2,37.5,0|2|0,3:2|3:2|3:2,0:0:0:0:
422,381,27137,6,0,P|430:348|444:305,1,75,6|0,3:2|0:0,0:0:0:0:
512,203,27559,2,0,P|476:202|439:173,1,75,2|0,0:0|0:0,0:0:0:0:
488,40,27982,2,0,P|499:75|508:112,1,75,8|0,0:0|0:0,0:0:0:0:
332,194,28404,2,0,P|340:157|352:121,1,75,2|0,3:2|0:0,0:0:0:0:
205,36,28827,2,0,P|239:19|288:30,1,75,2|0,0:0|0:0,0:0:0:0:
169,165,29249,1,2,3:2:0:0:
169,165,29355,1,2,0:0:0:0:
169,165,29461,1,2,0:0:0:0:
45,41,29672,2,0,P|56:76|65:113,1,75,10|0,0:0|0:0,0:0:0:0:
115,312,30094,1,2,0:0:0:0:
0,190,30306,1,2,0:0:0:0:
198,257,30517,6,0,P|235:243|288:231,1,75,2|0,3:2|0:0,0:0:0:0:
404,323,30939,2,0,P|379:291|376:246,1,75,2|2,0:0|0:0,0:0:0:0:
512,146,31362,2,0,P|505:182|482:211,1,75,8|0,0:0|0:0,0:0:0:0:
395,40,31785,2,0,P|438:51|485:66,1,75,2|0,3:2|0:0,0:0:0:0:
345,167,32207,2,0,P|321:138|315:101,1,75,2|0,0:0|0:0,0:0:0:0:
222,13,32630,2,0,P|215:49|192:78,1,75,2|0,3:2|0:0,0:0:0:0:
15,169,33052,2,0,P|78:133|148:161,1,150,10|2,0:0|0:0,0:0:0:0:
232,237,33686,1,2,0:0:0:0:
66,302,33897,6,0,P|79:256|90:211,1,75,2|0,3:2|0:0,0:0:0:0:
126,86,34320,2,0,P|135:122|145:158,1,75,2|0,0:0|0:0,0:0:0:0:
232,237,34742,2,0,P|303:242|359:171,1,150,8|2,0:0|3:2,0:0:0:0:
354,188,35587,1,2,0:0:0:0:
426,340,35798,1,2,0:0:0:0:
488,161,36010,1,2,3:2:0:0:
488,161,36221,2,0,B|445:166|416:132|443:129|411:90|355:95,1,150,2|0,0:0|0:0,0:0:0:0:
216,169,36855,2,0,P|205:133|186:88,1,75,2|0,0:0|0:0,0:0:0:0:
354,188,37277,5,2,3:2:0:0:
180,255,37489,1,2,0:0:0:0:
357,363,37700,1,2,0:0:0:0:
357,363,37911,2,0,P|296:317|221:335,1,150,2|0,0:0|0:0,0:0:0:0:
87,384,38545,2,0,P|78:346|67:308,1,75,2|0,3:2|0:0,0:0:0:0:
21,136,38968,1,2,0:0:0:0:
206,187,39179,1,2,0:0:0:0:
99,222,39390,2,0,P|108:184|119:146,1,75,2|0,3:2|0:0,0:0:0:0:
277,8,39813,1,10,0:0:0:0:
92,59,40024,1,2,0:0:0:0:
209,99,40235,1,2,3:2:0:0:
209,99,40341,1,0,3:2:0:0:
209,99,40446,1,0,3:2:0:0:
99,222,40658,6,0,B|151:191|151:191|247:217,1,150,4|2,3:2|0:0,0:0:0:0:
349,366,41292,1,2,0:0:0:0:
166,286,41503,1,10,0:0:0:0:
397,220,41714,1,2,0:0:0:0:
244,355,41925,1,2,3:2:0:0:
280,127,42137,1,2,0:0:0:0:
441,308,42348,2,0,P|471:287|488:239,1,75,2|0,0:0|0:0,0:0:0:0:
372,152,42770,2,0,P|375:188|408:227,1,75,2|0,3:2|0:0,0:0:0:0:
503,90,43193,2,0,P|469:74|419:83,1,75,10|0,0:0|0:0,0:0:0:0:
278,172,43616,1,2,0:0:0:0:
278,172,43827,1,2,0:0:0:0:
315,0,44038,6,0,P|304:43|295:89,1,75,0|0,3:2|0:0,0:0:0:0:
254,265,44461,1,2,0:0:0:0:
372,152,44672,1,2,0:0:0:0:
171,202,44883,1,10,0:0:0:0:
171,202,44989,1,2,0:0:0:0:
171,202,45094,1,2,0:0:0:0:
360,350,45306,2,0,P|351:313|343:276,1,75,2|0,3:2|0:0,0:0:0:0:
228,121,45728,1,2,0:0:0:0:
395,185,45939,1,2,0:0:0:0:
206,294,46151,2,0,P|143:299|81:234,2,150,2|8|2,3:2|0:0|0:0,0:0:0:0:
331,240,47207,1,0,0:0:0:0:
191,129,47418,6,0,P|178:169|166:218,1,75,2|0,3:2|0:0,0:0:0:0:
132,343,47841,1,2,0:0:0:0:
84,167,48052,1,2,0:0:0:0:
226,355,48263,1,10,0:0:0:0:
280,161,48475,1,2,0:0:0:0:
97,248,48686,2,0,P|87:211|76:175,1,75,2|0,3:2|0:0,0:0:0:0:
0,57,49108,2,0,P|28:78|82:78,1,75,2|0,0:0|0:0,0:0:0:0:
215,1,49531,2,0,P|178:4|148:26,1,75,2|0,3:2|0:0,0:0:0:0:
269,149,49954,2,0,P|277:113|289:76,1,75,10|0,0:0|0:0,0:0:0:0:
157,156,50376,1,2,0:0:0:0:
357,214,50587,1,2,0:0:0:0:
206,322,50799,6,0,P|196:285|185:249,1,75,0|0,3:2|0:0,0:0:0:0:
365,314,51221,2,0,P|336:337|299:343,1,75,2|2,0:0|0:0,0:0:0:0:
115,188,51644,1,10,0:0:0:0:
297,242,51855,1,2,0:0:0:0:
105,300,52066,1,2,3:2:0:0:
229,156,52277,1,2,0:0:0:0:
206,322,52489,2,0,P|196:285|185:249,1,75,2|2,0:0|0:0,0:0:0:0:
321,119,52911,2,0,P|250:118|208:50,2,150,2|8|2,3:2|0:0|0:0,0:0:0:0:
484,53,53968,1,0,0:0:0:0:
374,0,54179,6,0,P|388:41|402:90,1,75,2|0,3:2|0:0,0:0:0:0:
510,212,54601,2,0,B|468:180|468:180|354:208,1,150,2|8,0:0|0:0,0:0:0:0:
286,326,55235,1,0,0:0:0:0:
463,379,55446,2,0,P|465:338|435:292,1,75,0|0,3:2|0:0,0:0:0:0:
282,228,55869,2,0,L|202:247,1,75,2|2,0:0|0:0,0:0:0:0:
71,320,56292,2,0,P|90:286|90:241,1,75,2|2,3:2|0:0,0:0:0:0:
11,64,56714,1,10,0:0:0:0:
191,118,56925,1,2,0:0:0:0:
31,180,57137,2,0,P|65:161|110:161,1,75,2|0,0:0|0:0,0:0:0:0:
282,228,57559,6,0,P|268:263|257:299,1,75,0|0,3:2|0:0,0:0:0:0:
191,118,57982,1,2,0:0:0:0:
191,118,58193,2,0,P|229:104|268:94,1,75,2|8,0:0|0:0,0:0:0:0:
437,165,58616,1,0,0:0:0:0:
384,35,58827,2,0,P|370:70|359:106,1,75,0|0,3:2|0:0,0:0:0:0:
306,286,59249,1,2,0:0:0:0:
464,269,59461,2,0,P|426:255|387:245,1,75,2|0,0:0|3:2,0:0:0:0:
213,197,59883,1,2,0:0:0:0:
363,359,60094,1,10,0:0:0:0:
324,172,60306,1,2,0:0:0:0:
182,326,60517,2,0,P|148:332|96:297,1,75,2|2,0:0|0:0,0:0:0:0:
0,125,60939,6,0,P|13:162|26:205,1,75,2|2,3:2|0:0,0:0:0:0:
156,240,61362,2,0,P|167:204|179:168,1,75,2|2,0:0|0:0,0:0:0:0:
237,0,61785,1,10,0:0:0:0:
281,172,61996,1,2,0:0:0:0:
149,63,62207,2,0,P|184:74|220:86,1,75,2|2,3:2|0:0,0:0:0:0:
378,24,62630,2,0,P|354:56|350:100,1,75,2|2,0:0|0:0,0:0:0:0:
490,201,63052,2,0,P|483:164|460:135,1,75,2|2,3:2|0:0,0:0:0:0:
310,273,63475,1,10,0:0:0:0:
459,297,63686,1,2,0:0:0:0:
307,176,63897,2,0,P|272:187|236:199,1,75,2|2,0:0|0:0,0:0:0:0:
63,285,64320,5,2,3:2:0:0:
152,116,64531,1,2,0:0:0:0:
190,306,64742,1,2,0:0:0:0:
51,171,64954,1,2,0:0:0:0:
235,199,65165,2,0,P|271:187|306:175,1,75,10|2,0:0|0:0,0:0:0:0:
425,94,65587,2,0,P|390:82|354:70,1,75,2|0,3:2|0:0,0:0:0:0:
463,271,66010,2,0,P|486:244|491:201,1,75,2|0,0:0|0:0,0:0:0:0:
413,0,66432,1,2,3:2:0:0:
306,174,66644,1,2,0:0:0:0:
512,122,66855,1,10,0:0:0:0:
263,59,67066,1,2,0:0:0:0:
408,201,67277,2,0,P|395:165|383:129,1,75,2|0,0:0|0:0,0:0:0:0:
231,298,67700,5,2,0:0:0:0:
256,192,80376,5,8,0:0:0:0:
39,121,81221,5,6,3:2:0:0:
61,269,81432,1,2,0:0:0:0:
37,108,81643,2,0,L|26:32,1,75,2|2,0:0|0:0,0:0:0:0:
179,242,82066,5,10,0:0:0:0:
203,78,82277,1,2,0:0:0:0:
177,257,82488,2,0,L|164:340,1,75,2|2,3:2|0:0,0:0:0:0:
333,98,82911,5,2,0:0:0:0:
358,274,83122,1,2,0:0:0:0:
330,81,83333,2,0,L|316:-9,1,75,2|2,3:2|0:0,0:0:0:0:
478,260,83756,5,10,0:0:0:0:
505,68,83967,1,2,0:0:0:0:
475,278,84178,2,0,L|460:376,1,75,2|2,0:0|0:0,0:0:0:0:
249,202,84601,6,0,B|210:186|167:213|199:220|150:252|109:233,2,150,6|0|8,3:2|0:0|0:0,0:0:0:0:
404,254,85658,1,0,0:0:0:0:
296,331,85869,2,0,P|303:302|322:250,1,75,2|0,3:2|0:0,0:0:0:0:
306,117,86292,2,0,B|255:92|255:92|153:126,1,150,2|2,0:0|3:2,0:0:0:0:
249,202,86925,1,0,0:0:0:0:
392,60,87137,2,0,P|461:34|524:83,1,150,10|0,0:0|0:0,0:0:0:0:
364,204,87770,1,2,0:0:0:0:
474,265,87982,5,6,3:2:0:0:
452,117,88193,1,2,0:0:0:0:
476,278,88404,2,0,L|487:354,1,75,2|2,0:0|0:0,0:0:0:0:
334,144,88827,5,10,0:0:0:0:
310,308,89038,1,2,0:0:0:0:
336,129,89249,2,0,L|349:46,1,75,2|2,3:2|0:0,0:0:0:0:
180,288,89672,5,2,0:0:0:0:
155,112,89883,1,2,0:0:0:0:
183,305,90094,2,0,L|197:395,1,75,2|2,3:2|0:0,0:0:0:0:
35,126,90517,5,10,0:0:0:0:
8,318,90728,1,2,0:0:0:0:
38,108,90939,2,0,L|53:10,1,75,2|2,0:0|0:0,0:0:0:0:
264,184,91362,6,0,B|303:200|346:173|314:166|363:134|404:153,2,150,6|2|8,3:2|0:0|0:0,0:0:0:0:
145,265,92418,1,0,3:2:0:0:
254,345,92630,2,0,P|252:310|226:269,1,75,2|0,3:2|0:0,0:0:0:0:
98,158,93052,2,0,P|129:173|177:171,1,75,2|0,0:0|0:0,0:0:0:0:
290,53,93475,1,2,3:2:0:0:
149,85,93686,1,2,0:0:0:0:
264,184,93897,2,0,P|296:165|346:165,1,75,10|0,0:0|0:0,0:0:0:0:
376,200,94214,1,2,0:0:0:0:
376,200,94320,2,0,L|386:245,2,37.5,0|2|0,3:2|3:2|3:2,0:0:0:0:
512,81,94742,6,0,P|478:71|418:50,1,75,6|0,3:2|0:0,0:0:0:0:
320,15,95165,2,0,P|286:25|226:46,1,75,2|0,0:0|0:0,0:0:0:0:
122,116,95587,2,0,P|112:82|91:22,1,75,8|0,0:0|0:0,0:0:0:0:
0,183,96010,2,0,P|36:202|85:194,1,75,2|0,3:2|0:0,0:0:0:0:
285,134,96432,2,0,P|247:133|215:151,1,75,2|0,0:0|0:0,0:0:0:0:
174,275,96855,1,2,3:2:0:0:
174,275,96961,1,2,0:0:0:0:
174,275,97066,1,2,0:0:0:0:
122,116,97277,2,0,P|112:82|91:22,1,75,10|0,0:0|0:0,0:0:0:0:
285,134,97700,1,2,0:0:0:0:
69,200,97911,1,2,0:0:0:0:
259,314,98123,6,0,P|296:315|344:280,1,75,2|0,3:2|0:0,0:0:0:0:
394,138,98545,2,0,P|374:169|380:228,1,75,2|2,0:0|0:0,0:0:0:0:
478,343,98968,2,0,P|460:310|406:286,1,75,8|0,0:0|0:0,0:0:0:0:
259,314,99390,2,0,P|216:323|167:336,1,75,2|0,3:2|0:0,0:0:0:0:
118,196,99813,2,0,P|154:204|191:213,1,75,2|0,0:0|0:0,0:0:0:0:
58,335,100235,2,0,P|49:298|40:261,1,75,2|0,3:2|0:0,0:0:0:0:
0,93,100658,2,0,B|49:127|49:127|143:95,1,150,10|2,0:0|0:0,0:0:0:0:
292,152,101292,1,2,0:0:0:0:
252,8,101503,6,0,P|238:47|228:79,1,75,2|0,3:2|0:0,0:0:0:0:
401,158,101925,2,0,P|389:122|376:86,1,75,2|0,0:0|0:0,0:0:0:0:
214,199,102348,2,0,P|266:243|349:227,1,150,8|2,0:0|3:2,0:0:0:0:
343,232,103193,1,2,0:0:0:0:
217,353,103404,1,2,0:0:0:0:
137,168,103616,1,2,3:2:0:0:
137,168,103827,2,0,B|94:155|52:181|79:190|28:223|-6:203,1,150,2|0,0:0|0:0,0:0:0:0:
61,316,104461,2,0,P|103:322|140:334,1,75,2|0,0:0|0:0,0:0:0:0:
301,376,104883,5,2,0:0:0:0:
301,376,107418,5,10,0:0:0:0:
301,376,108263,2,0,P|333:358|390:359,1,67.4999979400635,0|0,3:2|0:0,0:0:0:0:
477,363,108686,2,0,P|444:328|455:241,1,134.999995880127,2|8,0:0|0:0,0:0:0:0:
451,246,109531,2,0,P|461:214|454:171,1,67.4999979400635,2|0,3:2|0:0,0:0:0:0:
376,99,109954,2,0,P|311:109|232:130,1,134.999995880127,2|0,0:0|3:2,0:0:0:0:
87,294,110799,1,10,0:0:0:0:
87,294,111221,2,0,P|90:223|35:167,1,134.999995880127,2|0,0:0|3:2,0:0:0:0:
196,0,112066,2,0,P|156:52|160:118,1,134.999995880127,2|8,0:0|0:0,0:0:0:0:
160,118,112911,1,2,3:2:0:0:
366,16,113334,2,0,B|396:56|396:56|371:152,1,134.999995880127,2|0,0:0|3:2,0:0:0:0:
349,250,113968,2,0,B|389:220|389:220|485:245,1,134.999995880127,2|0,0:0|0:0,0:0:0:0:
481,355,114601,2,0,L|405:336,1,67.4999979400635,2|0,0:0|0:0,0:0:0:0:
285,371,115024,6,0,L|154:336,2,134.999995880127,0|2|8,3:2|0:0|0:0,0:0:0:0:
247,138,116292,1,2,3:2:0:0:
247,138,116714,2,0,P|198:169|192:258,1,134.999995880127,2|0,0:0|3:2,0:0:0:0:
400,261,117559,1,10,0:0:0:0:
400,261,117982,2,0,P|331:239|260:224,1,134.999995880127,2|0,0:0|3:2,0:0:0:0:
149,60,118827,2,0,P|216:47|289:23,1,134.999995880127,2|8,0:0|0:0,0:0:0:0:
279,26,119672,1,0,3:2:0:0:
99,168,120094,2,0,B|131:208|131:208|103:314,1,134.999995880127,2|0,0:0|3:2,0:0:0:0:
227,352,120728,2,0,B|195:312|195:312|223:206,1,134.999995880127,2|0,0:0|0:0,0:0:0:0:
316,199,121362,2,0,L|295:284,1,67.4999979400635,2|0,0:0|0:0,0:0:0:0:
439,309,121785,6,0,L|404:151,2,134.999995880127,0|0|8,3:2|0:0|0:0,0:0:0:0:
439,309,123052,1,2,3:2:0:0:
492,85,123475,2,0,P|439:44|355:62,1,134.999995880127,2|0,0:0|3:2,0:0:0:0:
280,115,124108,2,0,P|227:156|143:138,1,134.999995880127,2|0,0:0|0:0,0:0:0:0:
80,68,124742,2,0,P|69:111|57:150,1,67.4999979400635,2|0,0:0|0:0,0:0:0:0:
8,234,125165,2,0,B|50:247|50:247|74:288|74:288|116:303,1,134.999995880127,0|2,3:2|0:0,0:0:0:0:
333,372,126010,2,0,L|311:299,1,67.4999979400635,10|2,0:0|0:0,0:0:0:0:
227,231,126432,2,0,P|262:223|298:191,1,67.4999979400635,2|0,3:2|0:0,0:0:0:0:
317,93,126855,2,0,P|338:141|430:149,1,134.999995880127,2|0,0:0|3:2,0:0:0:0:
489,71,127489,2,0,P|499:131|515:205,1,134.999995880127,2|0,0:0|0:0,0:0:0:0:
443,293,128123,2,0,P|413:275|375:275,1,67.4999979400635,2|0,0:0|0:0,0:0:0:0:
280,328,128545,6,0,P|216:336|137:348,2,134.999995880127,0|2|8,3:2|0:0|0:0,0:0:0:0:
280,328,129813,1,2,3:2:0:0:
195,114,130235,2,0,P|151:155|152:236,1,134.999995880127,2|0,0:0|3:2,0:0:0:0:
46,281,130869,2,0,P|45:215|-1:168,1,134.999995880127,2|2,0:0|0:0,0:0:0:0:
38,60,131503,2,0,P|68:40|120:40,1,67.4999979400635,2|2,0:0|0:0,0:0:0:0:
195,114,131925,2,0,B|245:134|245:134|338:105,1,134.999995880127,0|2,3:2|0:0,0:0:0:0:
322,109,132770,2,0,L|392:89,1,67.4999979400635,8|0,0:0|0:0,0:0:0:0:
482,154,133193,2,0,P|483:192|459:226,1,67.4999979400635,2|0,3:2|0:0,0:0:0:0:
360,287,133616,2,0,P|416:288|449:367,1,134.999995880127,2|0,0:0|3:2,0:0:0:0:
296,384,134249,2,0,P|276:311|257:245,1,134.999995880127,2|0,0:0|0:0,0:0:0:0:
263,133,134883,2,0,P|231:142|186:155,1,67.4999979400635,2|0,0:0|0:0,0:0:0:0:
75,187,135306,5,2,0:0:0:0:
256,192,147982,5,8,0:0:0:0:
151,32,148827,5,6,3:2:0:0:
305,54,149038,1,2,0:0:0:0:
138,29,149249,2,0,L|59:17,1,75,2|2,0:0|0:0,0:0:0:0:
338,230,149672,5,10,0:0:0:0:
164,254,149883,1,2,0:0:0:0:
354,229,150094,2,0,L|442:215,1,75,2|2,3:2|0:0,0:0:0:0:
118,124,150517,5,2,0:0:0:0:
310,149,150728,1,2,0:0:0:0:
99,120,150939,2,0,L|0:105,1,75,2|2,3:2|0:0,0:0:0:0:
371,326,151362,5,10,0:0:0:0:
158,349,151573,1,2,0:0:0:0:
387,324,151784,2,0,L|493:307,1,75,2|2,0:0|0:0,0:0:0:0:
277,144,152207,6,0,B|244:191|244:191|259:295,2,150,6|0|8,3:2|0:0|0:0,0:0:0:0:
345,59,153263,1,0,0:0:0:0:
181,0,153475,2,0,L|198:81,1,75,2|0,3:2|0:0,0:0:0:0:
116,153,153897,2,0,L|82:304,1,150,2|2,0:0|3:2,0:0:0:0:
6,201,154531,1,0,0:0:0:0:
196,244,154742,2,0,L|347:210,1,150,10|0,0:0|0:0,0:0:0:0:
244,135,155376,1,2,0:0:0:0:
349,353,155587,5,6,3:2:0:0:
195,331,155798,1,2,0:0:0:0:
362,356,156009,2,0,L|441:368,1,75,2|2,0:0|0:0,0:0:0:0:
162,155,156432,5,10,0:0:0:0:
336,131,156643,1,2,0:0:0:0:
146,156,156854,2,0,L|57:169,1,75,2|2,3:2|0:0,0:0:0:0:
382,261,157277,5,2,0:0:0:0:
190,236,157488,1,2,0:0:0:0:
401,265,157699,2,0,L|499:279,1,75,2|2,3:2|0:0,0:0:0:0:
129,59,158122,5,10,0:0:0:0:
342,36,158333,1,2,0:0:0:0:
113,61,158544,2,0,L|6:77,1,75,2|2,0:0|0:0,0:0:0:0:
223,241,158967,6,0,B|256:194|256:194|241:90,2,150,6|2|8,3:2|0:0|0:0,0:0:0:0:
151,329,160024,1,0,3:2:0:0:
87,187,160235,2,0,P|117:169|165:174,1,75,2|0,3:2|0:0,0:0:0:0:
292,257,160658,2,0,P|255:258|222:240,1,75,2|0,0:0|0:0,0:0:0:0:
332,117,161080,2,0,P|345:157|353:190,1,75,2|2,3:2|0:0,0:0:0:0:
446,304,161503,2,0,P|455:267|466:232,1,75,10|0,0:0|0:0,0:0:0:0:
487,185,161820,1,2,0:0:0:0:
487,185,161925,2,0,L|476:140,2,37.5,0|2|0,3:2|3:2|3:2,0:0:0:0:
292,256,162348,6,0,P|255:258|222:240,1,75,6|0,3:2|0:0,0:0:0:0:
150,84,162770,2,0,P|169:115|169:152,1,75,2|0,0:0|0:0,0:0:0:0:
73,296,163193,2,0,P|90:263|122:244,1,75,8|0,0:0|0:0,0:0:0:0:
12,124,163616,2,0,P|51:135|93:142,1,75,2|0,3:2|0:0,0:0:0:0:
216,26,164038,2,0,P|252:15|288:8,1,75,2|0,0:0|0:0,0:0:0:0:
452,141,164461,1,2,3:2:0:0:
452,141,164566,1,2,0:0:0:0:
452,141,164672,1,2,0:0:0:0:
392,3,164883,2,0,P|377:43|365:83,1,75,10|0,0:0|0:0,0:0:0:0:
318,261,165306,1,2,0:0:0:0:
255,109,165517,1,2,0:0:0:0:
418,232,165728,6,0,P|431:267|442:302,1,75,2|0,3:2|0:0,0:0:0:0:
269,342,166151,2,0,P|238:317|226:274,1,75,2|2,0:0|0:0,0:0:0:0:
255,109,166573,2,0,P|241:144|230:179,1,75,8|0,0:0|0:0,0:0:0:0:
120,283,166996,2,0,P|108:247|95:212,1,75,2|0,3:2|0:0,0:0:0:0:
45,76,167418,2,0,P|82:75|124:102,1,75,2|0,0:0|0:0,0:0:0:0:
271,20,167841,2,0,P|234:19|192:46,1,75,2|0,3:2|0:0,0:0:0:0:
344,205,168263,2,0,B|380:164|380:164|357:54,1,150,10|2,0:0|0:0,0:0:0:0:
255,109,168897,1,2,0:0:0:0:
438,12,169108,6,0,L|455:91,1,75,2|0,3:2|0:0,0:0:0:0:
478,236,169531,2,0,P|428:199|318:222,2,150,2|8|2,0:0|0:0|3:2,0:0:0:0:
478,236,170799,2,0,L|458:316,1,75,2|2,0:0|0:0,0:0:0:0:
327,362,171221,1,2,3:2:0:0:
327,362,171432,2,0,B|282:332|282:332|181:357,1,150,2|0,0:0|0:0,0:0:0:0:
69,384,172066,1,2,0:0:0:0:
69,384,172489,6,0,P|50:359|47:304,1,75,2|0,3:2|0:0,0:0:0:0:
158,192,172911,1,2,0:0:0:0:
158,192,173123,2,0,P|101:229|20:194,1,150,2|0,0:0|3:2,0:0:0:0:
144,101,173756,2,0,P|179:101|219:127,1,75,2|0,3:2|0:0,0:0:0:0:
332,243,174179,1,2,0:0:0:0:
158,192,174390,1,2,0:0:0:0:
299,66,174601,2,0,P|307:106|316:154,1,75,2|0,3:2|0:0,0:0:0:0:
347,334,175024,1,10,0:0:0:0:
415,166,175235,1,2,0:0:0:0:
239,305,175446,1,2,3:2:0:0:
239,305,175552,1,2,3:2:0:0:
239,305,175658,1,2,3:2:0:0:
440,266,175869,5,2,0:0:0:0:
