osu file format v14

[General]
AudioFilename: audio.mp3
AudioLeadIn: 0
PreviewTime: 40980
Countdown: 0
SampleSet: Soft
StackLeniency: 0.4
Mode: 0
LetterboxInBreaks: 0
WidescreenStoryboard: 1

[Editor]
DistanceSpacing: 1.8
BeatDivisor: 4
GridSize: 32
TimelineZoom: 2

[Metadata]
Title:Legends
TitleUnicode:Legends
Artist:Juice WRLD
ArtistUnicode:Juice WRLD
Creator:Smoke
Version:Hard
Source:
Tags:rap hip hop world english Tribute Lil Peep XXXTentacion hip-hop
BeatmapID:2481602
BeatmapSetID:1191018

[Difficulty]
HPDrainRate:4.4
CircleSize:3.8
OverallDifficulty:6
ApproachRate:7
SliderMultiplier:1.3
SliderTickRate:1

[Events]
//Background and Video events
0,0,"edgy anime boy 1080p.jpg",0,0
//Break Periods
2,67900,79476
2,135506,147082
//Storyboard Layer 0 (Background)
//Storyboard Layer 1 (Fail)
//Storyboard Layer 2 (Pass)
//Storyboard Layer 3 (Foreground)
//Storyboard Layer 4 (Overlay)
//Storyboard Sound Samples

[TimingPoints]
95,845.070422535211,4,2,1,35,1,0
95,-100,4,2,1,35,0,0
13616,-50,4,2,1,80,0,0
67700,-62.5,4,2,1,70,0,0
81221,-50,4,2,1,80,0,0
104883,-58.8235294117647,4,2,1,60,0,0
108263,-55.5555555555556,4,2,1,70,0,0
135306,-62.5,4,2,1,40,0,0
148827,-50,4,2,1,80,0,0
175869,-62.5,4,2,1,70,0,0

[Colours]
Combo1 : 121,69,231
Combo2 : 23,156,236
Combo3 : 174,123,230
Combo4 : 41,183,224

[HitObjects]
46,222,13616,6,0,P|69:240|124:251,1,65,6|2,3:2|0:0,0:0:0:0:
197,213,14038,1,2,0:0:0:0:
197,213,14249,1,2,0:0:0:0:
132,348,14461,6,0,P|159:337|191:293,1,65,10|2,0:0|0:0,0:0:0:0:
197,213,14883,1,2,3:2:0:0:
197,213,15094,1,2,0:0:0:0:
281,335,15306,6,0,P|285:306|263:252,1,65,2|2,0:0|0:0,0:0:0:0:
197,213,15728,1,2,3:2:0:0:
197,213,15939,1,2,0:0:0:0:
346,200,16151,6,0,P|323:181|268:172,1,65,10|2,0:0|0:0,0:0:0:0:
197,213,16573,1,2,0:0:0:0:
197,213,16784,1,2,0:0:0:0:
266,78,16996,6,0,B|303:55|303:55|402:76,2,130,6|0|8,3:2|0:0|0:0,0:0:0:0:
74,22,18263,2,0,L|91:98,1,65,2|0,3:2|0:0,0:0:0:0:
107,190,18686,2,0,L|78:322,1,130,2|2,0:0|3:2,0:0:0:0:
169,381,19320,1,0,0:0:0:0:
303,323,19531,2,0,L|275:196,1,130,10|0,0:0|0:0,0:0:0:0:
324,100,20165,1,2,0:0:0:0:
427,206,20376,6,0,P|404:224|349:235,1,65,6|2,3:2|0:0,0:0:0:0:
276,197,20798,1,2,0:0:0:0:
276,197,21009,1,2,0:0:0:0:
341,332,21221,6,0,P|314:321|282:277,1,65,10|2,0:0|0:0,0:0:0:0:
276,197,21643,1,2,3:2:0:0:
276,197,21854,1,2,0:0:0:0:
192,319,22066,6,0,P|188:290|210:236,1,65,2|2,0:0|0:0,0:0:0:0:
276,197,22488,1,2,3:2:0:0:
276,197,22699,1,2,0:0:0:0:
127,184,22911,6,0,P|150:165|205:156,1,65,10|2,0:0|0:0,0:0:0:0:
276,197,23333,1,2,0:0:0:0:
276,197,23544,1,2,0:0:0:0:
221,60,23756,6,0,B|184:37|184:37|85:58,2,130,6|2|8,3:2|0:0|0:0,0:0:0:0:
314,124,24813,1,0,3:2:0:0:
422,72,25024,2,0,P|453:72|494:101,1,65,2|0,3:2|0:0,0:0:0:0:
448,229,25446,2,0,P|441:199|431:165,1,65,2|0,0:0|0:0,0:0:0:0:
314,124,25869,2,0,P|305:152|296:187,1,65,2|2,3:2|0:0,0:0:0:0:
252,313,26292,2,0,P|222:311|187:283,1,65,10|0,0:0|0:0,0:0:0:0:
179,243,26608,1,2,0:0:0:0:
179,243,26714,2,0,L|196:190,2,32.5,0|2|0,3:2|3:2|3:2,0:0:0:0:
55,315,27137,6,0,P|49:287|37:246,1,65,6|0,3:2|0:0,0:0:0:0:
6,138,27559,2,0,P|35:115|83:115,1,65,2|0,0:0|0:0,0:0:0:0:
149,49,27982,2,0,P|178:59|217:68,1,65,8|0,0:0|0:0,0:0:0:0:
345,6,28404,2,0,P|326:36|323:74,1,65,2|0,3:2|0:0,0:0:0:0:
449,131,28827,2,0,P|443:99|425:72,1,65,2|0,0:0|0:0,0:0:0:0:
325,168,29249,1,2,3:2:0:0:
325,168,29355,1,2,0:0:0:0:
325,168,29461,1,2,0:0:0:0:
432,239,29672,2,0,P|444:272|456:311,1,65,10|0,0:0|0:0,0:0:0:0:
376,384,30094,1,2,0:0:0:0:
376,384,30306,1,2,0:0:0:0:
248,324,30517,6,0,P|257:293|268:262,1,65,2|0,3:2|0:0,0:0:0:0:
325,168,30939,2,0,P|315:137|304:106,1,65,2|2,0:0|0:0,0:0:0:0:
218,36,31362,1,8,0:0:0:0:
218,36,31785,2,0,P|187:34|138:68,1,65,2|0,3:2|0:0,0:0:0:0:
98,132,32207,2,0,L|122:218,1,65,2|0,0:0|0:0,0:0:0:0:
0,267,32630,2,0,L|17:204,1,65,2|0,3:2|0:0,0:0:0:0:
169,266,33052,2,0,P|141:284|105:285,1,65,10|0,0:0|0:0,0:0:0:0:
17,204,33475,1,2,0:0:0:0:
17,204,33686,1,2,0:0:0:0:
116,117,33897,6,0,P|148:119|175:137,1,65,2|0,3:2|0:0,0:0:0:0:
255,69,34320,2,0,P|301:78|361:17,1,130,2|8,0:0|0:0,0:0:0:0:
444,232,35165,1,2,3:2:0:0:
444,232,35587,2,0,P|434:267|427:301,1,65,2|2,0:0|0:0,0:0:0:0:
312,334,36010,1,2,3:2:0:0:
312,334,36221,2,0,P|265:301|173:317,1,130,2|0,0:0|0:0,0:0:0:0:
98,347,36855,1,2,0:0:0:0:
0,193,37277,6,0,P|33:176|84:180,1,65,2|2,3:2|0:0,0:0:0:0:
178,209,37700,1,2,0:0:0:0:
178,209,37911,2,0,P|196:151|226:65,1,130,2|0,0:0|0:0,0:0:0:0:
144,1,38545,1,2,3:2:0:0:
329,110,38968,1,2,0:0:0:0:
329,110,39179,1,2,0:0:0:0:
428,60,39390,2,0,P|461:64|500:98,1,65,2|0,3:2|0:0,0:0:0:0:
430,224,39813,2,0,P|423:191|413:159,1,65,10|2,0:0|0:0,0:0:0:0:
350,20,40235,1,2,3:2:0:0:
350,20,40341,1,0,3:2:0:0:
350,20,40446,1,0,3:2:0:0:
240,99,40658,5,4,3:2:0:0:
30,15,41080,2,0,P|49:47|55:90,1,65,2|2,0:0|0:0,0:0:0:0:
9,173,41503,1,10,0:0:0:0:
9,173,41714,1,2,0:0:0:0:
86,264,41925,2,0,P|123:264|163:248,1,65,2|2,3:2|0:0,0:0:0:0:
255,162,42348,2,0,P|246:198|241:234,1,65,2|0,0:0|0:0,0:0:0:0:
365,267,42770,2,0,P|359:234|352:203,1,65,2|0,3:2|0:0,0:0:0:0:
474,164,43193,2,0,P|466:195|461:227,1,65,10|0,0:0|0:0,0:0:0:0:
436,363,43616,1,2,0:0:0:0:
436,363,43827,1,2,0:0:0:0:
276,316,44038,6,0,P|243:310|207:326,1,65,0|0,3:2|0:0,0:0:0:0:
95,371,44461,2,0,P|116:345|120:306,1,65,2|2,0:0|0:0,0:0:0:0:
73,210,44883,1,10,0:0:0:0:
73,210,44989,1,2,0:0:0:0:
73,210,45094,1,2,0:0:0:0:
199,153,45306,2,0,P|233:158|274:168,1,65,2|0,3:2|0:0,0:0:0:0:
188,33,45728,2,0,P|155:37|124:44,1,65,2|2,0:0|0:0,0:0:0:0:
3,160,46151,2,0,P|66:123|128:156,2,130,2|8|2,3:2|0:0|0:0,0:0:0:0:
57,348,47418,5,2,3:2:0:0:
57,348,47841,2,0,P|89:352|130:331,1,65,2|2,0:0|0:0,0:0:0:0:
221,286,48263,2,0,P|253:281|294:302,1,65,10|2,0:0|0:0,0:0:0:0:
401,349,48686,1,2,3:2:0:0:
506,161,49108,2,0,P|493:202|487:241,1,65,2|0,0:0|0:0,0:0:0:0:
380,252,49531,2,0,P|373:220|363:189,1,65,2|0,3:2|0:0,0:0:0:0:
365,56,49954,2,0,P|334:65|302:72,1,65,10|0,0:0|0:0,0:0:0:0:
211,146,50376,2,0,P|179:139|148:129,1,65,2|2,0:0|0:0,0:0:0:0:
24,23,50799,6,0,B|65:58|65:58|42:135,1,130,0|2,3:2|0:0,0:0:0:0:
9,242,51432,1,2,0:0:0:0:
111,299,51644,2,0,P|139:303|184:281,1,65,10|2,0:0|0:0,0:0:0:0:
223,192,52066,2,0,P|205:169|202:119,1,65,2|2,3:2|0:0,0:0:0:0:
268,47,52489,1,2,0:0:0:0:
268,47,52700,1,2,0:0:0:0:
365,98,52911,2,0,P|427:83|503:69,2,130,2|8|2,3:2|0:0|0:0,0:0:0:0:
489,280,54179,5,2,3:2:0:0:
489,280,54601,2,0,P|446:245|372:258,1,130,2|8,0:0|0:0,0:0:0:0:
182,380,55446,1,0,3:2:0:0:
182,380,55869,2,0,P|174:339|165:304,1,65,2|2,0:0|0:0,0:0:0:0:
141,209,56292,2,0,P|172:190|228:194,1,65,2|2,3:2|0:0,0:0:0:0:
301,240,56714,1,10,0:0:0:0:
301,240,56925,1,2,0:0:0:0:
364,149,57137,2,0,P|336:131|305:126,1,65,2|0,0:0|0:0,0:0:0:0:
236,40,57559,5,0,3:2:0:0:
236,40,57982,2,0,P|205:51|159:64,1,65,2|2,0:0|0:0,0:0:0:0:
55,27,58404,2,0,P|73:56|78:95,1,65,8|0,0:0|0:0,0:0:0:0:
38,182,58827,2,0,P|20:211|15:250,1,65,0|0,3:2|0:0,0:0:0:0:
80,326,59249,1,2,0:0:0:0:
80,326,59461,2,0,L|160:303,1,65,2|0,0:0|3:2,0:0:0:0:
233,359,59883,1,2,0:0:0:0:
350,304,60094,1,10,0:0:0:0:
350,304,60306,1,2,0:0:0:0:
451,353,60517,2,0,P|458:321|469:284,1,65,2|2,0:0|0:0,0:0:0:0:
498,165,60939,6,0,P|476:146|424:142,1,65,2|2,3:2|0:0,0:0:0:0:
339,183,61362,2,0,P|317:202|265:206,1,65,2|2,0:0|0:0,0:0:0:0:
193,143,61785,1,10,0:0:0:0:
193,143,61996,1,2,0:0:0:0:
98,199,62207,2,0,P|89:169|71:120,1,65,2|2,3:2|0:0,0:0:0:0:
149,52,62630,2,0,P|181:40|215:44,1,65,2|2,0:0|0:0,0:0:0:0:
299,109,63052,2,0,P|331:121|365:117,1,65,2|2,3:2|0:0,0:0:0:0:
498,58,63475,2,0,P|471:79|458:111,1,65,10|2,0:0|0:0,0:0:0:0:
512,221,63897,1,2,0:0:0:0:
385,282,64108,1,2,0:0:0:0:
385,282,64320,6,0,P|351:274|316:268,1,65,2|2,3:2|0:0,0:0:0:0:
233,196,64742,2,0,P|199:204|164:210,1,65,2|2,0:0|0:0,0:0:0:0:
90,286,65165,2,0,P|69:265|63:216,1,65,10|2,0:0|0:0,0:0:0:0:
101,128,65587,1,2,3:2:0:0:
101,128,66010,1,2,0:0:0:0:
318,224,66432,2,0,P|324:193|336:158,1,65,2|2,3:2|0:0,0:0:0:0:
370,56,66855,1,10,0:0:0:0:
263,83,67066,1,2,0:0:0:0:
181,8,67277,2,0,P|151:5|102:30,1,65,2|0,0:0|0:0,0:0:0:0:
11,112,67700,5,2,0:0:0:0:
256,192,80376,5,8,0:0:0:0:
45,37,81221,6,0,L|28:116,1,65,6|2,3:2|0:0,0:0:0:0:
11,197,81644,1,2,0:0:0:0:
11,197,81855,1,2,0:0:0:0:
121,97,82066,6,0,L|104:176,1,65,10|2,0:0|0:0,0:0:0:0:
87,257,82489,1,2,3:2:0:0:
87,257,82700,1,2,0:0:0:0:
201,161,82911,6,0,L|184:240,1,65,2|2,0:0|0:0,0:0:0:0:
167,321,83334,1,2,3:2:0:0:
167,321,83545,1,2,0:0:0:0:
280,224,83756,6,0,L|263:303,1,65,10|2,0:0|0:0,0:0:0:0:
246,384,84179,1,2,0:0:0:0:
246,384,84390,1,2,0:0:0:0:
387,320,84601,6,0,L|362:169,2,130,6|0|8,3:2|0:0|0:0,0:0:0:0:
512,134,85869,2,0,P|490:118|435:120,1,65,2|0,3:2|0:0,0:0:0:0:
365,191,86292,2,0,B|324:196|300:173|321:170|290:140|250:148,1,130,2|2,0:0|3:2,0:0:0:0:
162,213,86925,1,0,0:0:0:0:
67,112,87137,2,0,B|108:117|132:94|111:91|142:61|182:69,1,130,10|0,0:0|0:0,0:0:0:0:
283,131,87770,1,2,0:0:0:0:
437,36,87982,6,0,L|454:115,1,65,6|2,3:2|0:0,0:0:0:0:
471,196,88405,1,2,0:0:0:0:
471,196,88616,1,2,0:0:0:0:
361,96,88827,6,0,L|378:175,1,65,10|2,0:0|0:0,0:0:0:0:
395,256,89250,1,2,3:2:0:0:
395,256,89461,1,2,0:0:0:0:
281,160,89672,6,0,L|298:239,1,65,2|2,0:0|0:0,0:0:0:0:
315,320,90095,1,2,3:2:0:0:
315,320,90306,1,2,0:0:0:0:
202,223,90517,6,0,L|219:302,1,65,10|2,0:0|0:0,0:0:0:0:
236,383,90940,1,2,0:0:0:0:
236,383,91151,1,2,0:0:0:0:
82,318,91362,6,0,L|110:177,2,130,6|2|8,3:2|0:0|0:0,0:0:0:0:
323,376,92630,2,0,P|319:349|298:317,1,65,2|0,3:2|0:0,0:0:0:0:
211,220,93052,2,0,P|236:230|274:227,1,65,2|0,0:0|0:0,0:0:0:0:
355,129,93475,2,0,P|361:157|370:199,1,65,2|2,3:2|0:0,0:0:0:0:
441,277,93898,2,0,P|471:275|503:244,1,65,10|0,0:0|0:0,0:0:0:0:
512,204,94214,1,2,0:0:0:0:
512,204,94320,2,0,L|495:152,2,32.5,0|2|0,3:2|3:2|3:2,0:0:0:0:
351,283,94742,6,0,B|311:273|311:273|272:301|272:301|216:286,1,130,6|2,3:2|0:0,0:0:0:0:
33,348,95587,1,8,0:0:0:0:
33,348,96010,2,0,P|51:323|57:268,1,65,2|0,3:2|0:0,0:0:0:0:
23,146,96432,2,0,P|35:174|80:206,1,65,2|0,0:0|0:0,0:0:0:0:
213,161,96855,1,2,3:2:0:0:
213,161,96961,1,2,0:0:0:0:
213,161,97066,1,2,0:0:0:0:
134,54,97277,2,0,P|122:88|116:120,1,65,10|0,0:0|0:0,0:0:0:0:
157,250,97700,1,2,0:0:0:0:
157,250,97911,1,2,0:0:0:0:
304,188,98123,6,0,P|341:184|379:211,1,65,2|0,3:2|0:0,0:0:0:0:
349,334,98545,2,0,P|327:303|331:257,1,65,2|2,0:0|0:0,0:0:0:0:
445,147,98968,1,8,0:0:0:0:
445,147,99390,2,0,P|434:112|422:65,1,65,2|0,3:2|0:0,0:0:0:0:
326,10,99813,2,0,P|317:41|307:72,1,65,2|0,0:0|0:0,0:0:0:0:
198,139,100235,2,0,P|188:108|179:76,1,65,2|0,3:2|0:0,0:0:0:0:
32,8,100658,2,0,B|60:52|60:52|30:130,1,130,10|2,0:0|0:0,0:0:0:0:
92,204,101292,1,2,0:0:0:0:
38,320,101503,6,0,L|57:399,1,65,2|0,3:2|0:0,0:0:0:0:
161,301,101925,2,0,P|213:277|289:298,1,130,2|8,0:0|0:0,0:0:0:0:
489,374,102770,1,2,3:2:0:0:
489,374,103193,2,0,P|480:342|469:298,1,65,2|2,0:0|0:0,0:0:0:0:
512,189,103616,1,2,3:2:0:0:
512,189,103827,2,0,B|476:197|444:165|471:163|446:136|396:134,1,130,2|0,0:0|0:0,0:0:0:0:
311,192,104461,1,2,0:0:0:0:
108,85,104883,5,2,0:0:0:0:
108,85,107418,5,10,0:0:0:0:
108,85,108263,6,0,P|79:127|92:201,2,116.999996429443,0|2|8,3:2|0:0|0:0,0:0:0:0:
268,12,109531,2,0,P|291:41|294:82,1,58.4999982147217,2|0,3:2|0:0,0:0:0:0:
263,143,109954,2,0,P|317:109|377:135,1,116.999996429443,2|0,0:0|3:2,0:0:0:0:
461,269,110799,1,10,0:0:0:0:
461,269,111221,6,0,P|405:257|324:247,1,116.999996429443,2|0,0:0|3:2,0:0:0:0:
194,338,112066,2,0,P|138:350|57:360,1,116.999996429443,2|8,0:0|0:0,0:0:0:0:
9,196,112911,1,2,3:2:0:0:
9,196,113334,2,0,B|50:169|50:169|138:189,1,116.999996429443,2|0,0:0|3:2,0:0:0:0:
188,233,113968,2,0,B|161:192|161:192|181:104,1,116.999996429443,2|0,0:0|0:0,0:0:0:0:
206,41,114601,2,0,P|231:59|281:62,1,58.4999982147217,2|0,0:0|0:0,0:0:0:0:
371,16,115024,6,0,L|344:135,1,116.999996429443,0|2,3:2|0:0,0:0:0:0:
306,301,115869,1,8,0:0:0:0:
477,263,116292,1,2,3:2:0:0:
477,263,116714,2,0,P|437:230|356:248,1,116.999996429443,2|0,0:0|3:2,0:0:0:0:
211,298,117559,1,10,0:0:0:0:
211,298,117982,6,0,P|158:306|70:325,1,116.999996429443,2|0,0:0|3:2,0:0:0:0:
8,166,118827,2,0,P|60:174|149:193,1,116.999996429443,2|8,0:0|0:0,0:0:0:0:
281,64,119672,1,0,3:2:0:0:
281,64,120094,2,0,P|234:57|177:100,1,116.999996429443,2|0,0:0|3:2,0:0:0:0:
123,186,120728,2,0,P|152:223|143:294,1,116.999996429443,2|0,0:0|0:0,0:0:0:0:
212,365,121362,2,0,P|236:355|280:342,1,58.4999982147217,2|0,0:0|0:0,0:0:0:0:
346,265,121785,6,0,B|387:276|387:276|425:260|425:260|465:270,1,116.999996429443,0|0,3:2|0:0,0:0:0:0:
363,119,122630,1,8,0:0:0:0:
363,119,123052,2,0,L|304:133,1,58.4999982147217,2|0,3:2|0:0,0:0:0:0:
196,156,123475,2,0,P|225:104|190:46,1,116.999996429443,2|0,0:0|3:2,0:0:0:0:
90,45,124108,2,0,P|61:97|96:155,1,116.999996429443,2|0,0:0|0:0,0:0:0:0:
133,229,124742,2,0,L|125:292,1,58.4999982147217,2|0,0:0|0:0,0:0:0:0:
27,347,125165,6,0,L|42:219,1,116.999996429443,0|2,3:2|0:0,0:0:0:0:
9,57,126010,2,0,P|39:75|81:71,1,58.4999982147217,10|2,0:0|0:0,0:0:0:0:
143,45,126432,2,0,P|173:27|215:31,1,58.4999982147217,2|0,3:2|0:0,0:0:0:0:
275,62,126855,2,0,P|336:73|401:91,1,116.999996429443,2|0,0:0|3:2,0:0:0:0:
452,164,127489,2,0,P|394:174|337:189,1,116.999996429443,2|0,0:0|0:0,0:0:0:0:
262,254,128123,2,0,P|235:254|202:233,1,58.4999982147217,2|0,0:0|0:0,0:0:0:0:
114,143,128545,6,0,B|134:183|134:183|99:272,1,116.999996429443,0|2,3:2|0:0,0:0:0:0:
267,369,129390,1,8,0:0:0:0:
267,369,129813,2,0,L|339:351,1,58.4999982147217,2|0,3:2|0:0,0:0:0:0:
444,378,130235,2,0,P|409:340|427:274,1,116.999996429443,2|0,0:0|3:2,0:0:0:0:
497,216,130869,2,0,L|479:144,1,58.4999982147217,2|8,0:0|0:0,0:0:0:0:
390,188,131292,1,2,0:0:0:0:
390,188,131503,2,0,L|311:177,1,58.4999982147217,2|2,0:0|0:0,0:0:0:0:
250,122,131925,6,0,B|210:132|210:132|189:169|189:169|131:189,1,116.999996429443,0|2,3:2|0:0,0:0:0:0:
59,6,132770,2,0,P|85:20|132:21,1,58.4999982147217,8|0,0:0|0:0,0:0:0:0:
211,40,133193,2,0,P|237:26|284:25,1,58.4999982147217,2|0,3:2|0:0,0:0:0:0:
355,65,133616,2,0,P|366:119|378:188,1,116.999996429443,2|0,0:0|3:2,0:0:0:0:
459,234,134249,2,0,P|447:291|437:348,1,116.999996429443,2|0,0:0|0:0,0:0:0:0:
342,284,134883,2,0,P|315:270|271:274,1,58.4999982147217,2|0,0:0|0:0,0:0:0:0:
191,318,135306,5,2,0:0:0:0:
256,192,147982,5,8,0:0:0:0:
19,125,148827,6,0,B|40:99|40:99|79:98,1,65,6|2,3:2|0:0,0:0:0:0:
161,137,149249,1,2,0:0:0:0:
161,137,149460,1,2,0:0:0:0:
101,8,149672,6,0,B|134:13|134:13|154:46,1,65,10|2,0:0|0:0,0:0:0:0:
161,137,150094,1,2,3:2:0:0:
161,137,150305,1,2,0:0:0:0:
243,20,150517,6,0,B|255:51|255:51|236:85,1,65,2|2,0:0|0:0,0:0:0:0:
161,137,150939,1,2,3:2:0:0:
161,137,151150,1,2,0:0:0:0:
304,149,151362,6,0,B|282:175|282:175|244:176,1,65,10|2,0:0|0:0,0:0:0:0:
161,137,151784,1,2,0:0:0:0:
161,137,151995,1,2,0:0:0:0:
209,265,152207,6,0,P|253:295|344:269,2,130,6|0|8,3:2|0:0|0:0,0:0:0:0:
9,350,153475,2,0,L|28:287,1,65,2|0,3:2|0:0,0:0:0:0:
94,199,153897,2,0,L|65:66,1,130,2|2,0:0|3:2,0:0:0:0:
146,0,154531,1,0,0:0:0:0:
260,73,154742,2,0,L|232:200,1,130,10|0,0:0|0:0,0:0:0:0:
166,279,155376,1,2,0:0:0:0:
309,360,155587,6,0,B|342:354|342:354|362:321,1,65,6|2,3:2|0:0,0:0:0:0:
370,230,156009,1,2,0:0:0:0:
370,230,156220,1,2,0:0:0:0:
452,346,156432,6,0,B|464:314|464:314|445:280,1,65,10|2,0:0|0:0,0:0:0:0:
370,230,156854,1,2,3:2:0:0:
370,230,157065,1,2,0:0:0:0:
512,217,157277,6,0,B|490:190|490:190|452:190,1,65,2|2,0:0|0:0,0:0:0:0:
370,230,157699,1,2,3:2:0:0:
370,230,157910,1,2,0:0:0:0:
431,100,158122,6,0,B|397:105|397:105|377:138,1,65,10|2,0:0|0:0,0:0:0:0:
370,230,158544,1,2,0:0:0:0:
370,230,158755,1,2,0:0:0:0:
283,123,158967,6,0,P|279:69|347:4,2,130,6|2|8,3:2|0:0|0:0,0:0:0:0:
447,270,160235,2,0,P|413:269|379:291,1,65,2|0,3:2|0:0,0:0:0:0:
293,343,160658,2,0,P|262:331|209:317,1,65,2|0,0:0|0:0,0:0:0:0:
129,364,161080,2,0,P|127:336|108:302,1,65,2|2,3:2|0:0,0:0:0:0:
34,222,161503,2,0,P|64:220|96:189,1,65,10|0,0:0|0:0,0:0:0:0:
105,149,161819,1,2,0:0:0:0:
105,149,161925,2,0,L|88:98,2,32.5,0|2|0,3:2|3:2|3:2,0:0:0:0:
238,217,162348,6,0,P|273:185|365:216,1,130,6|2,3:2|0:0,0:0:0:0:
512,309,163193,1,8,0:0:0:0:
512,309,163616,2,0,P|503:277|491:231,1,65,2|0,3:2|0:0,0:0:0:0:
442,150,164038,2,0,P|451:118|463:72,1,65,2|0,0:0|0:0,0:0:0:0:
381,15,164461,1,2,3:2:0:0:
381,15,164566,1,2,0:0:0:0:
381,15,164672,1,2,0:0:0:0:
264,67,164883,2,0,P|233:71|190:47,1,65,10|0,0:0|0:0,0:0:0:0:
98,7,165306,1,2,0:0:0:0:
98,7,165517,1,2,0:0:0:0:
124,117,165728,6,0,P|132:148|141:191,1,65,2|0,3:2|0:0,0:0:0:0:
19,242,166151,2,0,P|26:210|34:178,1,65,2|2,0:0|0:0,0:0:0:0:
159,278,166573,1,8,0:0:0:0:
159,278,166996,2,0,P|188:266|218:234,1,65,2|0,3:2|0:0,0:0:0:0:
238,96,167418,2,0,P|233:127|246:169,1,65,2|0,0:0|0:0,0:0:0:0:
356,256,167841,2,0,P|331:236|288:226,1,65,2|0,3:2|0:0,0:0:0:0:
204,364,168263,2,0,P|274:353|357:344,1,130,10|2,0:0|0:0,0:0:0:0:
420,373,168897,1,2,0:0:0:0:
503,272,169108,6,0,P|501:241|479:198,1,65,2|0,3:2|0:0,0:0:0:0:
372,148,169531,2,0,P|430:139|446:64,1,130,2|8,0:0|0:0,0:0:0:0:
259,16,170376,1,2,3:2:0:0:
259,16,170799,2,0,P|228:15|193:32,1,65,2|2,0:0|0:0,0:0:0:0:
169,128,171221,1,2,3:2:0:0:
169,128,171432,2,0,B|205:159|205:159|185:256,1,130,2|0,0:0|0:0,0:0:0:0:
87,303,172066,1,2,0:0:0:0:
87,303,172489,6,0,P|79:272|67:228,1,65,2|0,3:2|0:0,0:0:0:0:
7,148,172911,1,2,0:0:0:0:
7,148,173123,2,0,P|2:88|64:39,1,130,2|0,0:0|3:2,0:0:0:0:
163,26,173756,1,2,3:2:0:0:
70,240,174179,1,2,0:0:0:0:
70,240,174390,1,2,0:0:0:0:
155,168,174601,2,0,P|186:154|224:157,1,65,2|0,3:2|0:0,0:0:0:0:
269,261,175024,2,0,P|236:261|207:247,1,65,10|2,0:0|0:0,0:0:0:0:
316,131,175446,1,2,3:2:0:0:
316,131,175552,1,2,3:2:0:0:
316,131,175658,1,2,3:2:0:0:
405,238,175869,5,2,0:0:0:0:
