osu file format v14

[General]
AudioFilename: audio.mp3
AudioLeadIn: 0
PreviewTime: 42920
Countdown: 0
SampleSet: Soft
StackLeniency: 0.7
Mode: 2
LetterboxInBreaks: 0
WidescreenStoryboard: 1

[Editor]
Bookmarks: 579,3616,6654,9692,12730,15768,18806,24882,30958,37034,73490,76528,79946,103870,109946
DistanceSpacing: 1
BeatDivisor: 4
GridSize: 16
TimelineZoom: 1.7

[Metadata]
Title:Cinderella
TitleUnicode:シンデレラ
Artist:Jugo Kumagai
ArtistUnicode:熊谷重吾
Creator:Chatie
Version:Rew's Salad
Source:
Tags:Japanese Pop Jpop J-pop Rock Electronic DECO*27 Shigego Kuma JugoKuma Vtuber Vocaloid Male Vocals Cover 歌ってみた That Polar Bear Guy Furry 熊GUY rew0825 Bastian jorkseljund
BeatmapID:3550810
BeatmapSetID:1731984

[Difficulty]
HPDrainRate:3
CircleSize:2.5
OverallDifficulty:7
ApproachRate:7
SliderMultiplier:1.62
SliderTickRate:1

[Events]
//Background and Video events
0,0,"husbando.png",0,0
Video,0,"Video.m4v"
//Break Periods
//Storyboard Layer 0 (Background)
//Storyboard Layer 1 (Fail)
//Storyboard Layer 2 (Pass)
//Storyboard Layer 3 (Foreground)
//Storyboard Layer 4 (Overlay)
//Storyboard Sound Samples

[TimingPoints]
579,379.746835443038,4,2,0,50,1,0
6654,-100,4,2,0,60,0,0
17287,-100,4,2,1,60,0,0
18806,-100,4,2,0,45,0,0
30958,-100,4,2,1,40,0,0
37034,-100,4,2,1,40,0,0
40072,-100,4,2,1,55,0,0
42920,-100,4,2,0,45,0,0
43490,-100,4,2,0,70,0,1
67414,-100,4,2,1,40,0,0
79946,-100,4,2,0,70,0,1
91718,-100,4,2,1,40,0,0
97794,-100,4,2,0,50,0,0
99313,-100,4,2,1,55,0,0
100832,-100,4,2,0,50,0,0
103870,-100,4,2,1,40,0,0
109946,-100,4,2,0,50,0,0
112984,-100,4,2,0,55,0,0
114408,-100,4,2,1,40,0,0
116022,-100,4,2,0,55,0,1
117161,-100,4,2,0,45,0,0
117920,-100,4,2,0,70,0,1
139946,-100,4,2,0,70,0,0
140325,-100,4,2,0,70,0,1
149439,-100,4,2,0,55,0,0
151718,-100,4,2,0,70,0,1
152097,-90.9090909090909,4,2,0,70,0,1
152477,-100,4,2,0,20,0,0

[Colours]
Combo1 : 0,128,192
Combo2 : 255,128,64
Combo3 : 162,253,189

[HitObjects]
120,314,579,6,0,L|118:147,1,162,8|2,3:0|0:0,0:0:0:0:
280,152,1338,2,0,L|281:320,1,162,8|2,3:0|0:0,0:0:0:0:
199,313,1908,1,0,0:0:0:0:
287,313,2097,6,0,L|452:312,1,162,8|2,3:0|0:0,0:0:0:0:
367,312,2667,1,2,0:0:0:0:
277,312,2857,1,8,3:0:0:0:
358,312,3047,2,0,P|409:264|356:209,1,162,2|2,0:0|0:0,0:0:0:0:
178,209,3616,5,8,3:0:0:0:
96,209,3806,1,8,3:0:0:0:
178,209,3996,1,2,0:0:0:0:
340,209,4376,1,8,3:0:0:0:
421,209,4566,1,8,3:0:0:0:
340,209,4756,1,2,0:0:0:0:
161,209,4946,6,0,P|113:162|167:104,1,162,8|8,3:0|2:0,0:0:0:0:
247,104,5515,1,8,2:0:0:0:
247,184,5705,1,8,2:0:0:0:
158,184,5895,1,8,3:0:0:0:
76,184,6085,1,8,3:0:0:0:
158,184,6275,1,8,3:0:0:0:
465,184,6654,6,0,P|511:138|463:71,1,162,4|8,3:0|3:0,0:0:0:0:
380,70,7224,1,2,0:0:0:0:
290,70,7414,2,0,L|125:69,1,162,8|8,3:0|3:0,0:0:0:0:
306,69,8173,5,8,3:0:0:0:
386,76,8363,1,2,0:0:0:0:
427,145,8553,1,8,3:0:0:0:
382,212,8743,1,2,0:0:0:0:
292,212,8933,1,8,3:0:0:0:
373,212,9123,1,8,0:0:0:0:
454,212,9313,1,8,0:0:0:0:
147,211,9692,6,0,P|101:149|154:96,1,162,8|8,3:0|3:0,0:0:0:0:
231,96,10262,1,2,0:0:0:0:
320,96,10452,2,0,L|489:95,1,162,8|8,3:0|3:0,0:0:0:0:
303,95,11211,5,8,3:0:0:0:
259,174,11401,1,2,0:0:0:0:
308,250,11591,1,8,3:0:0:0:
389,250,11781,1,2,0:0:0:0:
477,236,11971,1,8,3:0:0:0:
472,155,12161,1,4,0:0:0:0:
391,135,12351,1,4,0:0:0:0:
83,118,12730,6,0,L|81:301,1,162,8|8,3:0|3:0,0:0:0:0:
162,279,13300,1,2,0:0:0:0:
251,279,13490,2,0,L|86:277,1,162,8|8,3:0|3:0,0:0:0:0:
267,277,14249,5,8,3:0:0:0:
346,263,14439,1,2,0:0:0:0:
338,182,14629,1,8,3:0:0:0:
256,181,14819,1,2,0:0:0:0:
167,186,15009,1,8,3:0:0:0:
86,174,15199,1,8,0:0:0:0:
167,186,15389,1,8,0:0:0:0:
474,186,15768,6,0,P|497:120|472:35,1,162,8|8,3:0|3:0,0:0:0:0:
390,34,16338,1,8,3:0:0:0:
300,75,16528,1,8,3:0:0:0:
298,156,16718,1,8,3:0:0:0:
379,156,16908,1,8,3:0:0:0:
381,236,17097,1,8,3:0:0:0:
205,331,17287,6,0,P|130:310|121:235,1,162,8|2,3:0|0:0,0:0:0:0:
210,235,17857,1,2,0:0:0:0:
253,166,18047,1,2,0:0:0:0:
207,98,18237,1,12,0:0:0:0:
126,94,18427,1,12,0:0:0:0:
432,94,18806,6,0,L|434:266,1,162,8|8,3:0|3:0,0:0:0:0:
352,255,19376,1,2,0:0:0:0:
262,255,19566,2,0,L|78:255,1,162,8|8,3:0|3:0,0:0:0:0:
278,255,20325,6,0,P|310:195|269:113,1,162,8|8,3:0|3:0,0:0:0:0:
191,115,20895,1,2,0:0:0:0:
101,115,21085,2,0,P|66:193|103:255,1,162,8|8,3:0|3:0,0:0:0:0:
279,253,21844,5,0,0:0:0:0:
360,253,22034,1,0,0:0:0:0:
399,181,22224,1,0,0:0:0:0:
359,252,22414,1,2,0:0:0:0:
269,252,22604,2,0,P|235:174|276:118,1,162,8|8,3:0|3:0,0:0:0:0:
357,117,23173,1,2,0:0:0:0:
267,117,23363,6,0,L|84:117,1,162,8|8,3:0|3:0,0:0:0:0:
186,117,23933,1,2,0:0:0:0:
275,117,24123,2,0,L|450:117,1,162,8|8,3:0|3:0,0:0:0:0:
129,117,24882,6,0,P|86:171|130:243,1,162,8|8,3:0|3:0,0:0:0:0:
209,242,25452,1,2,0:0:0:0:
298,242,25642,2,0,L|124:242,1,162,8|8,3:0|3:0,0:0:0:0:
217,242,26211,1,2,0:0:0:0:
306,242,26401,6,0,P|349:184|304:117,1,162,8|8,3:0|3:0,0:0:0:0:
223,117,26971,1,2,0:0:0:0:
312,117,27161,2,0,L|489:117,1,162,8|8,3:0|3:0,0:0:0:0:
295,117,27920,5,0,0:0:0:0:
213,117,28110,1,0,0:0:0:0:
173,187,28300,1,0,0:0:0:0:
214,117,28490,1,2,0:0:0:0:
303,117,28680,2,0,P|347:178|304:248,1,162,8|8,3:0|3:0,0:0:0:0:
227,245,29249,1,2,0:0:0:0:
316,245,29439,5,8,3:0:0:0:
397,245,29629,1,0,3:0:0:0:
316,245,29819,1,8,3:0:0:0:
153,245,30199,1,8,3:0:0:0:
71,245,30389,1,0,3:0:0:0:
153,245,30579,1,8,3:0:0:0:
461,245,30958,6,0,L|462:74,1,162,4|2,0:0|3:0,0:0:0:0:
299,83,31718,1,2,3:0:0:0:
177,83,32003,1,2,3:0:0:0:
299,83,32287,6,0,P|345:129|293:196,1,162,2|2,3:0|3:0,0:0:0:0:
214,195,32857,1,2,3:0:0:0:
218,276,33047,1,2,0:0:0:0:
299,276,33237,2,0,L|470:275,1,162,2|2,0:0|3:0,0:0:0:0:
379,275,33806,1,2,3:0:0:0:
289,275,33996,6,0,L|115:274,1,162,2|2,3:0|3:0,0:0:0:0:
289,274,34756,1,2,3:0:0:0:
410,274,35041,1,2,3:0:0:0:
289,274,35325,6,0,P|224:264|187:178,1,162,2|2,3:0|3:0,0:0:0:0:
267,183,35895,1,2,3:0:0:0:
348,183,36085,1,2,3:0:0:0:
267,183,36275,2,0,L|84:181,1,162,2|2,3:0|3:0,0:0:0:0:
413,181,37034,6,0,L|416:352,1,162,4|2,3:0|3:0,0:0:0:0:
237,342,37794,2,0,L|67:339,1,162,8|2,3:0|3:0,0:0:0:0:
156,339,38363,1,2,3:0:0:0:
334,339,38553,6,0,P|379:277|328:226,1,162,4|2,0:0|3:0,0:0:0:0:
246,225,39123,1,2,3:0:0:0:
335,225,39313,1,8,3:0:0:0:
408,191,39503,1,2,3:0:0:0:
428,112,39692,1,2,3:0:0:0:
121,112,40072,5,4,0:0:0:0:
78,181,40262,1,0,3:0:0:0:
121,249,40452,1,8,0:0:0:0:
202,249,40642,1,0,3:0:0:0:
380,249,40832,2,0,P|421:186|369:124,1,162,8|8,0:0|0:0,0:0:0:0:
292,125,41401,1,0,3:0:0:0:
121,125,41591,5,8,3:0:0:0:
80,195,41781,1,8,3:0:0:0:
125,262,41971,1,8,3:0:0:0:
206,262,42161,1,8,3:0:0:0:
295,262,42351,1,8,3:0:0:0:
298,180,42541,1,0,0:0:0:0:
210,180,42730,2,0,L|18:179,1,162,2|2,3:0|0:0,0:0:0:0:
358,179,43490,5,4,0:0:0:0:
195,179,43870,2,0,P|149:247|197:296,1,162,8|8,3:0|3:0,0:0:0:0:
284,295,44439,1,2,0:0:0:0:
462,295,44629,6,0,P|508:227|460:178,1,162,8|8,3:0|3:0,0:0:0:0:
282,178,45389,1,8,3:0:0:0:
371,178,45579,1,0,0:0:0:0:
413,109,45768,1,8,3:0:0:0:
371,178,45958,1,0,0:0:0:0:
192,178,46148,6,0,L|25:179,2,162,4|8|8,0:0|3:0|3:0,0:0:0:0:
370,178,47287,1,8,3:0:0:0:
370,97,47477,1,2,0:0:0:0:
191,97,47667,6,0,L|23:97,1,162,8|8,3:0|3:0,0:0:0:0:
207,97,48427,1,8,3:0:0:0:
207,177,48616,1,2,0:0:0:0:
118,177,48806,1,8,3:0:0:0:
115,257,48996,1,2,0:0:0:0:
294,257,49186,6,0,L|461:257,1,162,8|8,3:0|3:0,0:0:0:0:
277,257,49946,2,0,L|111:257,1,162,8|8,3:0|3:0,0:0:0:0:
204,257,50515,1,2,0:0:0:0:
382,257,50705,6,0,P|424:202|375:137,1,162,8|8,3:0|3:0,0:0:0:0:
293,136,51275,1,2,0:0:0:0:
203,136,51465,2,0,L|38:137,1,162,8|8,3:0|3:0,0:0:0:0:
349,136,52224,6,0,L|513:137,2,162,4|8|8,0:0|3:0|3:0,0:0:0:0:
170,136,53363,1,8,3:0:0:0:
168,216,53553,1,2,0:0:0:0:
347,216,53743,6,0,P|390:171|335:103,1,162,8|8,3:0|3:0,0:0:0:0:
159,103,54503,1,8,3:0:0:0:
79,113,54692,1,2,0:0:0:0:
95,193,54882,1,8,3:0:0:0:
183,202,55072,1,2,0:0:0:0:
361,202,55262,6,0,P|409:250|355:308,1,162,4|8,0:0|3:0,0:0:0:0:
274,307,55832,1,0,0:0:0:0:
184,307,56022,2,0,P|97:282|58:226,1,162,8|8,3:0|3:0,0:0:0:0:
139,226,56591,1,0,0:0:0:0:
317,226,56781,6,0,L|493:226,2,162,8|8|8,3:0|3:0|3:0,0:0:0:0:
146,226,57730,1,10,1:0:0:0:
65,226,57920,1,10,1:0:0:0:
366,226,58300,5,8,3:0:0:0:
413,160,58490,1,0,0:0:0:0:
364,95,58680,1,8,3:0:0:0:
274,95,58870,1,0,0:0:0:0:
364,95,59060,2,0,P|439:111|489:175,1,162,8|8,3:0|3:0,0:0:0:0:
408,175,59629,1,0,0:0:0:0:
229,175,59819,6,0,L|56:175,1,162,8|8,3:0|3:0,0:0:0:0:
22,106,60389,1,0,0:0:0:0:
79,39,60579,1,8,3:0:0:0:
248,39,60768,1,10,1:0:0:0:
329,39,60958,1,10,1:0:0:0:
29,39,61338,6,0,L|25:206,1,162,8|8,3:0|3:0,0:0:0:0:
106,200,61908,1,0,0:0:0:0:
194,200,62097,2,0,L|29:200,1,162,8|8,3:0|3:0,0:0:0:0:
333,200,62857,6,0,P|368:138|324:65,1,162,8|8,3:0|3:0,0:0:0:0:
236,66,63427,1,0,0:0:0:0:
234,154,63616,1,8,3:0:0:0:
404,154,63806,1,10,1:0:0:0:
485,154,63996,1,10,1:0:0:0:
194,154,64376,5,8,3:0:0:0:
104,154,64566,1,8,3:0:0:0:
120,100,64756,1,2,0:0:0:0:
209,99,64946,1,2,0:0:0:0:
386,99,65135,2,0,P|433:148|381:212,1,162,8|2,3:0|0:0,0:0:0:0:
204,211,65705,6,0,P|117:173|110:111,1,162,8|8,3:0|3:0,0:0:0:0:
198,114,66275,1,8,3:0:0:0:
375,114,66654,1,8,3:0:0:0:
456,114,66844,1,8,3:0:0:0:
375,114,67034,1,8,3:0:0:0:
66,114,67414,6,0,P|31:172|70:251,1,162,8|8,3:0|3:0,0:0:0:0:
231,250,68173,1,8,3:0:0:0:
312,250,68363,1,0,0:0:0:0:
231,250,68553,1,8,3:0:0:0:
52,250,68933,6,0,L|223:251,1,162,8|8,3:0|3:0,0:0:0:0:
392,250,69692,2,0,L|394:85,1,162,8|8,3:0|3:0,0:0:0:0:
215,88,70452,6,0,L|214:252,1,162,8|8,3:0|3:0,0:0:0:0:
376,249,71211,1,8,3:0:0:0:
457,249,71401,1,0,3:0:0:0:
376,249,71591,1,8,3:0:0:0:
213,249,71971,5,0,0:0:0:0:
210,329,72161,1,2,0:0:0:0:
291,329,72351,1,8,3:0:0:0:
454,329,72730,1,8,3:0:0:0:
457,249,72920,1,0,3:0:0:0:
376,249,73110,1,8,3:0:0:0:
67,249,73490,6,0,P|27:175|70:122,1,162,8|8,3:0|3:0,0:0:0:0:
152,121,74060,1,8,3:0:0:0:
233,121,74249,2,0,L|396:122,1,162,8|8,3:0|3:0,0:0:0:0:
314,121,74819,1,8,3:0:0:0:
224,121,75009,6,0,L|46:121,1,162,8|8,3:0|3:0,0:0:0:0:
144,121,75579,1,8,3:0:0:0:
183,191,75768,1,8,3:0:0:0:
143,261,75958,1,8,2:0:0:0:
63,267,76148,1,8,0:0:0:0:
371,267,76528,5,8,3:0:0:0:
451,259,76718,1,0,3:0:0:0:
490,188,76908,1,8,3:0:0:0:
451,117,77097,1,8,3:0:0:0:
362,111,77287,2,0,L|181:111,1,162,8|8,3:0|3:0,0:0:0:0:
281,111,77857,1,8,3:0:0:0:
370,111,78047,6,0,P|419:158|373:224,1,162,2|2,3:0|3:0,0:0:0:0:
291,224,78616,1,8,3:0:0:0:
293,305,78806,1,2,3:0:0:0:
374,305,78996,1,2,3:0:0:0:
293,305,79186,1,2,3:0:0:0:
130,305,79566,1,2,0:0:0:0:
438,305,79946,5,4,0:0:0:0:
276,305,80325,2,0,P|232:251|285:188,1,162,8|8,3:0|3:0,0:0:0:0:
363,188,80895,1,2,0:0:0:0:
184,188,81085,6,0,L|12:186,1,162,8|8,3:0|3:0,0:0:0:0:
200,186,81844,1,8,3:0:0:0:
241,116,82034,1,0,0:0:0:0:
197,47,82224,1,8,3:0:0:0:
107,46,82414,1,0,0:0:0:0:
285,46,82604,6,0,L|459:45,2,162,4|8|8,0:0|3:0|3:0,0:0:0:0:
106,46,83743,1,8,3:0:0:0:
105,126,83933,1,2,0:0:0:0:
284,126,84123,6,0,L|455:126,1,162,8|8,3:0|3:0,0:0:0:0:
267,126,84882,1,8,3:0:0:0:
266,206,85072,1,2,0:0:0:0:
355,206,85262,1,8,3:0:0:0:
357,286,85452,1,2,0:0:0:0:
178,286,85642,6,0,L|14:286,1,162,4|8,0:0|3:0,0:0:0:0:
194,286,86401,2,0,L|361:286,1,162,8|8,3:0|3:0,0:0:0:0:
274,286,86971,1,2,0:0:0:0:
95,286,87161,6,0,P|45:235|98:182,1,162,8|8,3:0|3:0,0:0:0:0:
276,182,87920,1,8,3:0:0:0:
277,101,88110,1,0,0:0:0:0:
196,101,88300,1,8,3:0:0:0:
115,100,88490,1,2,0:0:0:0:
294,100,88680,6,0,L|465:100,2,162,4|8|8,0:0|3:0|3:0,0:0:0:0:
472,100,89819,1,8,3:0:0:0:
473,180,90009,1,2,0:0:0:0:
294,180,90199,5,8,3:0:0:0:
205,185,90389,1,8,3:0:0:0:
164,264,90579,1,8,3:0:0:0:
209,340,90768,1,8,3:0:0:0:
298,345,90958,1,8,3:0:0:0:
376,324,91148,1,8,3:0:0:0:
394,245,91338,1,8,3:0:0:0:
119,345,91718,6,0,P|40:288|125:213,1,243,8|0,3:0|0:0,0:0:0:0:
206,213,92477,2,0,P|269:211|305:129,1,162,2|2,3:0|0:0,0:0:0:0:
222,214,93047,1,8,3:0:0:0:
133,211,93237,6,0,P|63:157|143:59,1,243,8|8,3:0|3:0,0:0:0:0:
223,59,93996,2,0,L|38:61,1,162,2|2,3:0|0:0,0:0:0:0:
239,60,94756,6,0,P|318:104|234:186,1,243,8|8,3:0|3:0,0:0:0:0:
154,186,95515,2,0,P|118:255|156:329,1,162,2|2,3:0|0:0,0:0:0:0:
233,325,96085,1,8,3:0:0:0:
322,325,96275,5,0,0:0:0:0:
403,325,96465,1,0,0:0:0:0:
322,325,96654,1,2,0:0:0:0:
143,325,97034,1,2,3:0:0:0:
62,325,97224,1,8,3:0:0:0:
143,325,97413,1,8,3:0:0:0:
451,325,97794,6,0,L|453:152,1,162,4|4,3:0|3:0,0:0:0:0:
274,163,98553,2,0,L|448:162,1,162,4|4,3:0|3:0,0:0:0:0:
354,162,99123,1,2,0:0:0:0:
175,162,99313,5,8,3:0:0:0:
135,241,99503,1,8,3:0:0:0:
174,320,99692,1,2,3:0:0:0:
255,322,99882,1,2,2:0:0:0:
343,308,100072,1,2,0:0:0:0:
425,219,100262,1,8,3:0:0:0:
339,216,100452,1,2,3:0:0:0:
30,216,100832,6,0,L|27:46,1,162,4|4,3:0|3:0,0:0:0:0:
108,54,101401,1,4,3:0:0:0:
197,54,101591,2,0,L|32:53,1,162,4|4,3:0|3:0,0:0:0:0:
116,53,102161,1,2,0:0:0:0:
366,53,103680,5,2,0:0:0:0:
187,53,103870,6,0,P|148:124|191:186,1,162,4|2,0:0|3:0,0:0:0:0:
350,184,104629,2,0,P|389:255|346:317,1,162,2|2,0:0|3:0,0:0:0:0:
266,315,105199,1,2,0:0:0:0:
176,315,105389,6,0,L|345:317,1,162,0|2,0:0|3:0,0:0:0:0:
175,316,106148,1,2,0:0:0:0:
94,303,106338,1,0,3:0:0:0:
175,316,106528,1,2,3:0:0:0:
353,316,106908,6,0,L|505:260,2,162,2|2|2,0:0|3:0|0:0,0:0:0:0:
190,316,108047,1,2,3:0:0:0:
188,235,108237,1,0,3:0:0:0:
277,235,108427,6,0,L|440:235,1,162,8|2,3:0|3:0,0:0:0:0:
276,235,109186,1,2,0:0:0:0:
274,153,109376,1,0,3:0:0:0:
355,153,109566,1,2,3:0:0:0:
435,146,109756,1,0,3:0:0:0:
256,146,109946,6,0,L|86:142,1,162,8|8,3:0|3:0,0:0:0:0:
256,142,110705,2,0,L|425:140,1,162,8|8,3:0|3:0,0:0:0:0:
336,140,111275,1,8,3:0:0:0:
246,140,111465,6,0,P|203:193|248:266,1,162,8|8,3:0|3:0,0:0:0:0:
407,265,112224,2,0,P|446:189|401:139,1,162,8|8,3:0|3:0,0:0:0:0:
320,139,112794,1,8,0:0:0:0:
141,139,112984,6,0,P|97:87|151:22,1,162,8|8,3:0|3:0,0:0:0:0:
227,22,113553,1,8,3:0:0:0:
137,22,113743,1,8,3:0:0:0:
94,90,113933,1,8,3:0:0:0:
137,158,114123,1,8,3:0:0:0:
226,160,114313,5,8,3:0:0:0:
387,160,114692,1,2,0:0:0:0:
226,160,115072,1,2,0:0:0:0:
144,160,115262,2,0,P|96:214|149:272,1,162,2|2,0:0|3:0,0:0:0:0:
227,271,115832,1,0,3:0:0:0:
405,271,116022,6,0,L|233:270,2,162,4|4|4,3:0|3:0|3:0,0:0:0:0:
242,271,117161,1,0,3:0:0:0:
160,271,117351,2,0,P|87:259|55:182,1,162,2|2,0:0|0:0,0:0:0:0:
233,184,117920,5,4,0:0:0:0:
395,184,118300,2,0,P|438:135|387:69,1,162,8|8,3:0|3:0,0:0:0:0:
305,68,118870,1,0,0:0:0:0:
126,68,119060,6,0,L|289:64,2,162,4|8|8,0:0|3:0|3:0,0:0:0:0:
304,68,120199,1,8,3:0:0:0:
305,148,120389,1,2,0:0:0:0:
126,148,120579,6,0,P|86:206|135:274,1,162,8|8,3:0|3:0,0:0:0:0:
310,273,121338,1,8,3:0:0:0:
382,269,121528,1,2,0:0:0:0:
422,208,121718,1,8,3:0:0:0:
376,150,121908,1,2,0:0:0:0:
198,150,122097,6,0,L|16:150,2,162,4|8|8,0:0|3:0|3:0,0:0:0:0:
376,150,123237,1,8,3:0:0:0:
376,230,123427,1,2,0:0:0:0:
198,230,123616,5,8,3:0:0:0:
116,230,123806,1,0,0:0:0:0:
198,230,123996,1,8,3:0:0:0:
376,230,124376,2,0,P|416:172|360:108,1,162,8|8,3:0|3:0,0:0:0:0:
284,109,124946,1,0,0:0:0:0:
106,109,125135,6,0,L|274:109,2,162,4|8|8,0:0|3:0|3:0,0:0:0:0:
284,109,126275,1,8,3:0:0:0:
285,189,126465,1,2,0:0:0:0:
107,189,126654,6,0,P|67:247|110:320,1,162,8|8,3:0|3:0,0:0:0:0:
189,319,127224,1,0,0:0:0:0:
278,319,127414,1,8,3:0:0:0:
278,238,127604,1,2,0:0:0:0:
189,238,127794,1,8,3:0:0:0:
108,228,127984,1,2,0:0:0:0:
286,228,128173,6,0,P|335:181|277:130,1,162,4|8,0:0|3:0,0:0:0:0:
196,129,128743,1,0,0:0:0:0:
285,129,128933,2,0,L|452:129,1,162,8|8,3:0|3:0,0:0:0:0:
365,129,129503,1,0,0:0:0:0:
187,129,129692,6,0,P|138:181|190:235,1,162,8|8,3:0|3:0,0:0:0:0:
280,235,130262,1,0,0:0:0:0:
280,154,130452,1,8,3:0:0:0:
109,154,130642,1,10,1:0:0:0:
28,155,130832,1,10,1:0:0:0:
328,151,131211,5,8,3:0:0:0:
416,164,131401,1,0,0:0:0:0:
448,246,131591,1,8,3:0:0:0:
411,327,131781,1,0,0:0:0:0:
322,333,131971,2,0,L|147:333,1,162,8|8,3:0|3:0,0:0:0:0:
241,333,132541,1,0,0:0:0:0:
418,333,132730,6,0,P|464:276|408:229,1,162,8|8,3:0|3:0,0:0:0:0:
326,228,133300,1,0,0:0:0:0:
245,228,133490,1,8,3:0:0:0:
415,228,133680,1,4,0:0:0:0:
496,228,133870,1,4,0:0:0:0:
196,228,134249,6,0,P|150:168|203:117,1,162,4|8,0:0|3:0,0:0:0:0:
283,117,134819,1,0,0:0:0:0:
193,117,135009,2,0,L|27:117,1,162,8|8,3:0|3:0,0:0:0:0:
112,117,135579,1,0,0:0:0:0:
289,117,135768,6,0,P|334:171|288:242,1,162,8|8,3:0|3:0,0:0:0:0:
210,240,136338,1,0,0:0:0:0:
210,321,136528,1,8,3:0:0:0:
380,321,136718,1,10,1:0:0:0:
461,321,136908,1,10,1:0:0:0:
161,320,137287,5,8,3:0:0:0:
120,249,137477,1,0,0:0:0:0:
168,184,137667,1,8,3:0:0:0:
257,181,137857,1,0,0:0:0:0:
168,184,138047,2,0,P|96:171|31:108,1,162,8|8,3:0|3:0,0:0:0:0:
114,111,138616,1,0,0:0:0:0:
292,111,138806,6,0,L|479:111,1,162,8|8,3:0|3:0,0:0:0:0:
364,110,139376,1,0,0:0:0:0:
326,190,139566,1,8,3:0:0:0:
369,267,139756,1,4,0:0:0:0:
457,279,139946,1,4,0:0:0:0:
149,279,140325,6,0,P|108:222|155:156,1,162,4|8,0:0|3:0,0:0:0:0:
236,155,140895,1,0,0:0:0:0:
325,155,141085,2,0,L|139:155,1,162,8|8,3:0|3:0,0:0:0:0:
81,155,141654,1,0,0:0:0:0:
259,155,141844,6,0,P|306:206|256:272,1,162,8|8,3:0|3:0,0:0:0:0:
169,271,142414,1,0,0:0:0:0:
166,190,142604,1,8,3:0:0:0:
336,190,142794,1,10,1:0:0:0:
416,191,142984,1,10,1:0:0:0:
117,191,143363,5,8,3:0:0:0:
50,144,143553,1,0,0:0:0:0:
119,102,143743,1,8,3:0:0:0:
208,100,143933,1,0,0:0:0:0:
297,101,144123,2,0,P|341:154|294:222,1,162,8|8,3:0|3:0,0:0:0:0:
213,221,144692,1,0,0:0:0:0:
34,221,144882,6,0,L|208:222,1,162,8|8,3:0|3:0,0:0:0:0:
106,221,145452,1,0,0:0:0:0:
105,140,145642,1,8,3:0:0:0:
275,140,145832,1,4,0:0:0:0:
356,140,146022,1,4,0:0:0:0:
56,140,146401,6,0,L|53:309,1,162,4|8,0:0|3:0,0:0:0:0:
134,301,146971,1,0,0:0:0:0:
223,301,147161,2,0,L|55:300,1,162,8|8,3:0|3:0,0:0:0:0:
142,300,147730,1,0,0:0:0:0:
320,300,147920,6,0,P|359:239|306:176,1,162,8|8,3:0|3:0,0:0:0:0:
219,176,148490,1,0,0:0:0:0:
138,176,148680,1,8,3:0:0:0:
309,176,148870,1,10,1:0:0:0:
390,176,149060,1,10,1:0:0:0:
89,176,149439,5,4,3:0:0:0:
50,104,149629,1,4,3:0:0:0:
89,176,149819,1,2,0:0:0:0:
178,176,150009,1,2,0:0:0:0:
356,176,150199,2,0,P|406:229|348:280,1,162,4|2,3:0|0:0,0:0:0:0:
175,280,150768,6,0,P|125:229|183:178,1,162,4|4,3:0|3:0,0:0:0:0:
268,177,151338,1,4,3:0:0:0:
348,177,151528,1,8,3:0:0:0:
260,177,151718,1,4,3:0:0:0:
178,177,151908,1,4,3:0:0:0:
373,177,152097,6,0,P|423:131|351:58,1,178.200005438233,4|0,0:0|0:0,0:0:0:0:
