osu file format v14

[General]
AudioFilename: audio.mp3
AudioLeadIn: 0
PreviewTime: 42920
Countdown: 0
SampleSet: Soft
StackLeniency: 0.7
Mode: 2
LetterboxInBreaks: 0
WidescreenStoryboard: 1

[Editor]
DistanceSpacing: 1
BeatDivisor: 4
GridSize: 8
TimelineZoom: 3.299999

[Metadata]
Title:Cinderella
TitleUnicode:シンデレラ
Artist:Jugo Kumagai
ArtistUnicode:熊谷重吾
Creator:Chatie
Version:Cup
Source:
Tags:Japanese Pop Jpop J-pop Rock Electronic DECO*27 Shigego Kuma JugoKuma Vtuber Vocaloid Male Vocals Cover 歌ってみた That Polar Bear Guy Furry 熊GUY rew0825 Bastian jorkseljund
BeatmapID:3541910
BeatmapSetID:1731984

[Difficulty]
HPDrainRate:2
CircleSize:2
OverallDifficulty:6
ApproachRate:6
SliderMultiplier:1.4
SliderTickRate:1

[Events]
//Background and Video events
0,0,"husbando.png",0,0
Video,0,"Video.m4v"
//Break Periods
2,67233,69592
//Storyboard Layer 0 (Background)
//Storyboard Layer 1 (Fail)
//Storyboard Layer 2 (Pass)
//Storyboard Layer 3 (Foreground)
//Storyboard Layer 4 (Overlay)
//Storyboard Sound Samples

[TimingPoints]
579,379.746835443038,4,2,0,50,1,0
6654,-100,4,2,0,60,0,0
17287,-100,4,2,1,60,0,0
18806,-100,4,2,0,45,0,0
30958,-100,4,2,1,40,0,0
37034,-100,4,2,1,40,0,0
40072,-100,4,2,1,55,0,0
42920,-100,4,2,0,45,0,0
43490,-100,4,2,0,70,0,1
67414,-100,4,2,1,40,0,0
79946,-100,4,2,0,70,0,1
91718,-100,4,2,1,40,0,0
97794,-100,4,2,0,50,0,0
99313,-100,4,2,1,55,0,0
100832,-100,4,2,0,50,0,0
103870,-100,4,2,1,40,0,0
109946,-100,4,2,0,50,0,0
112984,-100,4,2,0,55,0,0
114408,-100,4,2,1,40,0,0
116022,-100,4,2,0,55,0,1
117161,-100,4,2,0,45,0,0
117920,-100,4,2,0,70,0,1
139946,-100,4,2,0,70,0,0
140325,-100,4,2,0,70,0,1
149439,-100,4,2,0,55,0,0
151718,-100,4,2,0,70,0,1
152097,-90.9090909090909,4,2,0,70,0,1
152477,-100,4,2,0,20,0,0

[Colours]
Combo1 : 0,128,192
Combo2 : 255,128,64
Combo3 : 162,253,189

[HitObjects]
128,272,579,6,0,P|97:193|151:180,1,140,8|2,3:0|0:0,0:0:0:0:
268,176,1338,2,0,L|111:176,1,140,8|2,3:0|0:0,0:0:0:0:
296,232,2097,6,0,P|327:183|266:125,1,140,8|2,3:0|0:0,0:0:0:0:
127,117,2857,1,8,3:0:0:0:
56,147,3047,2,0,P|17:87|76:44,1,140,2|2,0:0|0:0,0:0:0:0:
141,68,3616,6,0,L|292:68,1,140,8|2,3:0|0:0,0:0:0:0:
210,68,4186,1,2,0:0:0:0:
140,210,4376,2,0,P|112:134|158:75,1,140,8|2,3:0|0:0,0:0:0:0:
209,81,4946,1,8,3:0:0:0:
349,83,5325,5,8,2:0:0:0:
279,81,5515,2,0,L|206:81,1,70,8|8,2:0|2:0,0:0:0:0:
279,81,5895,2,0,L|368:81,2,70,8|8|8,3:0|3:0|3:0,0:0:0:0:
111,250,6654,6,0,L|259:249,1,140,4|8,3:0|3:0,0:0:0:0:
180,249,7224,2,0,P|135:199|191:148,1,140,2|2,0:0|0:0,0:0:0:0:
242,147,7794,1,8,3:0:0:0:
410,166,8173,6,0,L|489:166,2,70,8|2|8,3:0|0:0|3:0,0:0:0:0:
339,169,8743,1,2,0:0:0:0:
269,201,8933,2,0,L|268:99,1,70,8|8,3:0|0:0,0:0:0:0:
339,131,9313,1,8,0:0:0:0:
171,152,9692,6,0,L|16:152,1,140,8|8,3:0|3:0,0:0:0:0:
101,153,10262,2,0,P|127:104|95:31,1,140,2|2,0:0|0:0,0:0:0:0:
24,27,10832,1,8,3:0:0:0:
192,116,11211,6,0,L|285:116,2,70,8|2|8,3:0|0:0|3:0,0:0:0:0:
121,119,11781,1,2,0:0:0:0:
51,125,11971,2,0,L|51:30,1,70,8|4,3:0|0:0,0:0:0:0:
122,57,12351,1,4,0:0:0:0:
290,223,12730,6,0,L|436:223,1,140,8|8,3:0|3:0,0:0:0:0:
359,224,13300,2,0,P|332:142|372:112,1,140,2|2,0:0|0:0,0:0:0:0:
434,119,13870,1,8,3:0:0:0:
267,174,14249,6,0,L|173:174,2,70,8|2|8,3:0|0:0|3:0,0:0:0:0:
337,176,14819,1,2,0:0:0:0:
407,181,15009,2,0,L|409:100,1,70,8|8,3:0|0:0,0:0:0:0:
338,104,15389,1,8,0:0:0:0:
171,171,15768,6,0,L|80:171,1,70,8|8,3:0|3:0,0:0:0:0:
171,171,16148,1,8,3:0:0:0:
241,193,16338,2,0,P|283:119|236:69,1,140,8|8,3:0|3:0,0:0:0:0:
188,73,16908,1,8,3:0:0:0:
256,192,17287,12,12,18427,0:0:0:0:
329,208,18806,6,0,P|367:150|325:107,1,140,8|8,3:0|3:0,0:0:0:0:
185,194,19566,2,0,P|155:125|216:81,1,140,8|8,3:0|3:0,0:0:0:0:
263,80,20135,1,2,0:0:0:0:
347,87,20325,6,0,L|195:87,1,140,8|8,3:0|3:0,0:0:0:0:
348,206,21085,2,0,P|384:139|342:86,1,140,8|8,3:0|3:0,0:0:0:0:
283,97,21654,1,2,0:0:0:0:
115,118,22034,6,2,L|18:118,2,70,2|8|2,0:0|3:0|0:0,0:0:0:0:
186,134,22604,2,0,P|222:54|189:7,1,140,8|8,3:0|3:0,0:0:0:0:
129,18,23173,1,2,0:0:0:0:
213,18,23363,6,0,L|360:18,1,140,8|8,3:0|3:0,0:0:0:0:
212,223,24123,2,0,P|175:148|234:114,1,140,8|8,3:0|3:0,0:0:0:0:
377,202,24882,6,0,P|410:127|373:115,1,140,8|8,3:0|3:0,0:0:0:0:
238,142,25642,2,0,L|85:142,1,140,8|8,3:0|3:0,0:0:0:0:
98,142,26211,1,2,0:0:0:0:
182,164,26401,6,0,L|341:164,1,140,8|8,3:0|3:0,0:0:0:0:
191,269,27161,2,0,P|143:195|191:174,1,140,8|8,3:0|3:0,0:0:0:0:
235,168,27730,1,2,0:0:0:0:
403,161,28110,6,0,L|479:161,2,70,2|8|2,0:0|3:0|0:0,0:0:0:0:
332,213,28680,2,0,P|298:137|347:115,1,140,8|8,3:0|3:0,0:0:0:0:
403,161,29249,6,0,L|479:161,2,70,2|8|0,0:0|3:0|3:0,0:0:0:0:
332,172,29819,2,0,L|253:172,1,70,8|0,3:0|3:0,0:0:0:0:
192,172,30199,2,0,L|349:172,1,140,8|8,3:0|3:0,0:0:0:0:
159,242,30958,6,0,P|120:178|182:134,1,140,4|2,0:0|3:0,0:0:0:0:
296,137,31718,2,0,L|167:137,1,105,2|2,3:0|3:0,0:0:0:0:
65,183,32287,6,0,P|49:103|101:66,1,140,2|2,3:0|3:0,0:0:0:0:
158,71,32857,2,0,L|239:71,1,70,2|2,3:0|0:0,0:0:0:0:
156,242,33237,2,0,P|131:168|186:128,1,140,2|2,0:0|3:0,0:0:0:0:
254,191,33806,6,0,P|305:125|257:80,1,140,2|2,3:0|0:0,0:0:0:0:
209,89,34376,1,2,3:0:0:0:
69,89,34756,2,0,L|208:89,1,140,2|2,3:0|0:0,0:0:0:0:
294,174,35325,6,0,P|335:109|283:69,1,140,2|2,3:0|3:0,0:0:0:0:
228,70,35895,2,0,L|153:70,2,70,2|2|2,3:0|3:0|3:0,0:0:0:0:
368,174,36654,2,0,L|368:98,1,70,2|2,3:0|3:0,0:0:0:0:
283,194,37034,6,0,P|251:115|307:94,1,140,4|2,3:0|3:0,0:0:0:0:
423,93,37794,2,0,L|277:93,1,140,8|2,3:0|3:0,0:0:0:0:
451,193,38553,6,0,P|484:137|444:77,1,140,4|2,0:0|3:0,0:0:0:0:
308,180,39313,2,0,L|155:180,1,140,8|2,3:0|3:0,0:0:0:0:
336,99,40072,6,0,L|426:99,2,70,4|0|8,0:0|3:0|0:0,0:0:0:0:
195,112,40832,2,0,L|105:112,2,70,8|0|8,0:0|3:0|0:0,0:0:0:0:
279,209,41401,6,0,P|315:138|276:106,1,140,2|8,0:0|3:0,0:0:0:0:
208,137,41971,2,0,L|127:137,1,70,8|8,3:0|3:0,0:0:0:0:
208,137,42351,1,8,3:0:0:0:
417,118,42920,1,2,0:0:0:0:
333,125,43110,5,2,0:0:0:0:
164,138,43490,2,0,L|310:138,1,140,4|8,0:0|3:0,0:0:0:0:
164,138,44249,2,0,L|88:138,1,70,8|2,3:0|0:0,0:0:0:0:
263,220,44819,6,0,P|299:158|270:101,1,140,2|2,0:0|0:0,0:0:0:0:
200,107,45389,2,0,L|129:107,2,70,8|2|8,3:0|0:0|3:0,0:0:0:0:
271,101,45958,1,2,0:0:0:0:
355,165,46148,6,0,L|193:166,1,140,4|8,0:0|3:0,0:0:0:0:
355,165,46908,2,0,P|383:95|333:31,1,140,8|8,3:0|3:0,0:0:0:0:
284,55,47477,1,2,0:0:0:0:
143,53,47857,5,2,0:0:0:0:
284,55,48237,1,2,0:0:0:0:
213,150,48427,2,0,L|116:150,1,70,8|2,3:0|0:0,0:0:0:0:
143,150,48806,2,0,L|219:150,1,70,8|2,3:0|0:0,0:0:0:0:
297,148,49186,5,8,3:0:0:0:
157,280,49566,2,0,P|113:211|167:177,1,140,8|8,3:0|3:0,0:0:0:0:
285,215,50325,2,0,L|361:215,1,70,8|2,3:0|0:0,0:0:0:0:
187,259,50895,6,0,P|156:181|204:155,1,140,2|2,0:0|0:0,0:0:0:0:
261,145,51465,2,0,L|336:145,2,70,8|2|8,3:0|0:0|3:0,0:0:0:0:
190,145,52034,1,2,0:0:0:0:
105,216,52224,6,0,L|250:217,1,140,4|8,0:0|3:0,0:0:0:0:
384,217,52984,2,0,L|227:216,1,140,8|8,3:0|3:0,0:0:0:0:
174,220,53553,1,2,0:0:0:0:
342,263,53933,6,0,P|374:182|331:149,1,140,2|2,0:0|0:0,0:0:0:0:
274,160,54503,2,0,L|187:160,1,70,8|2,3:0|0:0,0:0:0:0:
204,160,54882,2,0,L|283:160,1,70,8|2,3:0|0:0,0:0:0:0:
360,212,55262,6,0,P|393:141|340:77,1,140,4|8,0:0|3:0,0:0:0:0:
224,237,56022,2,0,L|224:83,1,140,8|8,3:0|3:0,0:0:0:0:
294,97,56591,1,2,0:0:0:0:
379,155,56781,6,0,L|228:155,1,140,8|8,3:0|3:0,0:0:0:0:
100,129,57541,1,8,3:0:0:0:
30,127,57730,2,0,P|14:62|81:24,1,140,10|2,1:0|0:0,0:0:0:0:
151,187,58300,6,0,L|245:188,2,70,8|2|8,3:0|0:0|3:0,0:0:0:0:
80,191,58870,1,2,0:0:0:0:
151,187,59060,1,8,3:0:0:0:
290,185,59439,1,8,3:0:0:0:
374,193,59629,6,0,P|414:123|365:86,1,140,2|2,0:0|0:0,0:0:0:0:
310,163,60199,2,0,L|310:77,1,70,8|0,3:0|0:0,0:0:0:0:
380,89,60579,1,8,3:0:0:0:
240,176,60958,2,0,L|149:176,1,70,10|0,1:0|0:0,0:0:0:0:
255,249,61338,6,0,P|294:180|240:134,1,140,8|8,3:0|3:0,0:0:0:0:
122,229,62097,2,0,L|122:78,1,140,8|8,3:0|3:0,0:0:0:0:
192,82,62667,1,2,0:0:0:0:
276,90,62857,6,0,L|117:90,1,140,8|8,3:0|3:0,0:0:0:0:
276,127,63616,1,8,3:0:0:0:
346,201,63806,2,0,P|383:123|339:94,1,140,10|2,1:0|0:0,0:0:0:0:
268,112,64376,6,0,L|194:112,2,70,8|8|2,3:0|3:0|0:0,0:0:0:0:
408,117,65135,2,0,L|481:117,2,70,8|8|2,3:0|3:0|0:0,0:0:0:0:
322,222,65705,6,0,P|294:139|347:121,1,140,8|8,3:0|3:0,0:0:0:0:
409,126,66275,2,0,L|482:126,1,70,8|8,3:0|3:0,0:0:0:0:
395,120,66654,2,0,L|317:120,2,70,8|8|8,3:0|3:0|3:0,0:0:0:0:
165,231,70642,6,0,P|129:181|175:126,1,140,2|8,0:0|3:0,0:0:0:0:
242,119,71211,2,0,L|322:119,2,70,8|0|8,3:0|3:0|3:0,0:0:0:0:
157,209,71781,6,0,P|130:138|172:95,1,140,2|2,0:0|0:0,0:0:0:0:
241,253,72351,2,0,L|241:166,1,70,8|0,3:0|3:0,0:0:0:0:
171,277,72730,2,0,L|169:132,1,140,8|8,3:0|3:0,0:0:0:0:
337,137,73490,5,8,3:0:0:0:
126,138,74060,1,8,3:0:0:0:
126,138,74249,1,8,3:0:0:0:
329,144,74819,1,8,3:0:0:0:
398,150,75009,5,8,3:0:0:0:
188,161,75579,1,8,3:0:0:0:
257,168,75768,2,0,L|336:168,2,70,8|8|8,3:0|2:0|0:0,0:0:0:0:
188,161,76338,1,2,0:0:0:0:
49,166,76718,5,0,3:0:0:0:
119,171,76908,2,0,L|120:76,1,70,8|8,3:0|3:0,0:0:0:0:
49,166,77287,1,8,3:0:0:0:
189,169,77667,1,8,3:0:0:0:
273,166,77857,6,0,P|310:99|251:78,1,140,8|8,3:0|3:0,0:0:0:0:
199,78,78427,2,0,L|126:78,2,70,2|8|2,3:0|3:0|3:0,0:0:0:0:
339,83,79186,1,2,3:0:0:0:
408,87,79376,1,2,0:0:0:0:
324,174,79566,5,2,0:0:0:0:
156,263,79946,2,0,P|143:184|194:164,1,140,4|8,0:0|3:0,0:0:0:0:
327,237,80705,2,0,L|327:138,1,70,8|2,3:0|0:0,0:0:0:0:
160,196,81275,6,0,L|8:195,1,140,2|2,0:0|0:0,0:0:0:0:
90,198,81844,2,0,L|161:198,1,70,8|0,3:0|0:0,0:0:0:0:
160,198,82224,2,0,L|61:198,1,70,8|0,3:0|0:0,0:0:0:0:
174,159,82604,6,0,L|315:159,1,140,4|8,0:0|3:0,0:0:0:0:
174,251,83363,2,0,P|148:166|194:135,1,140,8|8,3:0|3:0,0:0:0:0:
248,134,83933,1,2,0:0:0:0:
390,137,84313,5,2,0:0:0:0:
248,134,84692,1,2,0:0:0:0:
318,136,84882,2,0,L|318:52,1,70,8|2,3:0|0:0,0:0:0:0:
247,65,85262,2,0,L|169:65,1,70,8|2,3:0|0:0,0:0:0:0:
263,155,85642,5,4,0:0:0:0:
403,197,86022,2,0,P|432:117|382:85,1,140,8|8,3:0|3:0,0:0:0:0:
257,174,86781,2,0,L|257:83,1,70,8|2,3:0|0:0,0:0:0:0:
397,101,87351,5,2,0:0:0:0:
467,117,87541,2,0,L|467:36,1,70,8|0,3:0|0:0,0:0:0:0:
397,58,87920,2,0,L|314:58,2,70,8|2|8,3:0|0:0|3:0,0:0:0:0:
467,61,88490,1,2,0:0:0:0:
383,225,88680,6,0,L|241:226,1,140,4|8,0:0|3:0,0:0:0:0:
102,205,89439,2,0,L|255:205,1,140,8|8,3:0|3:0,0:0:0:0:
313,203,90009,1,2,0:0:0:0:
172,134,90389,5,8,3:0:0:0:
311,137,90768,1,8,3:0:0:0:
242,135,90958,2,0,L|160:135,1,70,8|8,3:0|3:0,0:0:0:0:
172,135,91338,2,0,L|242:135,1,70,8|8,3:0|3:0,0:0:0:0:
327,197,91718,5,8,3:0:0:0:
76,184,92477,1,2,3:0:0:0:
257,210,93047,1,8,3:0:0:0:
173,211,93237,5,8,3:0:0:0:
354,203,93806,1,8,3:0:0:0:
354,203,93996,1,2,3:0:0:0:
186,196,94376,1,2,0:0:0:0:
312,150,94756,5,8,3:0:0:0:
146,173,95325,1,8,3:0:0:0:
146,173,95515,1,2,3:0:0:0:
334,173,96085,1,8,3:0:0:0:
419,174,96275,5,4,3:0:0:0:
302,110,96654,1,2,0:0:0:0:
443,100,97034,1,2,3:0:0:0:
443,100,97224,1,8,3:0:0:0:
359,184,97414,1,8,3:0:0:0:
189,187,97794,5,4,3:0:0:0:
328,184,98173,1,4,3:0:0:0:
189,187,98553,1,4,3:0:0:0:
328,184,98933,1,4,3:0:0:0:
397,186,99123,1,2,0:0:0:0:
328,184,99313,6,0,P|291:113|341:78,1,140,8|2,3:0|3:0,0:0:0:0:
182,250,100072,2,0,L|182:158,1,70,2|8,0:0|3:0,0:0:0:0:
253,254,100452,2,0,L|253:167,1,70,2|0,3:0|0:0,0:0:0:0:
168,250,100832,5,4,3:0:0:0:
27,147,101211,1,4,3:0:0:0:
27,147,101401,1,4,3:0:0:0:
97,147,101591,1,4,3:0:0:0:
237,73,101971,1,4,3:0:0:0:
166,70,102161,1,2,0:0:0:0:
370,146,103680,5,2,0:0:0:0:
285,162,103870,5,4,0:0:0:0:
117,243,104249,2,0,P|94:169|145:125,1,140,2|2,3:0|0:0,0:0:0:0:
272,230,105009,2,0,L|272:130,1,70,2|2,3:0|0:0,0:0:0:0:
131,196,105579,2,0,P|72:124|61:74,1,140,2|0,0:0|3:0,0:0:0:0:
132,111,106148,2,0,L|205:111,2,70,2|0|2,0:0|3:0|3:0,0:0:0:0:
61,109,106718,1,0,3:0:0:0:
145,115,106908,6,0,L|307:115,1,140,2|2,0:0|3:0,0:0:0:0:
145,223,107667,2,0,P|108:146|150:113,1,140,2|2,0:0|3:0,0:0:0:0:
209,104,108237,1,2,0:0:0:0:
348,107,108616,5,2,0:0:0:0:
207,119,108996,1,2,0:0:0:0:
277,120,109186,2,0,L|365:120,1,70,2|0,0:0|3:0,0:0:0:0:
347,120,109566,2,0,L|263:121,1,70,2|0,3:0|3:0,0:0:0:0:
192,122,109946,5,8,3:0:0:0:
344,221,110325,2,0,P|378:151|331:100,1,140,8|8,3:0|3:0,0:0:0:0:
206,150,111085,2,0,L|129:151,1,70,8|8,3:0|3:0,0:0:0:0:
276,155,111654,5,8,0:0:0:0:
206,150,111844,2,0,L|206:57,1,70,8|8,3:0|0:0,0:0:0:0:
276,76,112224,2,0,L|358:75,2,70,8|8|8,3:0|0:0|3:0,0:0:0:0:
205,70,112794,1,8,0:0:0:0:
121,239,112984,6,0,P|91:182|131:115,1,140,8|8,3:0|3:0,0:0:0:0:
194,138,113553,1,8,3:0:0:0:
264,254,113743,2,0,P|298:182|244:139,1,140,8|8,3:0|3:0,0:0:0:0:
194,138,114312,1,8,3:0:0:0:
53,139,114692,5,2,0:0:0:0:
194,138,115072,1,2,0:0:0:0:
265,243,115262,2,0,P|301:171|237:133,1,140,2|2,0:0|3:0,0:0:0:0:
194,138,115832,1,0,3:0:0:0:
109,137,116022,5,4,3:0:0:0:
248,143,116401,1,4,3:0:0:0:
109,137,116781,1,4,3:0:0:0:
256,109,117161,2,0,L|333:110,1,70,0|2,3:0|0:0,0:0:0:0:
469,113,117730,1,2,0:0:0:0:
385,208,117920,6,0,L|288:208,1,70,4|0,0:0|0:0,0:0:0:0:
385,208,118300,2,0,L|385:115,1,70,8|0,3:0|0:0,0:0:0:0:
314,208,118680,2,0,L|240:208,1,70,8|0,3:0|0:0,0:0:0:0:
159,218,119060,6,0,P|130:153|182:96,1,140,4|8,0:0|3:0,0:0:0:0:
306,219,119819,2,0,P|341:139|302:100,1,140,8|8,3:0|3:0,0:0:0:0:
243,101,120389,1,2,0:0:0:0:
103,98,120768,5,2,0:0:0:0:
243,101,121148,1,2,0:0:0:0:
305,132,121338,2,0,L|305:44,1,70,8|2,3:0|0:0,0:0:0:0:
234,191,121718,2,0,L|235:104,1,70,8|2,3:0|0:0,0:0:0:0:
319,196,122097,5,4,0:0:0:0:
459,210,122477,2,0,P|487:117|439:83,1,140,8|8,3:0|3:0,0:0:0:0:
325,145,123237,2,0,L|251:145,1,70,8|2,3:0|0:0,0:0:0:0:
116,143,123806,5,2,0:0:0:0:
185,144,123996,2,0,L|278:145,1,70,8|0,3:0|0:0,0:0:0:0:
184,140,124376,2,0,L|91:140,2,70,8|2|8,3:0|0:0|3:0,0:0:0:0:
254,144,124946,1,2,0:0:0:0:
338,191,125135,6,0,L|179:191,1,140,4|8,0:0|3:0,0:0:0:0:
58,196,125895,2,0,P|22:135|74:90,1,140,8|8,3:0|3:0,0:0:0:0:
133,92,126465,1,2,0:0:0:0:
273,86,126844,5,2,0:0:0:0:
133,92,127224,1,2,0:0:0:0:
204,218,127414,2,0,L|280:218,1,70,8|2,3:0|0:0,0:0:0:0:
274,218,127794,2,0,L|199:218,1,70,8|2,3:0|0:0,0:0:0:0:
119,250,128173,6,0,L|273:251,1,140,4|8,0:0|3:0,0:0:0:0:
400,250,128933,2,0,P|435:180|391:151,1,140,8|8,3:0|3:0,0:0:0:0:
326,143,129503,1,2,0:0:0:0:
256,180,129692,6,0,L|401:180,1,140,8|8,3:0|3:0,0:0:0:0:
396,180,130262,1,2,0:0:0:0:
325,180,130452,1,8,3:0:0:0:
255,180,130642,2,0,L|108:179,1,140,10|2,1:0|0:0,0:0:0:0:
199,173,131211,6,0,L|269:173,2,70,8|2|8,3:0|0:0|3:0,0:0:0:0:
128,172,131781,1,2,0:0:0:0:
199,173,131971,1,8,3:0:0:0:
338,161,132351,1,8,3:0:0:0:
421,179,132541,6,0,P|451:108|387:67,1,140,2|2,0:0|0:0,0:0:0:0:
342,146,133110,2,0,L|342:55,1,70,8|0,3:0|0:0,0:0:0:0:
412,69,133490,1,8,3:0:0:0:
271,69,133870,2,0,L|177:69,1,70,4|0,0:0|0:0,0:0:0:0:
285,216,134249,6,0,P|326:150|287:112,1,140,4|8,0:0|3:0,0:0:0:0:
151,182,135009,2,0,P|76:173|18:139,1,140,8|8,3:0|3:0,0:0:0:0:
89,126,135579,1,2,0:0:0:0:
172,134,135768,6,0,P|221:68|198:15,1,140,8|8,3:0|3:0,0:0:0:0:
132,16,136338,1,2,0:0:0:0:
62,18,136528,1,8,3:0:0:0:
133,142,136718,2,0,L|276:143,1,140,10|2,1:0|0:0,0:0:0:0:
189,99,137287,6,0,L|91:99,1,70,8|0,3:0|0:0,0:0:0:0:
119,99,137667,2,0,L|195:99,1,70,8|0,3:0|0:0,0:0:0:0:
259,95,138047,1,8,3:0:0:0:
119,139,138427,1,8,3:0:0:0:
35,181,138616,6,0,P|17:107|72:76,1,140,2|2,0:0|0:0,0:0:0:0:
133,78,139186,2,0,L|133:0,1,70,8|0,3:0|0:0,0:0:0:0:
62,12,139566,1,8,3:0:0:0:
202,22,139946,2,0,L|295:22,1,70,4|0,0:0|0:0,0:0:0:0:
187,238,140325,6,0,P|149:169|206:143,1,140,4|8,0:0|3:0,0:0:0:0:
326,237,141085,2,0,P|337:154|293:126,1,140,8|8,3:0|3:0,0:0:0:0:
227,115,141654,1,2,0:0:0:0:
157,170,141844,6,0,L|305:170,1,140,8|8,3:0|3:0,0:0:0:0:
367,170,142414,1,2,0:0:0:0:
297,170,142604,1,8,3:0:0:0:
227,222,142794,2,0,P|194:161|252:120,1,140,10|2,1:0|0:0,0:0:0:0:
323,121,143363,6,0,L|400:121,1,70,8|0,3:0|0:0,0:0:0:0:
393,121,143743,2,0,L|313:121,1,70,8|0,3:0|0:0,0:0:0:0:
252,123,144123,1,8,3:0:0:0:
392,156,144503,1,8,3:0:0:0:
476,218,144692,6,0,P|494:144|446:111,1,140,2|2,0:0|0:0,0:0:0:0:
379,123,145262,2,0,L|379:44,1,70,8|0,3:0|0:0,0:0:0:0:
450,51,145642,1,8,3:0:0:0:
308,133,146022,2,0,L|214:133,1,70,4|0,0:0|0:0,0:0:0:0:
322,213,146401,6,0,P|361:151|318:110,1,140,4|8,0:0|3:0,0:0:0:0:
182,182,147161,2,0,P|151:122|203:78,1,140,8|8,3:0|3:0,0:0:0:0:
266,72,147730,1,2,0:0:0:0:
350,114,147920,6,0,L|187:113,1,140,8|8,3:0|3:0,0:0:0:0:
139,116,148490,1,2,0:0:0:0:
210,113,148680,1,8,3:0:0:0:
281,228,148870,2,0,P|317:164|266:128,1,140,10|0,1:0|0:0,0:0:0:0:
190,156,149439,5,4,3:0:0:0:
190,156,149629,1,4,3:0:0:0:
401,162,150199,1,4,3:0:0:0:
401,162,150389,1,4,3:0:0:0:
261,172,150768,5,4,3:0:0:0:
401,162,151148,1,4,3:0:0:0:
313,168,151338,2,0,L|313:91,1,70,4|8,3:0|3:0,0:0:0:0:
398,90,151718,2,0,L|490:90,1,70,4|4,3:0|3:0,0:0:0:0:
383,141,152097,6,0,L|193:141,1,154.000004699707,4|0,0:0|0:0,0:0:0:0:
