osu file format v14

[General]
AudioFilename: audio.mp3
AudioLeadIn: 0
PreviewTime: 42920
Countdown: 0
SampleSet: Soft
StackLeniency: 0.7
Mode: 2
LetterboxInBreaks: 0
WidescreenStoryboard: 1

[Editor]
DistanceSpacing: 2.4
BeatDivisor: 4
GridSize: 8
TimelineZoom: 2.3

[Metadata]
Title:Cinderella
TitleUnicode:シンデレラ
Artist:Jugo Kumagai
ArtistUnicode:熊谷重吾
Creator:Chatie
Version:Bastian's Rain
Source:
Tags:Japanese Pop Jpop J-pop Rock Electronic DECO*27 Shigego Kuma JugoKuma Vtuber Vocaloid Male Vocals Cover 歌ってみた That Polar Bear Guy Furry 熊GUY rew0825 Bastian jorkseljund
BeatmapID:3553656
BeatmapSetID:1731984

[Difficulty]
HPDrainRate:5
CircleSize:4
OverallDifficulty:9
ApproachRate:9
SliderMultiplier:1.8
SliderTickRate:2

[Events]
//Background and Video events
0,0,"husbando.png",0,0
Video,0,"Video.m4v"
//Break Periods
2,104070,109346
//Storyboard Layer 0 (Background)
//Storyboard Layer 1 (Fail)
//Storyboard Layer 2 (Pass)
//Storyboard Layer 3 (Foreground)
//Storyboard Layer 4 (Overlay)
//Storyboard Sound Samples

[TimingPoints]
579,379.746835443038,4,2,0,50,1,0
579,-83.3333333333333,4,2,0,50,0,0
6654,-83.3333333333333,4,2,0,60,0,0
17287,-83.3333333333333,4,3,1,60,0,0
18806,-83.3333333333333,4,2,0,45,0,0
30958,-83.3333333333333,4,2,1,40,0,0
37034,-83.3333333333333,4,2,1,40,0,0
40072,-83.3333333333333,4,2,1,55,0,0
42920,-83.3333333333333,4,2,0,45,0,0
43490,-83.3333333333333,4,2,0,70,0,1
63806,-83.3333333333333,4,2,0,70,0,1
63996,-83.3333333333333,4,2,0,70,0,1
67414,-83.3333333333333,4,2,1,40,0,0
79946,-83.3333333333333,4,2,0,70,0,1
91718,-83.3333333333333,4,2,1,40,0,0
97794,-83.3333333333333,4,2,0,50,0,0
99313,-83.3333333333333,4,2,1,55,0,0
100832,-83.3333333333333,4,2,0,50,0,0
103870,-83.3333333333333,4,2,1,40,0,0
109946,-83.3333333333333,4,2,0,50,0,0
112984,-83.3333333333333,4,2,0,55,0,0
114408,-83.3333333333333,4,2,1,40,0,0
116022,-83.3333333333333,4,2,0,55,0,1
117161,-83.3333333333333,4,2,0,45,0,0
117920,-83.3333333333333,4,2,0,70,0,1
139946,-83.3333333333333,4,2,0,70,0,0
140325,-83.3333333333333,4,2,0,70,0,1
149439,-83.3333333333333,4,2,0,55,0,0
151718,-83.3333333333333,4,2,0,70,0,1
152477,-83.3333333333333,4,2,0,20,0,0

[Colours]
Combo1 : 0,128,192
Combo2 : 255,128,64
Combo3 : 162,253,189

[HitObjects]
123,330,579,6,0,L|109:217,1,107.999996704102,8|0,3:0|0:0,0:0:0:0:
282,222,958,2,0,L|422:222,1,107.999996704102,2|0,0:0|0:0,0:0:0:0:
129,222,1338,2,0,L|105:109,1,107.999996704102,8|0,3:0|0:0,0:0:0:0:
280,116,1718,1,2,0:0:0:0:
106,116,1908,1,0,0:0:0:0:
364,116,2097,6,0,P|424:126|469:268,1,215.999993408203,8|2,3:0|0:0,0:0:0:0:
300,257,2667,1,2,0:0:0:0:
473,257,2857,1,8,3:0:0:0:
213,257,3047,2,0,L|17:152,1,215.999993408203,2|2,0:0|0:0,0:0:0:0:
303,155,3616,6,0,L|419:155,1,107.999996704102,8|8,3:0|3:0,0:0:0:0:
112,155,3996,1,2,0:0:0:0:
87,129,4090,1,0,0:0:0:0:
108,66,4185,1,2,0:0:0:0:
167,41,4280,1,0,0:0:0:0:
342,41,4376,6,0,P|351:98|299:138,1,107.999996704102,8|8,3:0|3:0,0:0:0:0:
144,132,4661,2,0,L|63:132,2,53.9999983520508,0|2|0,3:0|0:0|0:0,0:0:0:0:
340,132,4946,6,0,P|410:158|466:290,1,215.999993408203,8|8,3:0|3:0,0:0:0:0:
288,41,5515,2,0,L|161:41,1,107.999996704102,8|8,2:0|2:0,0:0:0:0:
250,41,5800,1,0,0:0:0:0:
440,41,5895,2,0,L|451:160,1,107.999996704102,8|8,3:0|3:0,0:0:0:0:
189,148,6275,2,0,P|75:211|76:247,1,161.999995056153,8|0,3:0|0:0,0:0:0:0:
268,224,6654,6,0,L|408:224,1,107.999996704102,4|0,3:0|0:0,0:0:0:0:
266,224,6939,1,0,0:0:0:0:
157,224,7034,2,0,L|137:348,1,107.999996704102,8|2,3:0|0:0,0:0:0:0:
400,330,7414,2,0,L|410:209,1,107.999996704102,8|0,3:0|0:0,0:0:0:0:
299,222,7699,1,0,0:0:0:0:
190,222,7794,2,0,L|325:222,1,107.999996704102,8|2,3:0|0:0,0:0:0:0:
38,222,8173,6,0,L|35:88,1,107.999996704102,8|2,3:0|0:0,0:0:0:0:
142,330,8458,1,0,0:0:0:0:
250,330,8553,2,0,L|269:206,1,107.999996704102,8|2,3:0|0:0,0:0:0:0:
92,223,8933,1,8,3:0:0:0:
351,223,9123,2,0,L|484:223,2,107.999996704102,8|8|2,0:0|0:0|0:0,0:0:0:0:
70,223,9692,6,0,L|50:102,1,107.999996704102,8|0,3:0|0:0,0:0:0:0:
161,116,9977,1,0,0:0:0:0:
269,116,10072,2,0,L|302:219,1,107.999996704102,8|2,3:0|0:0,0:0:0:0:
41,218,10452,2,0,P|55:298|112:318,1,107.999996704102,8|0,3:0|0:0,0:0:0:0:
181,310,10737,1,0,0:0:0:0:
289,310,10832,2,0,L|167:310,1,107.999996704102,8|2,3:0|0:0,0:0:0:0:
440,310,11211,6,0,L|462:200,1,107.999996704102,8|2,3:0|0:0,0:0:0:0:
287,204,11591,1,8,3:0:0:0:
459,204,11781,1,2,0:0:0:0:
199,204,11971,2,0,L|323:204,1,107.999996704102,8|4,3:0|0:0,0:0:0:0:
46,204,12351,1,4,0:0:0:0:
42,151,12445,1,2,0:0:0:0:
71,106,12540,1,2,0:0:0:0:
121,89,12635,1,2,0:0:0:0:
315,89,12730,6,0,L|346:210,1,107.999996704102,8|0,3:0|0:0,0:0:0:0:
232,193,13015,1,0,0:0:0:0:
123,193,13110,2,0,L|99:302,1,107.999996704102,8|2,3:0|0:0,0:0:0:0:
360,298,13490,2,0,L|206:298,1,107.999996704102,8|2,3:0|0:0,0:0:0:0:
361,298,13775,1,0,0:0:0:0:
469,298,13870,2,0,L|483:191,1,107.999996704102,8|2,3:0|0:0,0:0:0:0:
223,190,14249,6,0,L|194:71,1,107.999996704102,8|2,3:0|0:0,0:0:0:0:
306,85,14534,1,0,0:0:0:0:
414,85,14629,2,0,L|288:85,1,107.999996704102,8|2,3:0|0:0,0:0:0:0:
479,85,15009,1,8,3:0:0:0:
219,85,15199,2,0,L|91:85,2,107.999996704102,8|8|2,0:0|0:0|0:0,0:0:0:0:
478,85,15768,6,0,L|488:201,1,107.999996704102,8|8,3:0|3:0,0:0:0:0:
416,192,16053,1,8,3:0:0:0:
243,192,16148,2,0,L|132:192,1,107.999996704102,8|8,3:0|3:0,0:0:0:0:
395,192,16528,2,0,L|413:309,1,107.999996704102,8|8,3:0|3:0,0:0:0:0:
340,298,16813,1,8,3:0:0:0:
167,298,16908,1,8,3:0:0:0:
108,272,17002,1,8,3:0:0:0:
108,208,17097,1,8,3:0:0:0:
166,182,17192,1,8,3:0:0:0:
360,182,17287,6,0,L|390:64,1,107.999996704102,8|2,3:0|0:0,0:0:0:0:
315,77,17572,1,2,0:0:0:0:
142,77,17667,2,0,L|34:77,1,107.999996704102,2|2,0:0|0:0,0:0:0:0:
294,77,18047,2,0,L|372:77,1,53.9999983520508,2|2,0:0|0:0,0:0:0:0:
173,77,18237,2,0,L|95:77,1,53.9999983520508,12|2,0:0|0:0,0:0:0:0:
370,77,18427,2,0,P|422:130|361:179,1,161.999995056153,12|0,0:0|0:0,0:0:0:0:
165,179,18806,6,0,L|137:292,1,107.999996704102,8|2,3:0|0:0,0:0:0:0:
248,283,19091,1,0,0:0:0:0:
356,283,19186,2,0,L|468:283,1,107.999996704102,8|2,3:0|0:0,0:0:0:0:
393,283,19471,1,0,0:0:0:0:
220,283,19566,2,0,L|106:283,1,107.999996704102,8|2,3:0|0:0,0:0:0:0:
182,283,19851,1,0,0:0:0:0:
350,283,19946,1,8,3:0:0:0:
408,283,20041,2,0,L|408:218,1,53.9999983520508,0|2,0:0|0:0,0:0:0:0:
127,229,20325,6,0,L|107:112,1,107.999996704102,8|2,3:0|0:0,0:0:0:0:
179,122,20610,1,0,0:0:0:0:
351,122,20705,2,0,P|407:135|405:182,1,107.999996704102,8|2,3:0|0:0,0:0:0:0:
349,235,20989,1,0,0:0:0:0:
175,235,21085,2,0,L|107:235,2,53.9999983520508,8|0|0,3:0|0:0|0:0,0:0:0:0:
435,235,21465,2,0,L|452:125,1,107.999996704102,8|2,3:0|0:0,0:0:0:0:
170,128,21844,5,8,3:0:0:0:
342,128,22034,2,0,L|482:128,2,107.999996704102,2|8|2,0:0|3:0|0:0,0:0:0:0:
170,128,22604,2,0,L|151:18,1,107.999996704102,8|2,3:0|0:0,0:0:0:0:
325,21,22984,1,8,3:0:0:0:
152,21,23173,1,2,0:0:0:0:
411,21,23363,6,0,L|300:21,1,107.999996704102,8|2,3:0|0:0,0:0:0:0:
129,21,23743,2,0,L|99:136,1,107.999996704102,8|2,3:0|0:0,0:0:0:0:
362,125,24123,2,0,P|421:148|487:295,1,215.999993408203,8|8,3:0|3:0,0:0:0:0:
163,341,24882,6,0,L|139:223,1,107.999996704102,8|2,3:0|0:0,0:0:0:0:
250,235,25167,1,0,0:0:0:0:
358,235,25262,2,0,L|421:235,2,53.9999983520508,8|0|2,3:0|0:0|0:0,0:0:0:0:
183,235,25547,2,0,L|12:235,1,161.999995056153,0|2,0:0|0:0,0:0:0:0:
132,199,25927,1,0,0:0:0:0:
236,199,26022,1,8,3:0:0:0:
63,199,26211,1,2,0:0:0:0:
343,199,26401,6,0,L|359:310,1,107.999996704102,8|2,3:0|0:0,0:0:0:0:
97,305,26781,1,8,3:0:0:0:
56,272,26875,1,0,0:0:0:0:
60,220,26970,1,2,0:0:0:0:
104,193,27065,1,0,0:0:0:0:
281,199,27161,2,0,P|276:133|190:86,1,161.999995056153,8|0,3:0|0:0,0:0:0:0:
365,88,27541,2,0,L|443:88,2,53.9999983520508,8|2|2,3:0|0:0|0:0,0:0:0:0:
84,88,27920,5,8,3:0:0:0:
256,88,28110,1,2,0:0:0:0:
83,88,28300,2,0,L|59:222,1,107.999996704102,8|2,3:0|0:0,0:0:0:0:
324,194,28680,2,0,L|437:194,1,107.999996704102,8|2,3:0|0:0,0:0:0:0:
171,194,29060,2,0,L|58:194,1,107.999996704102,8|2,3:0|0:0,0:0:0:0:
343,194,29439,6,0,L|360:301,1,107.999996704102,8|0,3:0|3:0,0:0:0:0:
187,300,29819,2,0,L|170:193,1,107.999996704102,8|0,3:0|3:0,0:0:0:0:
430,193,30199,2,0,L|221:193,1,161.999995056153,8|0,3:0|3:0,0:0:0:0:
442,193,30579,2,0,L|464:81,1,107.999996704102,8|0,3:0|0:0,0:0:0:0:
160,87,30958,6,0,L|386:87,1,215.999993408203,4|2,0:0|3:0,0:0:0:0:
94,87,31718,2,0,P|55:149|108:280,1,215.999993408203,2|0,3:0|0:0,0:0:0:0:
359,274,32287,6,0,P|425:213|401:90,1,215.999993408203,2|2,3:0|3:0,0:0:0:0:
231,191,32857,2,0,L|205:82,1,107.999996704102,2|2,3:0|0:0,0:0:0:0:
379,85,33237,2,0,P|445:148|341:217,1,215.999993408203,2|2,0:0|3:0,0:0:0:0:
116,225,33806,6,0,P|120:311|250:348,1,215.999993408203,2|2,3:0|0:0,0:0:0:0:
402,356,34376,2,0,L|282:356,1,107.999996704102,2|2,3:0|0:0,0:0:0:0:
120,356,34756,2,0,L|316:237,1,215.999993408203,2|2,3:0|0:0,0:0:0:0:
45,243,35325,6,0,P|37:162|132:69,1,215.999993408203,2|2,3:0|3:0,0:0:0:0:
298,70,35895,2,0,L|181:70,1,107.999996704102,2|2,3:0|3:0,0:0:0:0:
363,70,36275,2,0,L|496:256,1,215.999993408203,2|2,3:0|3:0,0:0:0:0:
30,353,37034,6,0,L|24:236,1,107.999996704102,4|2,3:0|3:0,0:0:0:0:
198,245,37414,1,2,3:0:0:0:
252,245,37508,1,2,3:0:0:0:
306,245,37603,1,2,3:0:0:0:
132,245,37794,2,0,L|115:108,1,107.999996704102,8|2,3:0|3:0,0:0:0:0:
291,137,38173,1,2,3:0:0:0:
237,137,38267,1,2,3:0:0:0:
183,137,38362,1,2,3:0:0:0:
443,137,38553,6,0,L|472:28,1,107.999996704102,4|0,0:0|0:0,0:0:0:0:
296,32,38933,1,2,3:0:0:0:
242,32,39027,1,2,3:0:0:0:
188,32,39122,1,2,3:0:0:0:
361,32,39313,1,8,3:0:0:0:
188,32,39503,1,2,3:0:0:0:
360,32,39692,2,0,L|454:32,2,53.9999983520508,2|2|8,3:0|3:0|3:0,0:0:0:0:
77,32,40072,5,4,0:0:0:0:
61,82,40166,1,0,3:0:0:0:
84,129,40261,1,0,3:0:0:0:
133,149,40356,1,0,3:0:0:0:
308,149,40452,2,0,L|388:149,1,53.9999983520508,8|0,0:0|3:0,0:0:0:0:
187,149,40642,2,0,L|133:149,1,53.9999983520508,0|0,3:0|3:0,0:0:0:0:
365,146,40832,5,8,0:0:0:0:
417,142,40926,1,0,3:0:0:0:
461,172,41021,1,0,3:0:0:0:
477,222,41116,1,0,3:0:0:0:
304,222,41211,2,0,L|222:222,1,53.9999983520508,8|0,0:0|3:0,0:0:0:0:
424,222,41401,2,0,L|504:222,1,53.9999983520508,0|0,3:0|3:0,0:0:0:0:
226,226,41591,5,8,3:0:0:0:
172,226,41685,1,0,3:0:0:0:
118,226,41780,1,8,3:0:0:0:
64,226,41875,1,0,3:0:0:0:
238,226,41971,2,0,L|314:226,1,53.9999983520508,8|0,3:0|3:0,0:0:0:0:
118,226,42161,2,0,L|64:226,1,53.9999983520508,8|0,3:0|3:0,0:0:0:0:
300,227,42351,6,0,P|383:228|444:109,1,215.999993408203,8|2,3:0|3:0,0:0:0:0:
186,123,42920,1,2,0:0:0:0:
358,123,43110,2,0,L|399:308,1,161.999995056153,2|0,0:0|0:0,0:0:0:0:
222,316,43490,6,0,L|89:316,1,107.999996704102,4|0,0:0|0:0,0:0:0:0:
288,316,43870,2,0,L|409:316,1,107.999996704102,8|0,3:0|0:0,0:0:0:0:
224,316,44249,1,8,3:0:0:0:
484,316,44439,6,0,L|495:204,1,107.999996704102,2|8,0:0|3:0,0:0:0:0:
321,212,44819,2,0,L|190:212,1,107.999996704102,0|8,0:0|3:0,0:0:0:0:
408,212,45199,1,0,0:0:0:0:
149,212,45389,2,0,L|270:212,1,107.999996704102,8|0,3:0|0:0,0:0:0:0:
64,212,45768,2,0,L|39:103,1,107.999996704102,8|0,3:0|0:0,0:0:0:0:
346,114,46148,6,0,L|369:220,1,107.999996704102,4|0,0:0|0:0,0:0:0:0:
195,219,46528,2,0,L|73:219,1,107.999996704102,8|0,3:0|0:0,0:0:0:0:
260,219,46908,2,0,L|405:219,1,107.999996704102,8|0,3:0|0:0,0:0:0:0:
195,219,47287,1,8,3:0:0:0:
475,219,47477,6,0,P|475:151|348:80,1,215.999993408203,2|0,0:0|0:0,0:0:0:0:
186,77,48047,2,0,L|320:77,1,107.999996704102,8|0,3:0|0:0,0:0:0:0:
33,77,48427,2,0,L|21:196,1,107.999996704102,8|2,3:0|0:0,0:0:0:0:
195,184,48806,1,8,3:0:0:0:
22,184,48996,1,2,0:0:0:0:
302,184,49186,6,0,L|321:305,1,107.999996704102,8|0,3:0|0:0,0:0:0:0:
144,290,49566,2,0,L|122:170,1,107.999996704102,8|0,3:0|0:0,0:0:0:0:
298,183,49946,2,0,L|179:183,1,107.999996704102,8|0,3:0|0:0,0:0:0:0:
362,183,50325,1,8,3:0:0:0:
81,183,50515,6,0,L|225:183,1,107.999996704102,2|8,0:0|3:0,0:0:0:0:
362,183,50895,2,0,L|221:183,1,107.999996704102,0|8,0:0|3:0,0:0:0:0:
427,183,51275,1,0,0:0:0:0:
167,183,51465,2,0,L|59:183,1,107.999996704102,8|0,3:0|0:0,0:0:0:0:
231,183,51844,2,0,L|366:183,1,107.999996704102,8|0,3:0|0:0,0:0:0:0:
56,183,52224,6,0,L|41:302,1,107.999996704102,4|0,0:0|0:0,0:0:0:0:
216,290,52604,2,0,L|330:290,1,107.999996704102,8|0,3:0|0:0,0:0:0:0:
150,290,52984,2,0,L|132:164,1,107.999996704102,8|0,3:0|0:0,0:0:0:0:
307,183,53363,1,8,3:0:0:0:
26,183,53553,6,0,L|277:183,1,215.999993408203,2|2,0:0|0:0,0:0:0:0:
68,183,54123,2,0,L|55:71,1,107.999996704102,8|2,3:0|0:0,0:0:0:0:
316,75,54503,2,0,L|423:75,1,107.999996704102,8|2,3:0|0:0,0:0:0:0:
164,75,54882,2,0,L|51:75,1,107.999996704102,8|2,3:0|0:0,0:0:0:0:
360,75,55262,6,0,L|392:202,1,107.999996704102,4|0,0:0|0:0,0:0:0:0:
315,179,55547,1,0,0:0:0:0:
142,179,55642,2,0,L|119:298,1,107.999996704102,8|0,3:0|0:0,0:0:0:0:
382,285,56022,2,0,L|499:285,1,107.999996704102,8|0,3:0|0:0,0:0:0:0:
419,285,56306,1,0,0:0:0:0:
246,285,56401,2,0,L|133:286,1,107.999996704102,8|0,3:0|0:0,0:0:0:0:
420,285,56781,6,0,P|485:227|385:153,1,215.999993408203,8|8,3:0|3:0,0:0:0:0:
241,145,57351,1,0,0:0:0:0:
413,145,57541,1,8,3:0:0:0:
154,145,57730,2,0,P|81:84|180:30,1,215.999993408203,10|0,1:0|0:0,0:0:0:0:
434,19,58300,6,0,L|454:133,1,107.999996704102,8|0,3:0|0:0,0:0:0:0:
343,125,58585,1,0,0:0:0:0:
234,125,58680,2,0,L|365:125,1,107.999996704102,8|0,3:0|0:0,0:0:0:0:
81,125,59060,2,0,P|43:215|127:292,1,215.999993408203,8|8,3:0|3:0,0:0:0:0:
398,290,59629,6,0,P|463:226|385:147,1,215.999993408203,0|0,0:0|0:0,0:0:0:0:
220,146,60199,2,0,L|197:264,1,107.999996704102,8|0,3:0|0:0,0:0:0:0:
373,252,60579,1,8,3:0:0:0:
114,252,60768,2,0,L|253:251,2,107.999996704102,10|10|0,1:0|1:0|0:0,0:0:0:0:
418,252,61338,6,0,L|437:139,1,107.999996704102,8|0,3:0|0:0,0:0:0:0:
364,145,61623,1,0,0:0:0:0:
191,145,61718,2,0,L|168:31,1,107.999996704102,8|0,3:0|0:0,0:0:0:0:
429,39,62097,2,0,L|450:147,1,107.999996704102,8|0,3:0|0:0,0:0:0:0:
378,145,62382,1,0,0:0:0:0:
205,145,62477,2,0,L|338:145,1,107.999996704102,8|0,3:0|0:0,0:0:0:0:
30,145,62857,6,0,L|275:145,1,215.999993408203,8|8,3:0|3:0,0:0:0:0:
72,145,63427,2,0,L|55:260,1,107.999996704102,0|8,0:0|3:0,0:0:0:0:
315,251,63806,2,0,P|314:185|193:112,1,215.999993408203,10|2,1:0|0:0,0:0:0:0:
480,111,64376,6,0,L|488:224,1,107.999996704102,8|8,3:0|3:0,0:0:0:0:
313,218,64756,2,0,L|425:218,1,107.999996704102,2|2,0:0|0:0,0:0:0:0:
161,218,65135,2,0,P|81:225|41:349,1,215.999993408203,8|2,3:0|0:0,0:0:0:0:
319,339,65705,6,0,L|75:339,1,215.999993408203,8|8,3:0|3:0,0:0:0:0:
276,339,66275,1,8,3:0:0:0:
103,339,66465,1,8,3:0:0:0:
361,339,66654,2,0,L|438:339,1,53.9999983520508,8|0,3:0|0:0,0:0:0:0:
240,339,66844,2,0,L|186:339,1,53.9999983520508,8|0,3:0|0:0,0:0:0:0:
422,338,67034,2,0,P|461:266|408:195,1,161.999995056153,8|0,3:0|0:0,0:0:0:0:
216,202,67414,6,0,P|152:159|139:65,1,161.999995056153,8|2,3:0|3:0,0:0:0:0:
244,79,67794,2,0,L|385:79,1,107.999996704102,8|8,3:0|3:0,0:0:0:0:
92,79,68173,2,0,P|62:146|114:209,1,161.999995056153,8|2,3:0|3:0,0:0:0:0:
221,208,68553,2,0,L|105:208,1,107.999996704102,8|8,3:0|3:0,0:0:0:0:
373,208,68933,6,0,P|410:151|359:77,1,161.999995056153,8|2,3:0|3:0,0:0:0:0:
255,79,69313,2,0,L|212:190,1,107.999996704102,8|8,3:0|3:0,0:0:0:0:
475,179,69692,2,0,P|478:262|397:294,1,161.999995056153,8|2,3:0|3:0,0:0:0:0:
306,296,70072,2,0,L|421:296,1,107.999996704102,8|8,3:0|3:0,0:0:0:0:
153,296,70452,5,8,3:0:0:0:
325,296,70642,2,0,P|395:233|306:170,1,215.999993408203,2|8,0:0|3:0,0:0:0:0:
150,165,71211,2,0,L|35:165,2,107.999996704102,8|0|8,3:0|3:0|3:0,0:0:0:0:
410,165,71781,6,0,P|406:96|272:26,1,215.999993408203,2|2,0:0|0:0,0:0:0:0:
117,23,72351,2,0,L|237:23,1,107.999996704102,8|0,3:0|3:0,0:0:0:0:
52,23,72730,2,0,L|19:256,1,215.999993408203,8|8,3:0|3:0,0:0:0:0:
478,355,73490,6,0,L|294:355,1,161.999995056153,8|2,3:0|3:0,0:0:0:0:
425,355,73870,2,0,L|444:223,1,107.999996704102,8|8,3:0|3:0,0:0:0:0:
181,248,74249,2,0,P|137:186|189:133,1,161.999995056153,8|2,3:0|3:0,0:0:0:0:
297,133,74629,2,0,L|319:21,1,107.999996704102,8|8,3:0|3:0,0:0:0:0:
57,27,75009,6,0,L|30:205,1,161.999995056153,8|2,3:0|3:0,0:0:0:0:
141,187,75389,2,0,L|25:187,1,107.999996704102,8|8,3:0|3:0,0:0:0:0:
292,187,75768,2,0,L|328:308,1,107.999996704102,8|8,3:0|2:0,0:0:0:0:
148,290,76148,2,0,L|119:183,1,107.999996704102,8|2,0:0|0:0,0:0:0:0:
402,185,76528,6,0,P|401:117|318:77,1,161.999995056153,8|2,3:0|3:0,0:0:0:0:
215,75,76908,2,0,L|173:186,1,107.999996704102,8|8,3:0|3:0,0:0:0:0:
436,176,77287,2,0,P|476:258|379:337,1,215.999993408203,8|8,3:0|3:0,0:0:0:0:
137,336,77857,6,0,L|108:222,1,107.999996704102,8|2,3:0|3:0,0:0:0:0:
181,231,78142,1,0,0:0:0:0:
353,231,78237,2,0,L|424:231,2,53.9999983520508,8|8|2,3:0|3:0|3:0,0:0:0:0:
180,231,78616,2,0,L|170:156,1,53.9999983520508,8|8,3:0|3:0,0:0:0:0:
347,177,78806,6,0,L|489:177,1,107.999996704102,2|2,3:0|3:0,0:0:0:0:
194,177,79186,2,0,L|69:177,1,107.999996704102,2|2,3:0|0:0,0:0:0:0:
346,177,79566,2,0,P|407:198|440:302,1,161.999995056153,2|0,0:0|0:0,0:0:0:0:
268,288,79946,6,0,L|146:288,1,107.999996704102,4|0,0:0|0:0,0:0:0:0:
332,288,80325,2,0,L|188:288,1,107.999996704102,8|0,3:0|0:0,0:0:0:0:
397,288,80705,1,8,3:0:0:0:
116,288,80895,6,0,L|102:175,1,107.999996704102,2|8,0:0|3:0,0:0:0:0:
276,180,81275,2,0,L|296:55,1,107.999996704102,0|8,0:0|3:0,0:0:0:0:
120,73,81654,1,0,0:0:0:0:
379,73,81844,2,0,L|260:73,1,107.999996704102,8|0,3:0|0:0,0:0:0:0:
97,73,82224,2,0,L|79:188,1,107.999996704102,8|0,3:0|0:0,0:0:0:0:
384,179,82604,6,0,L|395:302,1,107.999996704102,4|0,0:0|0:0,0:0:0:0:
209,284,82984,2,0,L|185:163,1,107.999996704102,8|0,3:0|0:0,0:0:0:0:
360,178,83363,2,0,L|382:63,1,107.999996704102,8|0,3:0|0:0,0:0:0:0:
206,71,83743,1,8,3:0:0:0:
486,71,83933,6,0,L|252:71,1,215.999993408203,2|0,0:0|0:0,0:0:0:0:
443,71,84503,2,0,L|456:188,1,107.999996704102,8|0,3:0|0:0,0:0:0:0:
195,178,84882,2,0,L|67:178,1,107.999996704102,8|2,3:0|0:0,0:0:0:0:
260,178,85262,2,0,L|368:178,1,107.999996704102,8|2,3:0|0:0,0:0:0:0:
85,178,85642,6,0,L|69:295,1,107.999996704102,4|0,0:0|0:0,0:0:0:0:
244,285,86022,1,8,3:0:0:0:
71,285,86211,1,0,0:0:0:0:
244,285,86401,2,0,L|368:285,1,107.999996704102,8|0,3:0|0:0,0:0:0:0:
178,285,86781,1,8,3:0:0:0:
458,285,86971,6,0,L|476:166,1,107.999996704102,2|8,0:0|3:0,0:0:0:0:
300,178,87351,2,0,L|174:178,1,107.999996704102,0|8,0:0|3:0,0:0:0:0:
364,178,87730,1,0,0:0:0:0:
104,178,87920,2,0,L|97:68,1,107.999996704102,8|0,3:0|0:0,0:0:0:0:
270,70,88300,2,0,L|407:70,1,107.999996704102,8|2,3:0|0:0,0:0:0:0:
95,70,88680,6,0,L|79:189,1,107.999996704102,4|0,0:0|0:0,0:0:0:0:
254,177,89060,2,0,L|372:177,1,107.999996704102,8|0,3:0|0:0,0:0:0:0:
189,177,89439,2,0,L|342:177,1,107.999996704102,8|0,3:0|0:0,0:0:0:0:
123,177,89819,1,8,3:0:0:0:
403,177,90009,6,0,L|427:293,1,107.999996704102,2|8,0:0|3:0,0:0:0:0:
353,282,90294,1,8,3:0:0:0:
180,282,90389,1,8,3:0:0:0:
124,250,90483,1,8,3:0:0:0:
126,185,90578,1,8,3:0:0:0:
184,158,90673,1,8,3:0:0:0:
357,158,90768,6,0,L|437:158,1,53.9999983520508,8|8,3:0|3:0,0:0:0:0:
236,158,90958,1,8,3:0:0:0:
182,158,91052,1,8,3:0:0:0:
128,158,91147,1,8,3:0:0:0:
74,158,91242,1,8,3:0:0:0:
248,158,91338,2,0,L|335:158,1,53.9999983520508,8|8,3:0|3:0,0:0:0:0:
128,158,91528,2,0,L|41:158,1,53.9999983520508,8|0,3:0|0:0,0:0:0:0:
320,159,91718,6,0,L|447:159,1,107.999996704102,8|2,3:0|0:0,0:0:0:0:
255,159,92097,2,0,L|117:159,1,107.999996704102,2|0,0:0|0:0,0:0:0:0:
320,159,92477,2,0,P|388:159|465:277,1,215.999993408203,2|2,3:0|0:0,0:0:0:0:
181,340,93427,6,0,L|163:220,1,107.999996704102,2|2,0:0|0:0,0:0:0:0:
337,233,93806,1,8,3:0:0:0:
164,233,93996,1,2,3:0:0:0:
444,233,94376,1,2,0:0:0:0:
119,233,94946,6,0,L|4:233,2,107.999996704102,2|2|8,0:0|0:0|3:0,0:0:0:0:
291,233,95515,2,0,L|308:115,1,107.999996704102,2|2,3:0|0:0,0:0:0:0:
132,126,95895,1,2,0:0:0:0:
304,150,96085,6,0,P|374:79|267:30,1,215.999993408203,8|0,3:0|0:0,0:0:0:0:
131,16,96654,2,0,L|14:16,1,107.999996704102,2|0,0:0|0:0,0:0:0:0:
196,16,97034,2,0,L|15:162,1,215.999993408203,2|8,3:0|3:0,0:0:0:0:
475,346,97794,5,4,3:0:0:0:
194,346,98173,1,4,3:0:0:0:
475,346,98553,2,0,L|492:102,1,215.999993408203,4|4,3:0|3:0,0:0:0:0:
381,130,99123,1,2,0:0:0:0:
121,130,99313,6,0,L|108:18,1,107.999996704102,8|8,3:0|3:0,0:0:0:0:
367,22,99692,1,2,3:0:0:0:
393,41,99739,1,0,3:0:0:0:
404,72,99786,1,2,3:0:0:0:
396,105,99834,1,0,3:0:0:0:
371,126,99881,1,2,2:0:0:0:
110,126,100072,6,0,L|34:126,1,53.9999983520508,2|2,0:0|3:0,0:0:0:0:
230,126,100262,2,0,L|306:126,1,53.9999983520508,8|8,3:0|3:0,0:0:0:0:
58,122,100452,2,0,L|32:241,1,107.999996704102,2|0,3:0|0:0,0:0:0:0:
317,227,100832,6,0,P|382:229|463:350,1,215.999993408203,4|4,3:0|3:0,0:0:0:0:
290,343,101401,1,4,3:0:0:0:
117,343,101591,2,0,P|94:243|181:165,1,215.999993408203,4|4,3:0|3:0,0:0:0:0:
427,168,102161,1,2,0:0:0:0:
256,192,102351,12,4,103870,0:0:0:0:
114,339,109946,6,0,L|103:227,1,107.999996704102,8|8,3:0|3:0,0:0:0:0:
276,231,110325,2,0,L|399:231,1,107.999996704102,8|8,3:0|3:0,0:0:0:0:
208,231,110705,2,0,L|82:231,1,107.999996704102,8|8,3:0|3:0,0:0:0:0:
360,231,111085,2,0,L|504:231,1,107.999996704102,8|8,3:0|3:0,0:0:0:0:
208,231,111465,6,0,L|192:109,1,107.999996704102,8|8,3:0|0:0,0:0:0:0:
366,123,111844,2,0,L|387:15,1,107.999996704102,8|8,3:0|0:0,0:0:0:0:
125,16,112224,2,0,L|101:122,1,107.999996704102,8|8,3:0|0:0,0:0:0:0:
274,121,112604,1,8,3:0:0:0:
101,121,112794,2,0,L|170:121,1,53.9999983520508,8|0,0:0|0:0,0:0:0:0:
351,121,112984,6,0,L|385:242,1,107.999996704102,8|8,3:0|3:0,0:0:0:0:
120,224,113363,2,0,L|95:340,1,107.999996704102,8|8,3:0|3:0,0:0:0:0:
357,329,113743,1,8,3:0:0:0:
416,303,113837,1,8,3:0:0:0:
416,239,113932,1,8,3:0:0:0:
358,213,114027,1,8,3:0:0:0:
183,213,114123,2,0,L|107:213,1,53.9999983520508,8|8,3:0|3:0,0:0:0:0:
358,213,114313,1,8,3:0:0:0:
412,213,114408,6,0,P|457:174|402:98,1,161.999995056153,8|2,3:0|0:0,0:0:0:0:
184,98,115072,1,2,0:0:0:0:
356,98,115262,2,0,P|449:143|485:258,1,215.999993408203,2|2,0:0|3:0,0:0:0:0:
377,243,115832,1,0,3:0:0:0:
117,243,116022,5,4,3:0:0:0:
397,243,116401,1,4,3:0:0:0:
117,243,116781,1,4,3:0:0:0:
289,243,116971,2,0,L|337:243,2,26.9999991760254,0|0|0,3:0|3:0|3:0,0:0:0:0:
89,354,117161,2,0,P|62:299|90:46,1,323.999990112305,0|2,3:0|0:0,0:0:0:0:
392,46,117920,6,0,L|414:154,1,107.999996704102,4|0,0:0|0:0,0:0:0:0:
149,212,118300,2,0,L|275:212,1,107.999996704102,8|0,3:0|0:0,0:0:0:0:
84,212,118679,2,0,L|43:108,1,107.999996704102,8|0,3:0|0:0,0:0:0:0:
346,114,119059,6,0,L|369:220,1,107.999996704102,4|0,0:0|0:0,0:0:0:0:
195,219,119439,2,0,L|73:219,1,107.999996704102,8|0,3:0|0:0,0:0:0:0:
260,219,119819,2,0,L|405:219,1,107.999996704102,8|0,3:0|0:0,0:0:0:0:
195,219,120198,1,8,3:0:0:0:
475,219,120388,6,0,P|475:151|348:80,1,215.999993408203,2|2,0:0|0:0,0:0:0:0:
186,77,120958,2,0,L|320:77,1,107.999996704102,8|0,3:0|0:0,0:0:0:0:
33,77,121338,2,0,L|21:196,1,107.999996704102,8|2,3:0|0:0,0:0:0:0:
195,184,121717,1,8,3:0:0:0:
22,184,121907,1,2,0:0:0:0:
302,184,122097,6,0,L|321:305,1,107.999996704102,4|0,0:0|0:0,0:0:0:0:
144,290,122477,2,0,L|122:170,1,107.999996704102,8|0,3:0|0:0,0:0:0:0:
298,183,122857,2,0,L|179:183,1,107.999996704102,8|0,3:0|0:0,0:0:0:0:
362,183,123236,1,8,3:0:0:0:
81,183,123426,6,0,L|225:183,1,107.999996704102,2|8,0:0|3:0,0:0:0:0:
362,183,123806,2,0,L|221:183,2,107.999996704102,2|8|0,0:0|3:0|0:0,0:0:0:0:
101,183,124376,2,0,L|55:298,1,107.999996704102,8|0,3:0|0:0,0:0:0:0:
231,183,124755,2,0,L|366:183,1,107.999996704102,8|0,3:0|0:0,0:0:0:0:
56,183,125135,6,0,L|41:302,1,107.999996704102,4|0,0:0|0:0,0:0:0:0:
216,290,125515,2,0,L|330:290,1,107.999996704102,8|0,3:0|0:0,0:0:0:0:
150,290,125895,2,0,L|132:164,1,107.999996704102,8|0,3:0|0:0,0:0:0:0:
307,183,126274,1,8,3:0:0:0:
26,183,126464,6,0,L|277:183,1,215.999993408203,2|2,0:0|0:0,0:0:0:0:
134,183,126939,1,0,0:0:0:0:
26,183,127034,2,0,L|26:69,1,107.999996704102,8|2,3:0|0:0,0:0:0:0:
316,75,127414,2,0,L|348:190,1,107.999996704102,8|2,3:0|0:0,0:0:0:0:
62,179,127794,2,0,L|41:59,1,107.999996704102,8|2,3:0|0:0,0:0:0:0:
360,75,128173,6,0,L|392:202,1,107.999996704102,4|0,0:0|0:0,0:0:0:0:
315,179,128458,1,0,0:0:0:0:
142,179,128553,2,0,L|119:298,1,107.999996704102,8|0,3:0|0:0,0:0:0:0:
382,285,128933,2,0,L|499:285,1,107.999996704102,8|0,3:0|0:0,0:0:0:0:
419,285,129217,1,0,0:0:0:0:
246,285,129312,2,0,L|133:286,1,107.999996704102,8|0,3:0|0:0,0:0:0:0:
420,285,129692,6,0,P|485:227|385:153,1,215.999993408203,8|8,3:0|3:0,0:0:0:0:
241,145,130262,1,0,0:0:0:0:
413,145,130452,1,8,3:0:0:0:
154,145,130641,2,0,P|81:84|180:30,1,215.999993408203,10|2,1:0|0:0,0:0:0:0:
434,19,131211,6,0,L|454:133,1,107.999996704102,8|0,3:0|0:0,0:0:0:0:
343,125,131496,1,0,0:0:0:0:
234,125,131591,2,0,L|365:125,1,107.999996704102,8|0,3:0|0:0,0:0:0:0:
81,125,131971,2,0,P|43:215|127:292,1,215.999993408203,8|8,3:0|3:0,0:0:0:0:
398,290,132540,6,0,P|463:226|385:147,1,215.999993408203,2|2,0:0|0:0,0:0:0:0:
220,146,133110,2,0,L|197:264,1,107.999996704102,8|0,3:0|0:0,0:0:0:0:
373,252,133490,1,8,3:0:0:0:
114,252,133679,2,0,L|253:251,2,107.999996704102,6|6|0,0:0|0:0|0:0,0:0:0:0:
418,252,134249,6,0,L|437:139,1,107.999996704102,4|0,0:0|0:0,0:0:0:0:
364,145,134534,1,0,0:0:0:0:
191,145,134629,2,0,L|168:31,1,107.999996704102,8|0,3:0|0:0,0:0:0:0:
429,39,135008,2,0,L|450:147,1,107.999996704102,8|0,3:0|0:0,0:0:0:0:
378,145,135293,1,0,0:0:0:0:
205,145,135388,2,0,L|338:145,1,107.999996704102,8|0,3:0|0:0,0:0:0:0:
30,145,135768,6,0,L|275:145,1,215.999993408203,8|8,3:0|3:0,0:0:0:0:
72,145,136338,2,0,L|55:260,1,107.999996704102,0|8,0:0|3:0,0:0:0:0:
316,251,136718,2,0,L|77:251,1,215.999993408203,10|2,1:0|0:0,0:0:0:0:
380,251,137287,6,0,L|408:362,1,107.999996704102,8|0,3:0|0:0,0:0:0:0:
297,355,137572,1,0,0:0:0:0:
188,355,137667,2,0,L|142:250,1,107.999996704102,8|0,3:0|0:0,0:0:0:0:
401,249,138047,2,0,P|466:173|383:103,1,215.999993408203,8|8,3:0|3:0,0:0:0:0:
139,102,138616,6,0,L|370:102,1,215.999993408203,2|2,0:0|0:0,0:0:0:0:
181,102,139186,2,0,L|70:102,1,107.999996704102,8|0,3:0|0:0,0:0:0:0:
333,102,139566,2,0,L|408:102,1,53.9999983520508,8|0,3:0|0:0,0:0:0:0:
212,102,139756,2,0,L|158:102,1,53.9999983520508,4|0,0:0|0:0,0:0:0:0:
390,102,139946,6,0,P|437:115|481:224,1,161.999995056153,4|0,0:0|0:0,0:0:0:0:
259,220,140325,6,0,L|105:220,1,107.999996704102,4|0,0:0|0:0,0:0:0:0:
221,220,140610,1,0,0:0:0:0:
393,220,140705,2,0,L|420:340,1,107.999996704102,8|0,3:0|0:0,0:0:0:0:
155,325,141085,2,0,L|23:325,1,107.999996704102,8|0,3:0|0:0,0:0:0:0:
117,325,141370,1,0,0:0:0:0:
289,325,141465,2,0,L|318:211,1,107.999996704102,8|0,3:0|0:0,0:0:0:0:
34,220,141844,6,0,L|263:220,1,215.999993408203,8|8,3:0|3:0,0:0:0:0:
76,220,142414,2,0,L|59:91,1,107.999996704102,0|8,0:0|3:0,0:0:0:0:
344,112,142794,2,0,L|120:112,1,215.999993408203,10|2,1:0|0:0,0:0:0:0:
408,112,143363,6,0,L|423:4,1,107.999996704102,8|0,3:0|0:0,0:0:0:0:
313,5,143648,1,0,0:0:0:0:
204,5,143743,2,0,L|167:120,1,107.999996704102,8|0,3:0|0:0,0:0:0:0:
431,107,144123,2,0,P|431:185|289:240,1,215.999993408203,8|8,3:0|3:0,0:0:0:0:
41,249,144692,6,0,P|42:174|170:105,1,215.999993408203,0|0,0:0|0:0,0:0:0:0:
324,102,145262,1,8,3:0:0:0:
151,102,145452,1,0,0:0:0:0:
410,102,145642,1,8,3:0:0:0:
237,102,145832,2,0,L|221:215,1,107.999996704102,4|4,0:0|0:0,0:0:0:0:
394,208,146211,1,0,0:0:0:0:
91,208,146401,6,0,L|70:317,1,107.999996704102,4|0,0:0|0:0,0:0:0:0:
141,314,146686,1,0,0:0:0:0:
313,314,146781,2,0,L|435:314,1,107.999996704102,8|0,3:0|0:0,0:0:0:0:
160,314,147161,2,0,L|147:195,1,107.999996704102,8|0,3:0|0:0,0:0:0:0:
219,206,147446,1,0,0:0:0:0:
391,206,147541,2,0,L|415:85,1,107.999996704102,8|0,3:0|0:0,0:0:0:0:
131,100,147920,6,0,P|60:175|140:226,1,215.999993408203,8|8,3:0|3:0,0:0:0:0:
303,227,148490,1,0,0:0:0:0:
130,227,148680,1,8,3:0:0:0:
410,227,148870,1,10,1:0:0:0:
247,227,149060,1,10,1:0:0:0:
85,227,149249,1,0,0:0:0:0:
387,227,149439,6,0,L|407:343,1,107.999996704102,4|4,3:0|3:0,0:0:0:0:
231,333,149819,2,0,L|343:333,1,107.999996704102,2|2,0:0|0:0,0:0:0:0:
78,333,150199,2,0,P|51:248|141:115,1,215.999993408203,4|2,3:0|0:0,0:0:0:0:
383,138,150768,6,2,L|152:138,1,215.999993408203,4|4,3:0|3:0,0:0:0:0:
340,138,151338,2,0,L|472:138,1,107.999996704102,4|8,3:0|3:0,0:0:0:0:
377,138,151623,1,0,0:0:0:0:
204,138,151718,6,0,L|120:138,1,53.9999983520508,4|0,3:0|0:0,0:0:0:0:
324,138,151908,2,0,L|403:138,1,53.9999983520508,4|0,3:0|0:0,0:0:0:0:
132,137,152097,2,0,P|97:193|150:342,1,215.999993408203,4|0,0:0|0:0,0:0:0:0:
