osu file format v14

[General]
AudioFilename: audio.mp3
AudioLeadIn: 0
PreviewTime: 62310
Countdown: 0
SampleSet: Soft
StackLeniency: 0.7
Mode: 3
LetterboxInBreaks: 0
SpecialStyle: 0
WidescreenStoryboard: 1

[Editor]
Bookmarks: 2247,21492,42624,63001
DistanceSpacing: 1
BeatDivisor: 4
GridSize: 16
TimelineZoom: 2.399999

[Metadata]
Title:refluxio
TitleUnicode:refluxio
Artist:Juggernaut.
ArtistUnicode:Juggernaut.
Creator:BKwind
Version:EXHAUST
Source:SOUND VOLTEX EXCEED GEAR
Tags:SDVX Bemani HEXA DIVER -アザレアの使命篇- The 10th KAC オリジナル楽曲コンテスト konami arcade championship original song 嬬武器烈風刀 Tsumabuki rhythm video game electronic instrumental artcore xixi2333
BeatmapID:3585786
BeatmapSetID:1751887

[Difficulty]
HPDrainRate:8
CircleSize:4
OverallDifficulty:7.5
ApproachRate:5
SliderMultiplier:1.4
SliderTickRate:1

[Events]
//Background and Video events
0,0,"bg.jpg",0,0
//Break Periods
//Storyboard Layer 0 (Background)
//Storyboard Layer 1 (Fail)
//Storyboard Layer 2 (Pass)
//Storyboard Layer 3 (Foreground)
//Storyboard Layer 4 (Overlay)
//Storyboard Sound Samples

[TimingPoints]
2247,283.018867924528,4,2,1,35,1,0
30549,377.358490566038,4,2,1,35,1,0
30549,-75.187969924812,4,2,1,35,0,0
42624,283.018867924528,4,2,1,35,1,0
63001,-100,4,2,1,35,0,1
81114,-100,4,2,1,35,0,0
85642,-100,4,2,1,35,0,1
99227,-100,4,2,1,35,0,0
108284,377.358490566038,4,2,1,35,1,0
108284,-75.187969924812,4,2,1,35,0,0

[HitObjects]
448,192,2247,5,0,0:0:0:0:
64,192,2247,1,0,0:0:0:0:
320,192,2530,1,0,0:0:0:0:
64,192,2671,1,0,0:0:0:0:
448,192,2813,1,0,0:0:0:0:
320,192,2883,1,0,0:0:0:0:
192,192,2954,1,0,0:0:0:0:
64,192,3096,1,0,0:0:0:0:
192,192,3166,1,0,0:0:0:0:
320,192,3237,1,0,0:0:0:0:
64,192,3379,1,0,0:0:0:0:
448,192,3379,1,0,0:0:0:0:
192,192,3520,1,0,0:0:0:0:
320,192,3591,1,0,0:0:0:0:
192,192,3662,1,0,0:0:0:0:
320,192,3803,1,0,0:0:0:0:
448,192,3945,1,0,0:0:0:0:
64,192,4015,1,0,0:0:0:0:
448,192,4086,1,0,0:0:0:0:
64,192,4228,1,0,0:0:0:0:
192,192,4369,1,0,0:0:0:0:
320,192,4511,1,0,0:0:0:0:
448,192,4511,1,0,0:0:0:0:
64,192,4652,1,0,0:0:0:0:
192,192,4723,1,0,0:0:0:0:
320,192,4794,1,0,0:0:0:0:
448,192,4864,1,0,0:0:0:0:
64,192,4935,1,0,0:0:0:0:
448,192,5077,1,0,0:0:0:0:
320,192,5147,1,0,0:0:0:0:
192,192,5218,1,0,0:0:0:0:
64,192,5289,1,0,0:0:0:0:
448,192,5360,1,0,0:0:0:0:
320,192,5501,1,0,0:0:0:0:
192,192,5784,1,0,0:0:0:0:
320,192,5855,1,0,0:0:0:0:
192,192,5926,1,0,0:0:0:0:
320,192,6067,1,0,0:0:0:0:
448,192,6209,1,0,0:0:0:0:
320,192,6280,1,0,0:0:0:0:
192,192,6350,1,0,0:0:0:0:
64,192,6492,1,0,0:0:0:0:
320,192,6633,1,0,0:0:0:0:
64,192,6775,1,0,0:0:0:0:
192,192,6775,1,0,0:0:0:0:
320,192,6916,1,0,0:0:0:0:
448,192,6987,1,0,0:0:0:0:
64,192,7058,1,0,0:0:0:0:
192,192,7129,1,0,0:0:0:0:
320,192,7199,1,0,0:0:0:0:
192,192,7341,1,0,0:0:0:0:
64,192,7412,1,0,0:0:0:0:
448,192,7482,1,0,0:0:0:0:
320,192,7553,1,0,0:0:0:0:
192,192,7624,1,0,0:0:0:0:
320,192,7765,1,0,0:0:0:0:
448,192,7836,1,0,0:0:0:0:
64,192,7907,1,0,0:0:0:0:
192,192,7978,1,0,0:0:0:0:
320,192,8048,1,0,0:0:0:0:
448,192,8190,1,0,0:0:0:0:
320,192,8261,1,0,0:0:0:0:
64,192,8331,1,0,0:0:0:0:
192,192,8402,1,0,0:0:0:0:
320,192,8473,1,0,0:0:0:0:
448,192,8614,1,0,0:0:0:0:
320,192,8685,1,0,0:0:0:0:
192,192,8756,1,0,0:0:0:0:
448,192,9039,1,0,0:0:0:0:
192,192,9039,1,0,0:0:0:0:
64,192,9039,1,0,0:0:0:0:
64,192,9180,1,0,0:0:0:0:
192,192,9180,1,0,0:0:0:0:
448,192,9180,1,0,0:0:0:0:
320,192,9605,1,0,0:0:0:0:
448,192,9605,1,0,0:0:0:0:
64,192,9605,1,0,0:0:0:0:
64,192,9746,1,0,0:0:0:0:
320,192,9746,1,0,0:0:0:0:
448,192,9746,1,0,0:0:0:0:
448,192,10171,1,0,0:0:0:0:
192,192,10171,1,0,0:0:0:0:
64,192,10171,1,0,0:0:0:0:
192,192,10454,1,0,0:0:0:0:
320,192,10454,1,0,0:0:0:0:
448,192,10454,1,0,0:0:0:0:
448,192,10737,1,0,0:0:0:0:
192,192,10737,1,0,0:0:0:0:
64,192,10737,1,0,0:0:0:0:
192,192,11020,1,0,0:0:0:0:
64,192,11020,1,0,0:0:0:0:
320,192,11091,1,0,0:0:0:0:
192,192,11162,1,0,0:0:0:0:
320,192,11232,1,0,0:0:0:0:
448,192,11303,1,0,0:0:0:0:
64,192,11303,1,0,0:0:0:0:
320,192,11586,1,0,0:0:0:0:
64,192,11869,1,0,0:0:0:0:
320,192,12011,1,0,0:0:0:0:
192,192,12294,1,0,0:0:0:0:
192,192,12577,1,0,0:0:0:0:
320,192,12647,1,0,0:0:0:0:
192,192,12718,1,0,0:0:0:0:
64,192,12860,1,0,0:0:0:0:
448,192,13001,1,0,0:0:0:0:
320,192,13143,1,0,0:0:0:0:
192,192,13284,1,0,0:0:0:0:
64,192,13426,1,0,0:0:0:0:
320,192,13567,1,0,0:0:0:0:
448,192,13850,1,0,0:0:0:0:
320,192,14133,1,0,0:0:0:0:
64,192,14204,1,0,0:0:0:0:
192,192,14275,1,0,0:0:0:0:
320,192,14416,1,0,0:0:0:0:
448,192,14416,1,0,0:0:0:0:
64,192,14416,1,0,0:0:0:0:
192,192,14558,128,0,14699:0:0:0:0:
320,192,14558,128,0,14699:0:0:0:0:
448,192,14558,128,0,14699:0:0:0:0:
448,192,14841,128,0,14982:0:0:0:0:
192,192,14841,128,0,14982:0:0:0:0:
64,192,14841,128,0,14982:0:0:0:0:
320,192,15124,128,0,15265:0:0:0:0:
448,192,15124,128,0,15265:0:0:0:0:
64,192,15124,128,0,15265:0:0:0:0:
192,192,15407,1,0,0:0:0:0:
64,192,15407,1,0,0:0:0:0:
320,192,15548,1,0,0:0:0:0:
448,192,15548,1,0,0:0:0:0:
192,192,15690,1,0,0:0:0:0:
64,192,15690,1,0,0:0:0:0:
320,192,15831,128,0,15973:0:0:0:0:
448,192,15831,1,0,0:0:0:0:
64,192,16114,1,0,0:0:0:0:
192,192,16185,1,0,0:0:0:0:
320,192,16256,128,0,16397:0:0:0:0:
64,192,16397,128,0,16539:0:0:0:0:
320,192,16680,1,0,0:0:0:0:
320,192,16822,128,0,16963:0:0:0:0:
192,192,17105,128,0,17246:0:0:0:0:
320,192,17388,128,0,17530:0:0:0:0:
448,192,17530,1,0,0:0:0:0:
192,192,17530,1,0,0:0:0:0:
64,192,17530,1,0,0:0:0:0:
192,192,17671,1,0,0:0:0:0:
320,192,17813,1,0,0:0:0:0:
448,192,17813,1,0,0:0:0:0:
64,192,17813,1,0,0:0:0:0:
320,192,17954,1,0,0:0:0:0:
448,192,18096,1,0,0:0:0:0:
64,192,18096,1,0,0:0:0:0:
192,192,18166,1,0,0:0:0:0:
320,192,18237,1,0,0:0:0:0:
448,192,18308,1,0,0:0:0:0:
64,192,18379,1,0,0:0:0:0:
192,192,18449,1,0,0:0:0:0:
320,192,18520,1,0,0:0:0:0:
448,192,18591,1,0,0:0:0:0:
64,192,18662,1,0,0:0:0:0:
192,192,18732,1,0,0:0:0:0:
320,192,18803,1,0,0:0:0:0:
448,192,18874,1,0,0:0:0:0:
64,192,18945,1,0,0:0:0:0:
192,192,19015,1,0,0:0:0:0:
320,192,19086,1,0,0:0:0:0:
448,192,19157,1,0,0:0:0:0:
192,192,19228,1,0,0:0:0:0:
64,192,19228,1,0,0:0:0:0:
320,192,19298,1,0,0:0:0:0:
192,192,19369,1,0,0:0:0:0:
64,192,19440,1,0,0:0:0:0:
320,192,19511,1,0,0:0:0:0:
448,192,19511,1,0,0:0:0:0:
192,192,19581,1,0,0:0:0:0:
320,192,19652,1,0,0:0:0:0:
448,192,19723,1,0,0:0:0:0:
64,192,19794,1,0,0:0:0:0:
192,192,19794,1,0,0:0:0:0:
192,192,20006,1,0,0:0:0:0:
320,192,20006,1,0,0:0:0:0:
192,192,20218,1,0,0:0:0:0:
320,192,20218,1,0,0:0:0:0:
64,192,20360,1,0,0:0:0:0:
448,192,20360,1,0,0:0:0:0:
448,192,20643,128,0,20926:0:0:0:0:
64,192,20643,128,0,20926:0:0:0:0:
320,192,20926,128,0,21350:0:0:0:0:
192,192,20926,128,0,21350:0:0:0:0:
64,192,21492,128,0,21633:0:0:0:0:
320,192,21492,128,0,21775:0:0:0:0:
448,192,21492,128,0,21775:0:0:0:0:
192,192,21775,128,0,21916:0:0:0:0:
64,192,21775,128,0,21916:0:0:0:0:
320,192,21916,128,0,22058:0:0:0:0:
192,192,22058,128,0,22199:0:0:0:0:
448,192,22058,128,0,22341:0:0:0:0:
64,192,22199,128,0,22341:0:0:0:0:
320,192,22341,128,0,22482:0:0:0:0:
192,192,22341,128,0,22624:0:0:0:0:
448,192,22482,128,0,22624:0:0:0:0:
64,192,22624,128,0,22907:0:0:0:0:
320,192,22624,1,0,0:0:0:0:
448,192,22765,1,0,0:0:0:0:
192,192,22836,1,0,0:0:0:0:
320,192,22907,128,0,23048:0:0:0:0:
448,192,22907,128,0,23048:0:0:0:0:
192,192,23048,128,0,23190:0:0:0:0:
448,192,23190,1,0,0:0:0:0:
64,192,23190,128,0,23473:0:0:0:0:
320,192,23261,1,0,0:0:0:0:
192,192,23331,128,0,23473:0:0:0:0:
320,192,23473,128,0,23756:0:0:0:0:
448,192,23473,128,0,23756:0:0:0:0:
64,192,23756,128,0,24039:0:0:0:0:
192,192,23756,128,0,24039:0:0:0:0:
448,192,24039,128,0,24322:0:0:0:0:
320,192,24039,128,0,24180:0:0:0:0:
192,192,24180,128,0,24322:0:0:0:0:
64,192,24322,128,0,24605:0:0:0:0:
320,192,24322,128,0,24605:0:0:0:0:
192,192,24605,128,0,24746:0:0:0:0:
448,192,24605,128,0,24888:0:0:0:0:
192,192,24888,128,0,25030:0:0:0:0:
64,192,24888,128,0,25030:0:0:0:0:
320,192,25030,128,0,25171:0:0:0:0:
64,192,25171,1,0,0:0:0:0:
192,192,25171,1,0,0:0:0:0:
448,192,25242,1,0,0:0:0:0:
192,192,25313,1,0,0:0:0:0:
64,192,25313,1,0,0:0:0:0:
320,192,25454,1,0,0:0:0:0:
448,192,25454,1,0,0:0:0:0:
320,192,25737,1,0,0:0:0:0:
448,192,25737,1,0,0:0:0:0:
448,192,26020,128,0,26162:0:0:0:0:
64,192,26020,128,0,26445:0:0:0:0:
192,192,26020,128,0,26303:0:0:0:0:
320,192,26303,1,0,0:0:0:0:
448,192,26303,128,0,26445:0:0:0:0:
192,192,26445,1,0,0:0:0:0:
320,192,26515,1,0,0:0:0:0:
448,192,26586,128,0,26728:0:0:0:0:
64,192,26586,128,0,26728:0:0:0:0:
320,192,26728,1,0,0:0:0:0:
192,192,26798,1,0,0:0:0:0:
448,192,26869,128,0,27011:0:0:0:0:
64,192,26869,128,0,27011:0:0:0:0:
320,192,27011,128,0,27152:0:0:0:0:
448,192,27152,128,0,27435:0:0:0:0:
192,192,27152,1,0,0:0:0:0:
64,192,27294,1,0,0:0:0:0:
320,192,27364,1,0,0:0:0:0:
192,192,27435,128,0,27577:0:0:0:0:
64,192,27435,128,0,27577:0:0:0:0:
320,192,27577,128,0,27718:0:0:0:0:
64,192,27718,1,0,0:0:0:0:
448,192,27718,128,0,28001:0:0:0:0:
192,192,27789,1,0,0:0:0:0:
320,192,27860,128,0,28001:0:0:0:0:
192,192,28001,128,0,28284:0:0:0:0:
64,192,28001,128,0,28284:0:0:0:0:
448,192,28284,128,0,28567:0:0:0:0:
320,192,28284,128,0,28567:0:0:0:0:
64,192,28567,128,0,28850:0:0:0:0:
192,192,28567,128,0,28709:0:0:0:0:
320,192,28709,128,0,28850:0:0:0:0:
448,192,28850,128,0,29133:0:0:0:0:
192,192,28850,128,0,29133:0:0:0:0:
320,192,29133,128,0,29275:0:0:0:0:
64,192,29133,128,0,29416:0:0:0:0:
320,192,29416,1,0,0:0:0:0:
448,192,29416,1,0,0:0:0:0:
448,192,29841,1,0,0:0:0:0:
320,192,29841,1,0,0:0:0:0:
64,192,30265,1,0,0:0:0:0:
448,192,30265,1,0,0:0:0:0:
64,192,30407,1,0,0:0:0:0:
448,192,30407,1,0,0:0:0:0:
192,192,30549,1,0,0:0:0:0:
64,192,30549,1,0,0:0:0:0:
320,192,30737,1,0,0:0:0:0:
448,192,30926,1,0,0:0:0:0:
64,192,30926,1,0,0:0:0:0:
192,192,31115,1,0,0:0:0:0:
320,192,31209,1,0,0:0:0:0:
64,192,31303,1,0,0:0:0:0:
448,192,31303,1,0,0:0:0:0:
192,192,31398,1,0,0:0:0:0:
320,192,31492,1,0,0:0:0:0:
448,192,31586,1,0,0:0:0:0:
64,192,31681,1,0,0:0:0:0:
192,192,31681,1,0,0:0:0:0:
320,192,31775,1,0,0:0:0:0:
192,192,31869,1,0,0:0:0:0:
64,192,31964,1,0,0:0:0:0:
320,192,32058,1,0,0:0:0:0:
448,192,32058,1,0,0:0:0:0:
448,192,32247,1,0,0:0:0:0:
192,192,32435,1,0,0:0:0:0:
64,192,32435,1,0,0:0:0:0:
320,192,32624,1,0,0:0:0:0:
192,192,32718,1,0,0:0:0:0:
64,192,32813,1,0,0:0:0:0:
448,192,32813,1,0,0:0:0:0:
192,192,33001,1,0,0:0:0:0:
320,192,33096,1,0,0:0:0:0:
64,192,33190,1,0,0:0:0:0:
448,192,33190,128,0,33379:0:0:0:0:
192,192,33379,1,0,0:0:0:0:
448,192,33567,1,0,0:0:0:0:
64,192,33567,128,0,33756:0:0:0:0:
320,192,33756,1,0,0:0:0:0:
448,192,33945,1,0,0:0:0:0:
192,192,33945,128,0,34133:0:0:0:0:
64,192,33945,1,0,0:0:0:0:
320,192,34133,1,0,0:0:0:0:
448,192,34322,1,0,0:0:0:0:
64,192,34322,1,0,0:0:0:0:
320,192,34416,1,0,0:0:0:0:
192,192,34511,1,0,0:0:0:0:
64,192,34605,1,0,0:0:0:0:
448,192,34699,128,0,34888:0:0:0:0:
320,192,34699,1,0,0:0:0:0:
192,192,34888,1,0,0:0:0:0:
448,192,35077,1,0,0:0:0:0:
192,192,35077,1,0,0:0:0:0:
64,192,35077,1,0,0:0:0:0:
448,192,35360,1,0,0:0:0:0:
64,192,35360,1,0,0:0:0:0:
192,192,35360,1,0,0:0:0:0:
448,192,35643,1,0,0:0:0:0:
320,192,35643,1,0,0:0:0:0:
64,192,35643,1,0,0:0:0:0:
64,192,35926,1,0,0:0:0:0:
320,192,35926,1,0,0:0:0:0:
448,192,35926,1,0,0:0:0:0:
192,192,36209,1,0,0:0:0:0:
64,192,36209,1,0,0:0:0:0:
320,192,36335,1,0,0:0:0:0:
448,192,36335,1,0,0:0:0:0:
192,192,36460,1,0,0:0:0:0:
64,192,36460,1,0,0:0:0:0:
320,192,36586,1,0,0:0:0:0:
448,192,36586,1,0,0:0:0:0:
192,192,36775,1,0,0:0:0:0:
320,192,36869,1,0,0:0:0:0:
448,192,36964,1,0,0:0:0:0:
64,192,36964,1,0,0:0:0:0:
192,192,37152,1,0,0:0:0:0:
320,192,37247,1,0,0:0:0:0:
192,192,37341,1,0,0:0:0:0:
64,192,37341,1,0,0:0:0:0:
320,192,37530,1,0,0:0:0:0:
448,192,37624,1,0,0:0:0:0:
64,192,37718,1,0,0:0:0:0:
320,192,37813,1,0,0:0:0:0:
192,192,37907,1,0,0:0:0:0:
320,192,38001,1,0,0:0:0:0:
448,192,38096,1,0,0:0:0:0:
64,192,38096,1,0,0:0:0:0:
320,192,38284,1,0,0:0:0:0:
192,192,38379,1,0,0:0:0:0:
448,192,38473,1,0,0:0:0:0:
64,192,38473,1,0,0:0:0:0:
320,192,38567,1,0,0:0:0:0:
192,192,38756,1,0,0:0:0:0:
64,192,38850,1,0,0:0:0:0:
448,192,38850,1,0,0:0:0:0:
192,192,39039,1,0,0:0:0:0:
64,192,39133,1,0,0:0:0:0:
448,192,39228,1,0,0:0:0:0:
320,192,39228,1,0,0:0:0:0:
192,192,39322,1,0,0:0:0:0:
320,192,39416,1,0,0:0:0:0:
192,192,39511,1,0,0:0:0:0:
64,192,39605,1,0,0:0:0:0:
448,192,39605,1,0,0:0:0:0:
320,192,39605,1,0,0:0:0:0:
448,192,39888,1,0,0:0:0:0:
192,192,39888,1,0,0:0:0:0:
64,192,39888,1,0,0:0:0:0:
448,192,40171,1,0,0:0:0:0:
320,192,40171,1,0,0:0:0:0:
64,192,40171,1,0,0:0:0:0:
64,192,40454,1,0,0:0:0:0:
320,192,40454,1,0,0:0:0:0:
448,192,40454,1,0,0:0:0:0:
448,192,40737,1,0,0:0:0:0:
320,192,40737,1,0,0:0:0:0:
192,192,40737,1,0,0:0:0:0:
448,192,41115,1,0,0:0:0:0:
64,192,41115,1,0,0:0:0:0:
320,192,41115,1,0,0:0:0:0:
448,192,41398,1,0,0:0:0:0:
64,192,41398,1,0,0:0:0:0:
320,192,41398,1,0,0:0:0:0:
448,192,41681,1,0,0:0:0:0:
64,192,41681,1,0,0:0:0:0:
192,192,41681,1,0,0:0:0:0:
320,192,41869,1,0,0:0:0:0:
192,192,41869,1,0,0:0:0:0:
64,192,41869,1,0,0:0:0:0:
320,192,42247,1,0,0:0:0:0:
192,192,42310,1,0,0:0:0:0:
320,192,42372,128,0,42498:0:0:0:0:
192,192,42498,128,0,42624:0:0:0:0:
64,192,42624,1,0,0:0:0:0:
448,192,42624,128,0,43190:0:0:0:0:
192,192,42765,1,0,0:0:0:0:
320,192,42907,1,0,0:0:0:0:
64,192,42907,1,0,0:0:0:0:
192,192,43048,1,0,0:0:0:0:
64,192,43190,1,0,0:0:0:0:
192,192,43190,1,0,0:0:0:0:
320,192,43260,1,0,0:0:0:0:
64,192,43331,1,0,0:0:0:0:
448,192,43473,1,0,0:0:0:0:
320,192,43473,1,0,0:0:0:0:
192,192,43543,1,0,0:0:0:0:
448,192,43614,1,0,0:0:0:0:
64,192,43756,1,0,0:0:0:0:
320,192,43756,1,0,0:0:0:0:
192,192,43826,1,0,0:0:0:0:
64,192,43897,1,0,0:0:0:0:
448,192,44039,1,0,0:0:0:0:
192,192,44039,1,0,0:0:0:0:
320,192,44109,1,0,0:0:0:0:
192,192,44180,1,0,0:0:0:0:
64,192,44322,1,0,0:0:0:0:
320,192,44322,1,0,0:0:0:0:
192,192,44392,1,0,0:0:0:0:
320,192,44463,1,0,0:0:0:0:
448,192,44605,1,0,0:0:0:0:
192,192,44605,1,0,0:0:0:0:
320,192,44675,1,0,0:0:0:0:
448,192,44746,1,0,0:0:0:0:
64,192,44888,128,0,45171:0:0:0:0:
192,192,44888,1,0,0:0:0:0:
320,192,45029,1,0,0:0:0:0:
448,192,45171,1,0,0:0:0:0:
192,192,45171,1,0,0:0:0:0:
320,192,45241,1,0,0:0:0:0:
448,192,45312,1,0,0:0:0:0:
64,192,45454,1,0,0:0:0:0:
192,192,45454,1,0,0:0:0:0:
320,192,45524,1,0,0:0:0:0:
64,192,45595,1,0,0:0:0:0:
448,192,45737,1,0,0:0:0:0:
192,192,45737,1,0,0:0:0:0:
192,192,45878,1,0,0:0:0:0:
448,192,46020,1,0,0:0:0:0:
64,192,46020,1,0,0:0:0:0:
320,192,46161,1,0,0:0:0:0:
64,192,46303,1,0,0:0:0:0:
448,192,46303,1,0,0:0:0:0:
192,192,46374,1,0,0:0:0:0:
64,192,46444,1,0,0:0:0:0:
448,192,46586,1,0,0:0:0:0:
192,192,46586,1,0,0:0:0:0:
320,192,46657,1,0,0:0:0:0:
192,192,46727,1,0,0:0:0:0:
64,192,46869,1,0,0:0:0:0:
320,192,46869,1,0,0:0:0:0:
192,192,46940,1,0,0:0:0:0:
320,192,47010,1,0,0:0:0:0:
448,192,47152,1,0,0:0:0:0:
64,192,47152,1,0,0:0:0:0:
192,192,47293,1,0,0:0:0:0:
320,192,47364,1,0,0:0:0:0:
448,192,47435,1,0,0:0:0:0:
64,192,47435,1,0,0:0:0:0:
448,192,47576,1,0,0:0:0:0:
192,192,47718,1,0,0:0:0:0:
64,192,47718,1,0,0:0:0:0:
320,192,47789,1,0,0:0:0:0:
192,192,47859,1,0,0:0:0:0:
320,192,48001,1,0,0:0:0:0:
64,192,48001,1,0,0:0:0:0:
320,192,48142,1,0,0:0:0:0:
448,192,48284,1,0,0:0:0:0:
192,192,48284,1,0,0:0:0:0:
320,192,48355,1,0,0:0:0:0:
448,192,48425,1,0,0:0:0:0:
320,192,48567,1,0,0:0:0:0:
64,192,48567,1,0,0:0:0:0:
192,192,48638,1,0,0:0:0:0:
320,192,48708,1,0,0:0:0:0:
192,192,48850,1,0,0:0:0:0:
448,192,48850,1,0,0:0:0:0:
320,192,48921,1,0,0:0:0:0:
192,192,48991,1,0,0:0:0:0:
64,192,49133,1,0,0:0:0:0:
320,192,49133,1,0,0:0:0:0:
192,192,49204,1,0,0:0:0:0:
64,192,49274,1,0,0:0:0:0:
320,192,49416,1,0,0:0:0:0:
448,192,49416,1,0,0:0:0:0:
192,192,49416,1,0,0:0:0:0:
320,192,49557,1,0,0:0:0:0:
448,192,49557,1,0,0:0:0:0:
192,192,49557,1,0,0:0:0:0:
320,192,49699,128,0,49982:0:0:0:0:
448,192,49982,1,0,0:0:0:0:
192,192,49982,1,0,0:0:0:0:
64,192,49982,1,0,0:0:0:0:
448,192,50123,1,0,0:0:0:0:
192,192,50123,1,0,0:0:0:0:
64,192,50123,1,0,0:0:0:0:
192,192,50265,128,0,50548:0:0:0:0:
320,192,50548,1,0,0:0:0:0:
448,192,50548,1,0,0:0:0:0:
64,192,50548,1,0,0:0:0:0:
448,192,50690,1,0,0:0:0:0:
320,192,50690,1,0,0:0:0:0:
64,192,50690,1,0,0:0:0:0:
448,192,50831,128,0,51114:0:0:0:0:
320,192,51114,1,0,0:0:0:0:
192,192,51114,1,0,0:0:0:0:
64,192,51114,1,0,0:0:0:0:
64,192,51256,1,0,0:0:0:0:
192,192,51256,1,0,0:0:0:0:
320,192,51256,1,0,0:0:0:0:
192,192,51397,128,0,51539:0:0:0:0:
320,192,51539,1,0,0:0:0:0:
448,192,51609,1,0,0:0:0:0:
64,192,51680,1,0,0:0:0:0:
192,192,51680,1,0,0:0:0:0:
320,192,52105,1,0,0:0:0:0:
192,192,52388,1,0,0:0:0:0:
448,192,52529,1,0,0:0:0:0:
192,192,52671,1,0,0:0:0:0:
64,192,52954,1,0,0:0:0:0:
448,192,53237,1,0,0:0:0:0:
192,192,53520,1,0,0:0:0:0:
448,192,53803,1,0,0:0:0:0:
64,192,53944,128,0,54227:0:0:0:0:
448,192,53944,128,0,54227:0:0:0:0:
192,192,54227,128,0,54510:0:0:0:0:
448,192,54510,128,0,54793:0:0:0:0:
64,192,54510,128,0,54793:0:0:0:0:
320,192,54793,128,0,55076:0:0:0:0:
64,192,55076,128,0,55359:0:0:0:0:
192,192,55076,128,0,55359:0:0:0:0:
320,192,55359,128,0,55642:0:0:0:0:
448,192,55359,128,0,55642:0:0:0:0:
192,192,55642,128,0,55925:0:0:0:0:
64,192,55642,128,0,55925:0:0:0:0:
320,192,55925,1,0,0:0:0:0:
448,192,55925,1,0,0:0:0:0:
448,192,56067,1,0,0:0:0:0:
320,192,56067,1,0,0:0:0:0:
64,192,56067,1,0,0:0:0:0:
448,192,56208,1,0,0:0:0:0:
320,192,56208,128,0,56350:0:0:0:0:
64,192,56208,1,0,0:0:0:0:
64,192,56491,1,0,0:0:0:0:
192,192,56562,1,0,0:0:0:0:
320,192,56633,128,0,56774:0:0:0:0:
448,192,56916,128,0,57199:0:0:0:0:
64,192,57199,1,0,0:0:0:0:
192,192,57270,1,0,0:0:0:0:
448,192,57340,128,0,57482:0:0:0:0:
192,192,57623,1,0,0:0:0:0:
320,192,57694,1,0,0:0:0:0:
448,192,57765,128,0,57907:0:0:0:0:
192,192,57907,1,0,0:0:0:0:
64,192,57907,1,0,0:0:0:0:
320,192,58048,128,0,58190:0:0:0:0:
192,192,58190,1,0,0:0:0:0:
64,192,58190,1,0,0:0:0:0:
192,192,58331,128,0,58473:0:0:0:0:
64,192,58473,1,0,0:0:0:0:
448,192,58473,1,0,0:0:0:0:
320,192,58543,1,0,0:0:0:0:
192,192,58614,1,0,0:0:0:0:
64,192,58685,1,0,0:0:0:0:
448,192,58756,1,0,0:0:0:0:
320,192,58826,1,0,0:0:0:0:
192,192,58897,1,0,0:0:0:0:
64,192,58968,1,0,0:0:0:0:
448,192,59039,1,0,0:0:0:0:
320,192,59109,1,0,0:0:0:0:
192,192,59180,1,0,0:0:0:0:
64,192,59251,1,0,0:0:0:0:
448,192,59322,1,0,0:0:0:0:
320,192,59392,1,0,0:0:0:0:
192,192,59463,1,0,0:0:0:0:
64,192,59534,1,0,0:0:0:0:
320,192,59605,1,0,0:0:0:0:
448,192,59605,1,0,0:0:0:0:
192,192,59675,1,0,0:0:0:0:
320,192,59746,1,0,0:0:0:0:
448,192,59817,1,0,0:0:0:0:
192,192,59888,1,0,0:0:0:0:
64,192,59888,1,0,0:0:0:0:
320,192,59958,1,0,0:0:0:0:
192,192,60029,1,0,0:0:0:0:
64,192,60100,1,0,0:0:0:0:
448,192,60171,1,0,0:0:0:0:
320,192,60171,1,0,0:0:0:0:
320,192,60383,1,0,0:0:0:0:
192,192,60383,1,0,0:0:0:0:
320,192,60595,1,0,0:0:0:0:
192,192,60595,1,0,0:0:0:0:
448,192,60737,1,0,0:0:0:0:
64,192,60737,1,0,0:0:0:0:
448,192,61020,128,0,61303:0:0:0:0:
64,192,61020,128,0,61303:0:0:0:0:
192,192,61303,128,0,61727:0:0:0:0:
320,192,61303,128,0,61727:0:0:0:0:
320,192,61869,1,0,0:0:0:0:
192,192,61869,1,0,0:0:0:0:
64,192,62293,1,0,0:0:0:0:
448,192,62293,1,0,0:0:0:0:
192,192,62364,1,0,0:0:0:0:
320,192,62435,1,0,0:0:0:0:
192,192,62576,1,0,0:0:0:0:
192,192,62718,1,0,0:0:0:0:
320,192,62859,1,0,0:0:0:0:
192,192,63001,1,0,0:0:0:0:
64,192,63001,1,0,0:0:0:0:
448,192,63001,1,0,0:0:0:0:
64,192,63142,1,0,0:0:0:0:
320,192,63284,1,0,0:0:0:0:
448,192,63284,1,0,0:0:0:0:
320,192,63425,1,0,0:0:0:0:
64,192,63567,1,0,0:0:0:0:
192,192,63567,1,0,0:0:0:0:
320,192,63638,1,0,0:0:0:0:
64,192,63708,1,0,0:0:0:0:
448,192,63850,1,0,0:0:0:0:
320,192,63850,1,0,0:0:0:0:
192,192,63921,1,0,0:0:0:0:
448,192,63991,1,0,0:0:0:0:
192,192,64133,1,0,0:0:0:0:
64,192,64133,1,0,0:0:0:0:
320,192,64274,1,0,0:0:0:0:
192,192,64345,1,0,0:0:0:0:
448,192,64416,1,0,0:0:0:0:
64,192,64416,1,0,0:0:0:0:
320,192,64557,1,0,0:0:0:0:
64,192,64699,1,0,0:0:0:0:
448,192,64699,1,0,0:0:0:0:
192,192,64770,1,0,0:0:0:0:
64,192,64840,1,0,0:0:0:0:
320,192,64982,1,0,0:0:0:0:
192,192,64982,1,0,0:0:0:0:
320,192,65123,1,0,0:0:0:0:
64,192,65265,1,0,0:0:0:0:
448,192,65265,1,0,0:0:0:0:
320,192,65407,1,0,0:0:0:0:
192,192,65477,1,0,0:0:0:0:
320,192,65548,1,0,0:0:0:0:
448,192,65548,1,0,0:0:0:0:
64,192,65690,1,0,0:0:0:0:
448,192,65760,1,0,0:0:0:0:
64,192,65831,1,0,0:0:0:0:
192,192,65831,1,0,0:0:0:0:
320,192,65902,1,0,0:0:0:0:
192,192,65973,1,0,0:0:0:0:
64,192,66114,1,0,0:0:0:0:
448,192,66114,1,0,0:0:0:0:
320,192,66114,1,0,0:0:0:0:
320,192,66256,128,0,66397:0:0:0:0:
448,192,66256,128,0,66397:0:0:0:0:
192,192,66256,128,0,66397:0:0:0:0:
320,192,66539,128,0,66680:0:0:0:0:
64,192,66539,128,0,66680:0:0:0:0:
448,192,66539,128,0,66680:0:0:0:0:
192,192,66822,128,0,66963:0:0:0:0:
64,192,66822,128,0,66963:0:0:0:0:
320,192,66822,128,0,66963:0:0:0:0:
192,192,67105,1,0,0:0:0:0:
64,192,67105,1,0,0:0:0:0:
320,192,67175,1,0,0:0:0:0:
448,192,67175,1,0,0:0:0:0:
192,192,67246,1,0,0:0:0:0:
64,192,67246,1,0,0:0:0:0:
320,192,67388,1,0,0:0:0:0:
448,192,67388,1,0,0:0:0:0:
192,192,67529,1,0,0:0:0:0:
64,192,67529,1,0,0:0:0:0:
448,192,67529,1,0,0:0:0:0:
320,192,67671,1,0,0:0:0:0:
448,192,67812,1,0,0:0:0:0:
64,192,67812,1,0,0:0:0:0:
192,192,67883,1,0,0:0:0:0:
320,192,67954,1,0,0:0:0:0:
448,192,68024,1,0,0:0:0:0:
64,192,68095,1,0,0:0:0:0:
192,192,68095,1,0,0:0:0:0:
320,192,68237,1,0,0:0:0:0:
192,192,68378,1,0,0:0:0:0:
320,192,68378,1,0,0:0:0:0:
192,192,68520,1,0,0:0:0:0:
448,192,68661,1,0,0:0:0:0:
64,192,68661,1,0,0:0:0:0:
320,192,68661,1,0,0:0:0:0:
192,192,68803,1,0,0:0:0:0:
64,192,68944,1,0,0:0:0:0:
448,192,68944,1,0,0:0:0:0:
320,192,69015,1,0,0:0:0:0:
192,192,69086,1,0,0:0:0:0:
64,192,69157,1,0,0:0:0:0:
448,192,69227,1,0,0:0:0:0:
320,192,69227,1,0,0:0:0:0:
192,192,69369,1,0,0:0:0:0:
192,192,69510,1,0,0:0:0:0:
320,192,69510,1,0,0:0:0:0:
320,192,69652,1,0,0:0:0:0:
448,192,69793,1,0,0:0:0:0:
64,192,69793,1,0,0:0:0:0:
192,192,69793,1,0,0:0:0:0:
320,192,69935,1,0,0:0:0:0:
64,192,70076,1,0,0:0:0:0:
448,192,70076,1,0,0:0:0:0:
192,192,70147,1,0,0:0:0:0:
320,192,70218,1,0,0:0:0:0:
448,192,70289,1,0,0:0:0:0:
64,192,70359,1,0,0:0:0:0:
192,192,70359,1,0,0:0:0:0:
320,192,70501,1,0,0:0:0:0:
320,192,70642,1,0,0:0:0:0:
192,192,70642,1,0,0:0:0:0:
192,192,70784,1,0,0:0:0:0:
448,192,70925,1,0,0:0:0:0:
64,192,70925,1,0,0:0:0:0:
320,192,70925,1,0,0:0:0:0:
320,192,71067,1,0,0:0:0:0:
64,192,71208,1,0,0:0:0:0:
448,192,71208,1,0,0:0:0:0:
192,192,71279,1,0,0:0:0:0:
320,192,71350,1,0,0:0:0:0:
448,192,71491,1,0,0:0:0:0:
64,192,71491,1,0,0:0:0:0:
320,192,71562,1,0,0:0:0:0:
192,192,71633,1,0,0:0:0:0:
448,192,71774,1,0,0:0:0:0:
320,192,71774,1,0,0:0:0:0:
192,192,71916,1,0,0:0:0:0:
320,192,72057,1,0,0:0:0:0:
448,192,72057,1,0,0:0:0:0:
64,192,72057,1,0,0:0:0:0:
448,192,72199,1,0,0:0:0:0:
192,192,72340,1,0,0:0:0:0:
64,192,72340,1,0,0:0:0:0:
192,192,72482,1,0,0:0:0:0:
448,192,72623,1,0,0:0:0:0:
320,192,72623,1,0,0:0:0:0:
192,192,72694,1,0,0:0:0:0:
448,192,72765,1,0,0:0:0:0:
64,192,72907,1,0,0:0:0:0:
192,192,72907,1,0,0:0:0:0:
320,192,72977,1,0,0:0:0:0:
64,192,73048,1,0,0:0:0:0:
320,192,73190,1,0,0:0:0:0:
448,192,73190,1,0,0:0:0:0:
192,192,73331,1,0,0:0:0:0:
320,192,73402,1,0,0:0:0:0:
64,192,73473,1,0,0:0:0:0:
448,192,73473,1,0,0:0:0:0:
192,192,73614,1,0,0:0:0:0:
448,192,73756,1,0,0:0:0:0:
64,192,73756,1,0,0:0:0:0:
320,192,73826,1,0,0:0:0:0:
448,192,73897,1,0,0:0:0:0:
192,192,74039,1,0,0:0:0:0:
320,192,74039,1,0,0:0:0:0:
192,192,74180,1,0,0:0:0:0:
448,192,74322,1,0,0:0:0:0:
64,192,74322,1,0,0:0:0:0:
192,192,74463,1,0,0:0:0:0:
320,192,74534,1,0,0:0:0:0:
192,192,74605,1,0,0:0:0:0:
64,192,74605,1,0,0:0:0:0:
448,192,74746,1,0,0:0:0:0:
64,192,74817,1,0,0:0:0:0:
448,192,74888,1,0,0:0:0:0:
320,192,74888,1,0,0:0:0:0:
192,192,74958,1,0,0:0:0:0:
320,192,75029,1,0,0:0:0:0:
448,192,75171,1,0,0:0:0:0:
64,192,75171,1,0,0:0:0:0:
192,192,75171,1,0,0:0:0:0:
192,192,75312,128,0,75454:0:0:0:0:
320,192,75312,128,0,75454:0:0:0:0:
448,192,75312,128,0,75454:0:0:0:0:
320,192,75595,128,0,75737:0:0:0:0:
448,192,75595,128,0,75737:0:0:0:0:
64,192,75595,128,0,75737:0:0:0:0:
64,192,75878,128,0,76020:0:0:0:0:
192,192,75878,128,0,76020:0:0:0:0:
448,192,75878,128,0,76020:0:0:0:0:
448,192,76161,1,0,0:0:0:0:
320,192,76161,1,0,0:0:0:0:
320,192,76303,1,0,0:0:0:0:
192,192,76303,1,0,0:0:0:0:
64,192,76444,1,0,0:0:0:0:
192,192,76444,1,0,0:0:0:0:
320,192,76586,1,0,0:0:0:0:
448,192,76586,1,0,0:0:0:0:
320,192,76727,1,0,0:0:0:0:
448,192,76869,1,0,0:0:0:0:
64,192,76869,1,0,0:0:0:0:
192,192,76940,1,0,0:0:0:0:
320,192,77010,1,0,0:0:0:0:
192,192,77152,1,0,0:0:0:0:
448,192,77152,1,0,0:0:0:0:
192,192,77293,1,0,0:0:0:0:
64,192,77435,1,0,0:0:0:0:
320,192,77435,1,0,0:0:0:0:
320,192,77576,1,0,0:0:0:0:
448,192,77576,1,0,0:0:0:0:
192,192,77718,1,0,0:0:0:0:
64,192,77718,1,0,0:0:0:0:
320,192,77859,1,0,0:0:0:0:
192,192,77859,1,0,0:0:0:0:
448,192,78001,1,0,0:0:0:0:
64,192,78001,1,0,0:0:0:0:
320,192,78142,1,0,0:0:0:0:
448,192,78142,1,0,0:0:0:0:
192,192,78284,1,0,0:0:0:0:
64,192,78284,1,0,0:0:0:0:
192,192,78425,1,0,0:0:0:0:
320,192,78425,1,0,0:0:0:0:
64,192,78567,1,0,0:0:0:0:
448,192,78567,1,0,0:0:0:0:
192,192,78638,1,0,0:0:0:0:
320,192,78708,1,0,0:0:0:0:
448,192,78850,1,0,0:0:0:0:
64,192,78850,1,0,0:0:0:0:
320,192,78921,1,0,0:0:0:0:
192,192,78991,1,0,0:0:0:0:
64,192,79062,1,0,0:0:0:0:
448,192,79133,1,0,0:0:0:0:
320,192,79204,1,0,0:0:0:0:
192,192,79274,1,0,0:0:0:0:
64,192,79345,1,0,0:0:0:0:
448,192,79416,1,0,0:0:0:0:
320,192,79487,1,0,0:0:0:0:
192,192,79557,1,0,0:0:0:0:
64,192,79628,1,0,0:0:0:0:
448,192,79699,1,0,0:0:0:0:
192,192,79840,128,0,80123:0:0:0:0:
320,192,79840,128,0,80123:0:0:0:0:
192,192,80265,1,0,0:0:0:0:
64,192,80265,1,0,0:0:0:0:
320,192,80548,1,0,0:0:0:0:
448,192,80548,1,0,0:0:0:0:
320,192,80760,1,0,0:0:0:0:
192,192,80760,1,0,0:0:0:0:
192,192,80973,1,0,0:0:0:0:
64,192,80973,1,0,0:0:0:0:
320,192,81114,1,0,0:0:0:0:
448,192,81114,1,0,0:0:0:0:
320,192,81397,1,0,0:0:0:0:
64,192,81680,1,0,0:0:0:0:
320,192,81751,1,0,0:0:0:0:
192,192,81822,1,0,0:0:0:0:
192,192,82105,1,0,0:0:0:0:
192,192,82388,1,0,0:0:0:0:
320,192,82458,1,0,0:0:0:0:
192,192,82529,1,0,0:0:0:0:
64,192,82671,1,0,0:0:0:0:
448,192,82812,1,0,0:0:0:0:
192,192,82883,1,0,0:0:0:0:
320,192,82954,1,0,0:0:0:0:
192,192,83095,1,0,0:0:0:0:
64,192,83237,1,0,0:0:0:0:
448,192,83378,1,0,0:0:0:0:
192,192,83661,1,0,0:0:0:0:
320,192,83944,1,0,0:0:0:0:
192,192,84015,1,0,0:0:0:0:
448,192,84086,1,0,0:0:0:0:
64,192,84227,1,0,0:0:0:0:
192,192,84227,1,0,0:0:0:0:
320,192,84369,128,0,84510:0:0:0:0:
448,192,84369,128,0,84510:0:0:0:0:
192,192,84652,128,0,84793:0:0:0:0:
320,192,84652,128,0,84793:0:0:0:0:
64,192,84935,128,0,85076:0:0:0:0:
192,192,84935,128,0,85076:0:0:0:0:
448,192,85218,1,0,0:0:0:0:
320,192,85218,1,0,0:0:0:0:
64,192,85289,1,0,0:0:0:0:
192,192,85359,1,0,0:0:0:0:
320,192,85501,1,0,0:0:0:0:
192,192,85642,1,0,0:0:0:0:
64,192,85642,1,0,0:0:0:0:
448,192,85642,1,0,0:0:0:0:
320,192,85784,1,0,0:0:0:0:
448,192,85925,1,0,0:0:0:0:
64,192,85925,1,0,0:0:0:0:
192,192,85996,1,0,0:0:0:0:
320,192,86067,1,0,0:0:0:0:
448,192,86138,1,0,0:0:0:0:
64,192,86208,1,0,0:0:0:0:
192,192,86208,1,0,0:0:0:0:
320,192,86350,1,0,0:0:0:0:
192,192,86491,1,0,0:0:0:0:
320,192,86491,1,0,0:0:0:0:
192,192,86633,1,0,0:0:0:0:
448,192,86774,1,0,0:0:0:0:
64,192,86774,1,0,0:0:0:0:
320,192,86774,1,0,0:0:0:0:
192,192,86916,1,0,0:0:0:0:
64,192,87057,1,0,0:0:0:0:
448,192,87057,1,0,0:0:0:0:
320,192,87128,1,0,0:0:0:0:
192,192,87199,1,0,0:0:0:0:
64,192,87270,1,0,0:0:0:0:
448,192,87340,1,0,0:0:0:0:
320,192,87340,1,0,0:0:0:0:
192,192,87482,1,0,0:0:0:0:
192,192,87623,1,0,0:0:0:0:
320,192,87623,1,0,0:0:0:0:
320,192,87765,1,0,0:0:0:0:
448,192,87907,1,0,0:0:0:0:
64,192,87907,1,0,0:0:0:0:
192,192,87907,1,0,0:0:0:0:
320,192,88048,1,0,0:0:0:0:
64,192,88190,1,0,0:0:0:0:
448,192,88190,1,0,0:0:0:0:
192,192,88260,1,0,0:0:0:0:
320,192,88331,1,0,0:0:0:0:
448,192,88402,1,0,0:0:0:0:
64,192,88473,1,0,0:0:0:0:
192,192,88473,1,0,0:0:0:0:
320,192,88614,1,0,0:0:0:0:
320,192,88756,1,0,0:0:0:0:
192,192,88756,1,0,0:0:0:0:
192,192,88897,1,0,0:0:0:0:
448,192,89039,1,0,0:0:0:0:
64,192,89039,1,0,0:0:0:0:
320,192,89039,1,0,0:0:0:0:
320,192,89180,1,0,0:0:0:0:
64,192,89322,1,0,0:0:0:0:
448,192,89322,1,0,0:0:0:0:
192,192,89392,1,0,0:0:0:0:
320,192,89463,1,0,0:0:0:0:
448,192,89605,1,0,0:0:0:0:
64,192,89605,1,0,0:0:0:0:
320,192,89675,1,0,0:0:0:0:
192,192,89746,1,0,0:0:0:0:
64,192,89888,1,0,0:0:0:0:
448,192,89888,1,0,0:0:0:0:
320,192,90029,1,0,0:0:0:0:
448,192,90171,1,0,0:0:0:0:
64,192,90171,1,0,0:0:0:0:
192,192,90171,1,0,0:0:0:0:
64,192,90312,1,0,0:0:0:0:
448,192,90454,1,0,0:0:0:0:
320,192,90454,1,0,0:0:0:0:
320,192,90595,1,0,0:0:0:0:
64,192,90737,1,0,0:0:0:0:
192,192,90737,1,0,0:0:0:0:
320,192,90807,1,0,0:0:0:0:
64,192,90878,1,0,0:0:0:0:
448,192,91020,1,0,0:0:0:0:
320,192,91020,1,0,0:0:0:0:
192,192,91090,1,0,0:0:0:0:
448,192,91161,1,0,0:0:0:0:
192,192,91303,1,0,0:0:0:0:
64,192,91303,1,0,0:0:0:0:
320,192,91444,1,0,0:0:0:0:
192,192,91515,1,0,0:0:0:0:
448,192,91586,1,0,0:0:0:0:
64,192,91586,1,0,0:0:0:0:
320,192,91727,1,0,0:0:0:0:
64,192,91869,1,0,0:0:0:0:
448,192,91869,1,0,0:0:0:0:
192,192,91940,1,0,0:0:0:0:
64,192,92010,1,0,0:0:0:0:
320,192,92152,1,0,0:0:0:0:
192,192,92152,1,0,0:0:0:0:
320,192,92293,1,0,0:0:0:0:
64,192,92435,1,0,0:0:0:0:
192,192,92435,1,0,0:0:0:0:
320,192,92576,1,0,0:0:0:0:
192,192,92647,1,0,0:0:0:0:
320,192,92718,1,0,0:0:0:0:
448,192,92718,1,0,0:0:0:0:
64,192,92859,1,0,0:0:0:0:
448,192,92930,1,0,0:0:0:0:
64,192,93001,1,0,0:0:0:0:
192,192,93001,1,0,0:0:0:0:
320,192,93072,1,0,0:0:0:0:
192,192,93142,1,0,0:0:0:0:
64,192,93284,1,0,0:0:0:0:
448,192,93284,1,0,0:0:0:0:
320,192,93425,1,0,0:0:0:0:
448,192,93425,1,0,0:0:0:0:
192,192,93425,1,0,0:0:0:0:
320,192,93708,1,0,0:0:0:0:
64,192,93708,1,0,0:0:0:0:
448,192,93708,1,0,0:0:0:0:
192,192,93991,1,0,0:0:0:0:
64,192,93991,1,0,0:0:0:0:
320,192,93991,1,0,0:0:0:0:
448,192,94274,1,0,0:0:0:0:
320,192,94274,1,0,0:0:0:0:
320,192,94416,1,0,0:0:0:0:
192,192,94416,1,0,0:0:0:0:
64,192,94557,1,0,0:0:0:0:
192,192,94557,1,0,0:0:0:0:
320,192,94699,1,0,0:0:0:0:
448,192,94699,1,0,0:0:0:0:
320,192,94840,1,0,0:0:0:0:
448,192,94982,1,0,0:0:0:0:
64,192,94982,1,0,0:0:0:0:
192,192,95053,1,0,0:0:0:0:
320,192,95123,1,0,0:0:0:0:
192,192,95265,1,0,0:0:0:0:
448,192,95265,1,0,0:0:0:0:
64,192,95265,1,0,0:0:0:0:
192,192,95407,1,0,0:0:0:0:
64,192,95548,1,0,0:0:0:0:
320,192,95548,1,0,0:0:0:0:
320,192,95690,1,0,0:0:0:0:
448,192,95690,1,0,0:0:0:0:
192,192,95831,1,0,0:0:0:0:
64,192,95831,1,0,0:0:0:0:
320,192,95973,1,0,0:0:0:0:
192,192,95973,1,0,0:0:0:0:
448,192,96114,1,0,0:0:0:0:
64,192,96114,1,0,0:0:0:0:
320,192,96256,1,0,0:0:0:0:
448,192,96256,1,0,0:0:0:0:
192,192,96397,1,0,0:0:0:0:
64,192,96397,1,0,0:0:0:0:
320,192,96539,1,0,0:0:0:0:
192,192,96539,1,0,0:0:0:0:
64,192,96680,1,0,0:0:0:0:
448,192,96680,1,0,0:0:0:0:
320,192,96751,1,0,0:0:0:0:
192,192,96822,1,0,0:0:0:0:
64,192,96963,1,0,0:0:0:0:
448,192,96963,1,0,0:0:0:0:
320,192,97034,1,0,0:0:0:0:
192,192,97105,1,0,0:0:0:0:
64,192,97175,1,0,0:0:0:0:
448,192,97246,1,0,0:0:0:0:
320,192,97317,1,0,0:0:0:0:
192,192,97388,1,0,0:0:0:0:
64,192,97458,1,0,0:0:0:0:
448,192,97529,1,0,0:0:0:0:
320,192,97600,1,0,0:0:0:0:
192,192,97671,1,0,0:0:0:0:
64,192,97741,1,0,0:0:0:0:
448,192,97812,1,0,0:0:0:0:
192,192,97954,128,0,98237:0:0:0:0:
320,192,97954,128,0,98237:0:0:0:0:
192,192,98378,1,0,0:0:0:0:
64,192,98378,1,0,0:0:0:0:
320,192,98661,1,0,0:0:0:0:
448,192,98661,1,0,0:0:0:0:
320,192,98873,1,0,0:0:0:0:
192,192,98873,1,0,0:0:0:0:
192,192,99086,1,0,0:0:0:0:
64,192,99086,1,0,0:0:0:0:
64,192,99227,128,0,99369:0:0:0:0:
320,192,99227,128,0,99510:0:0:0:0:
448,192,99227,128,0,99510:0:0:0:0:
192,192,99510,128,0,99652:0:0:0:0:
64,192,99510,128,0,99652:0:0:0:0:
320,192,99652,128,0,99793:0:0:0:0:
192,192,99793,128,0,99935:0:0:0:0:
448,192,99793,128,0,100076:0:0:0:0:
64,192,99935,128,0,100076:0:0:0:0:
320,192,100076,128,0,100218:0:0:0:0:
192,192,100076,128,0,100359:0:0:0:0:
448,192,100218,128,0,100359:0:0:0:0:
64,192,100359,128,0,100642:0:0:0:0:
320,192,100359,1,0,0:0:0:0:
448,192,100501,1,0,0:0:0:0:
192,192,100572,1,0,0:0:0:0:
320,192,100642,128,0,100784:0:0:0:0:
448,192,100642,128,0,100784:0:0:0:0:
192,192,100784,128,0,100925:0:0:0:0:
448,192,100925,1,0,0:0:0:0:
64,192,100925,128,0,101208:0:0:0:0:
320,192,100996,1,0,0:0:0:0:
192,192,101067,128,0,101208:0:0:0:0:
320,192,101208,128,0,101491:0:0:0:0:
448,192,101208,128,0,101491:0:0:0:0:
64,192,101491,128,0,101774:0:0:0:0:
192,192,101491,128,0,101774:0:0:0:0:
448,192,101774,128,0,102057:0:0:0:0:
320,192,101774,128,0,101916:0:0:0:0:
192,192,101916,128,0,102057:0:0:0:0:
64,192,102057,128,0,102340:0:0:0:0:
320,192,102057,128,0,102340:0:0:0:0:
192,192,102340,128,0,102482:0:0:0:0:
448,192,102340,128,0,102623:0:0:0:0:
192,192,102623,128,0,102765:0:0:0:0:
64,192,102623,128,0,102765:0:0:0:0:
320,192,102765,128,0,102907:0:0:0:0:
448,192,102907,1,0,0:0:0:0:
64,192,102907,1,0,0:0:0:0:
192,192,102977,1,0,0:0:0:0:
448,192,103048,1,0,0:0:0:0:
320,192,103048,1,0,0:0:0:0:
192,192,103190,1,0,0:0:0:0:
64,192,103190,1,0,0:0:0:0:
192,192,103473,1,0,0:0:0:0:
64,192,103473,1,0,0:0:0:0:
448,192,103897,1,0,0:0:0:0:
64,192,103897,1,0,0:0:0:0:
448,192,104039,128,0,104180:0:0:0:0:
64,192,104039,128,0,104180:0:0:0:0:
192,192,104180,1,0,0:0:0:0:
320,192,104251,1,0,0:0:0:0:
448,192,104322,128,0,104463:0:0:0:0:
64,192,104322,128,0,104463:0:0:0:0:
320,192,104463,1,0,0:0:0:0:
192,192,104534,1,0,0:0:0:0:
448,192,104605,128,0,104746:0:0:0:0:
64,192,104605,128,0,104746:0:0:0:0:
320,192,104746,128,0,104888:0:0:0:0:
448,192,104888,128,0,105171:0:0:0:0:
192,192,104888,1,0,0:0:0:0:
64,192,105029,1,0,0:0:0:0:
320,192,105100,1,0,0:0:0:0:
192,192,105171,128,0,105312:0:0:0:0:
64,192,105171,128,0,105312:0:0:0:0:
320,192,105312,128,0,105454:0:0:0:0:
64,192,105454,1,0,0:0:0:0:
448,192,105454,128,0,105737:0:0:0:0:
192,192,105524,1,0,0:0:0:0:
320,192,105595,128,0,105737:0:0:0:0:
192,192,105737,128,0,106020:0:0:0:0:
64,192,105737,128,0,106020:0:0:0:0:
448,192,106020,128,0,106303:0:0:0:0:
320,192,106020,128,0,106303:0:0:0:0:
64,192,106303,128,0,106586:0:0:0:0:
192,192,106303,128,0,106444:0:0:0:0:
320,192,106444,128,0,106586:0:0:0:0:
448,192,106586,128,0,106869:0:0:0:0:
192,192,106586,128,0,106869:0:0:0:0:
320,192,106869,128,0,107010:0:0:0:0:
64,192,106869,128,0,107152:0:0:0:0:
320,192,107152,1,0,0:0:0:0:
448,192,107152,1,0,0:0:0:0:
448,192,107576,1,0,0:0:0:0:
320,192,107576,1,0,0:0:0:0:
64,192,108001,1,0,0:0:0:0:
448,192,108001,1,0,0:0:0:0:
64,192,108142,1,0,0:0:0:0:
448,192,108142,1,0,0:0:0:0:
192,192,108284,1,0,0:0:0:0:
64,192,108284,1,0,0:0:0:0:
320,192,108472,1,0,0:0:0:0:
448,192,108661,1,0,0:0:0:0:
64,192,108661,1,0,0:0:0:0:
192,192,108850,1,0,0:0:0:0:
320,192,108944,1,0,0:0:0:0:
64,192,109038,1,0,0:0:0:0:
448,192,109038,1,0,0:0:0:0:
192,192,109133,1,0,0:0:0:0:
320,192,109227,1,0,0:0:0:0:
448,192,109321,1,0,0:0:0:0:
64,192,109416,1,0,0:0:0:0:
192,192,109416,1,0,0:0:0:0:
320,192,109510,1,0,0:0:0:0:
192,192,109604,1,0,0:0:0:0:
64,192,109699,1,0,0:0:0:0:
320,192,109793,1,0,0:0:0:0:
448,192,109793,1,0,0:0:0:0:
448,192,109982,1,0,0:0:0:0:
192,192,110170,1,0,0:0:0:0:
64,192,110170,1,0,0:0:0:0:
320,192,110359,1,0,0:0:0:0:
192,192,110453,1,0,0:0:0:0:
64,192,110548,1,0,0:0:0:0:
448,192,110548,1,0,0:0:0:0:
192,192,110736,1,0,0:0:0:0:
320,192,110831,1,0,0:0:0:0:
64,192,110925,1,0,0:0:0:0:
448,192,110925,128,0,111114:0:0:0:0:
192,192,111114,1,0,0:0:0:0:
64,192,111114,1,0,0:0:0:0:
320,192,111208,1,0,0:0:0:0:
192,192,111302,1,0,0:0:0:0:
64,192,111302,1,0,0:0:0:0:
192,192,111491,1,0,0:0:0:0:
64,192,111491,1,0,0:0:0:0:
448,192,111680,1,0,0:0:0:0:
320,192,111680,1,0,0:0:0:0:
320,192,111868,1,0,0:0:0:0:
448,192,111868,1,0,0:0:0:0:
64,192,112057,1,0,0:0:0:0:
192,192,112057,1,0,0:0:0:0:
320,192,112151,1,0,0:0:0:0:
192,192,112246,1,0,0:0:0:0:
64,192,112246,1,0,0:0:0:0:
320,192,112434,1,0,0:0:0:0:
448,192,112434,1,0,0:0:0:0:
448,192,112623,1,0,0:0:0:0:
320,192,112623,1,0,0:0:0:0:
192,192,112717,1,0,0:0:0:0:
448,192,112812,1,0,0:0:0:0:
64,192,112812,1,0,0:0:0:0:
320,192,112812,1,0,0:0:0:0:
448,192,113095,1,0,0:0:0:0:
64,192,113095,1,0,0:0:0:0:
320,192,113095,1,0,0:0:0:0:
448,192,113378,1,0,0:0:0:0:
192,192,113378,1,0,0:0:0:0:
64,192,113378,1,0,0:0:0:0:
64,192,113661,1,0,0:0:0:0:
192,192,113661,1,0,0:0:0:0:
448,192,113661,1,0,0:0:0:0:
192,192,113944,1,0,0:0:0:0:
64,192,113944,1,0,0:0:0:0:
320,192,114070,1,0,0:0:0:0:
448,192,114070,1,0,0:0:0:0:
192,192,114195,1,0,0:0:0:0:
64,192,114195,1,0,0:0:0:0:
320,192,114321,1,0,0:0:0:0:
448,192,114321,1,0,0:0:0:0:
192,192,114510,1,0,0:0:0:0:
320,192,114604,1,0,0:0:0:0:
448,192,114699,1,0,0:0:0:0:
64,192,114699,1,0,0:0:0:0:
192,192,114887,1,0,0:0:0:0:
320,192,114982,1,0,0:0:0:0:
192,192,115076,1,0,0:0:0:0:
64,192,115076,1,0,0:0:0:0:
320,192,115265,1,0,0:0:0:0:
448,192,115359,1,0,0:0:0:0:
64,192,115453,1,0,0:0:0:0:
320,192,115548,1,0,0:0:0:0:
192,192,115642,1,0,0:0:0:0:
320,192,115736,1,0,0:0:0:0:
448,192,115831,1,0,0:0:0:0:
64,192,115831,1,0,0:0:0:0:
320,192,116019,1,0,0:0:0:0:
192,192,116114,1,0,0:0:0:0:
448,192,116208,1,0,0:0:0:0:
64,192,116208,1,0,0:0:0:0:
320,192,116302,1,0,0:0:0:0:
192,192,116491,1,0,0:0:0:0:
64,192,116585,1,0,0:0:0:0:
448,192,116585,1,0,0:0:0:0:
192,192,116774,1,0,0:0:0:0:
64,192,116868,1,0,0:0:0:0:
320,192,116963,1,0,0:0:0:0:
448,192,116963,1,0,0:0:0:0:
192,192,117057,1,0,0:0:0:0:
320,192,117151,1,0,0:0:0:0:
192,192,117246,1,0,0:0:0:0:
320,192,117340,1,0,0:0:0:0:
64,192,117340,1,0,0:0:0:0:
448,192,117340,1,0,0:0:0:0:
448,192,117623,1,0,0:0:0:0:
320,192,117623,1,0,0:0:0:0:
64,192,117623,1,0,0:0:0:0:
448,192,117906,1,0,0:0:0:0:
192,192,117906,1,0,0:0:0:0:
64,192,117906,1,0,0:0:0:0:
64,192,118189,1,0,0:0:0:0:
192,192,118189,1,0,0:0:0:0:
448,192,118189,1,0,0:0:0:0:
448,192,118472,1,0,0:0:0:0:
320,192,118472,1,0,0:0:0:0:
64,192,118472,1,0,0:0:0:0:
192,192,118661,1,0,0:0:0:0:
320,192,118755,1,0,0:0:0:0:
448,192,118850,1,0,0:0:0:0:
192,192,118850,1,0,0:0:0:0:
64,192,118850,1,0,0:0:0:0:
320,192,119038,1,0,0:0:0:0:
448,192,119133,1,0,0:0:0:0:
192,192,119133,1,0,0:0:0:0:
64,192,119133,1,0,0:0:0:0:
320,192,119321,1,0,0:0:0:0:
192,192,119416,1,0,0:0:0:0:
320,192,119510,1,0,0:0:0:0:
192,192,119604,1,0,0:0:0:0:
64,192,119604,1,0,0:0:0:0:
448,192,119604,1,0,0:0:0:0:
448,192,119982,1,0,0:0:0:0:
192,192,119982,1,0,0:0:0:0:
64,192,119982,1,0,0:0:0:0:
64,192,120359,1,0,0:0:0:0:
320,192,120359,1,0,0:0:0:0:
448,192,120359,1,0,0:0:0:0:
