osu file format v14

[General]
AudioFilename: audio.mp3
AudioLeadIn: 0
PreviewTime: 62310
Countdown: 0
SampleSet: Soft
StackLeniency: 0.7
Mode: 3
LetterboxInBreaks: 0
SpecialStyle: 0
WidescreenStoryboard: 0

[Editor]
Bookmarks: 2247,21492,42624,63001
DistanceSpacing: 1
BeatDivisor: 12
GridSize: 16
TimelineZoom: 2.799998

[Metadata]
Title:refluxio
TitleUnicode:refluxio
Artist:Juggernaut.
ArtistUnicode:Juggernaut.
Creator:BKwind
Version:EXCEED
Source:SOUND VOLTEX EXCEED GEAR
Tags:SDVX Bemani HEXA DIVER -アザレアの使命篇- The 10th KAC オリジナル楽曲コンテスト konami arcade championship original song 嬬武器烈風刀 Tsumabuki rhythm video game electronic instrumental artcore xixi2333
BeatmapID:3584330
BeatmapSetID:1751887

[Difficulty]
HPDrainRate:8.5
CircleSize:4
OverallDifficulty:7.4
ApproachRate:5
SliderMultiplier:1.4
SliderTickRate:1

[Events]
//Background and Video events
0,0,"bg.jpg",0,0
//Break Periods
//Storyboard Layer 0 (Background)
//Storyboard Layer 1 (Fail)
//Storyboard Layer 2 (Pass)
//Storyboard Layer 3 (Foreground)
//Storyboard Layer 4 (Overlay)
//Storyboard Sound Samples

[TimingPoints]
2247,283.018867924528,4,2,1,35,1,0
30549,377.358490566038,4,2,1,35,1,0
30549,-81.9672131147541,4,2,1,35,0,0
42624,283.018867924528,4,2,1,35,1,0
61869,-10,4,2,1,35,0,0
61904,-250,4,2,1,35,0,0
61975,-142.857142857143,4,2,1,35,0,0
62081,-111.111111111111,4,2,1,35,0,0
62187,-66.6666666666667,4,2,1,35,0,0
62293,-100,4,2,1,35,0,0
63001,-100,4,2,1,35,0,1
81114,-100,4,2,1,35,0,0
85642,-100,4,2,1,35,0,1
99227,-100,4,2,1,35,0,0
108284,377.358490566038,4,2,1,35,1,0
108284,-81.9672131147541,4,2,1,35,0,0

[HitObjects]
448,192,2247,128,0,2317:0:0:0:0:
192,192,2247,128,0,2317:0:0:0:0:
64,192,2247,128,0,2317:0:0:0:0:
320,192,2530,1,0,0:0:0:0:
192,192,2671,1,0,0:0:0:0:
64,192,2671,1,0,0:0:0:0:
192,192,2813,1,0,0:0:0:0:
448,192,2813,1,0,0:0:0:0:
320,192,2883,1,0,0:0:0:0:
448,192,2954,1,0,0:0:0:0:
64,192,3096,1,0,0:0:0:0:
320,192,3096,1,0,0:0:0:0:
192,192,3166,1,0,0:0:0:0:
320,192,3237,1,0,0:0:0:0:
64,192,3379,1,0,0:0:0:0:
448,192,3379,1,0,0:0:0:0:
320,192,3449,1,0,0:0:0:0:
192,192,3520,1,0,0:0:0:0:
448,192,3591,1,0,0:0:0:0:
192,192,3662,1,0,0:0:0:0:
64,192,3803,1,0,0:0:0:0:
320,192,3803,1,0,0:0:0:0:
448,192,3945,1,0,0:0:0:0:
192,192,4015,1,0,0:0:0:0:
448,192,4086,1,0,0:0:0:0:
192,192,4157,1,0,0:0:0:0:
64,192,4228,1,0,0:0:0:0:
320,192,4228,1,0,0:0:0:0:
320,192,4369,1,0,0:0:0:0:
64,192,4440,1,0,0:0:0:0:
448,192,4511,1,0,0:0:0:0:
192,192,4511,1,0,0:0:0:0:
64,192,4652,1,0,0:0:0:0:
192,192,4723,1,0,0:0:0:0:
320,192,4794,1,0,0:0:0:0:
64,192,4864,1,0,0:0:0:0:
448,192,4935,1,0,0:0:0:0:
192,192,4935,1,0,0:0:0:0:
64,192,5077,1,0,0:0:0:0:
320,192,5147,1,0,0:0:0:0:
192,192,5218,1,0,0:0:0:0:
64,192,5289,1,0,0:0:0:0:
448,192,5360,1,0,0:0:0:0:
320,192,5360,1,0,0:0:0:0:
192,192,5501,1,0,0:0:0:0:
320,192,5501,1,0,0:0:0:0:
448,192,5643,1,0,0:0:0:0:
64,192,5713,1,0,0:0:0:0:
448,192,5784,1,0,0:0:0:0:
192,192,5784,1,0,0:0:0:0:
64,192,5855,1,0,0:0:0:0:
320,192,5926,1,0,0:0:0:0:
320,192,6067,1,0,0:0:0:0:
192,192,6067,1,0,0:0:0:0:
448,192,6209,1,0,0:0:0:0:
64,192,6209,1,0,0:0:0:0:
320,192,6280,1,0,0:0:0:0:
448,192,6350,1,0,0:0:0:0:
192,192,6350,1,0,0:0:0:0:
320,192,6492,1,0,0:0:0:0:
64,192,6492,1,0,0:0:0:0:
192,192,6633,1,0,0:0:0:0:
320,192,6633,1,0,0:0:0:0:
448,192,6775,1,0,0:0:0:0:
64,192,6775,1,0,0:0:0:0:
192,192,6916,1,0,0:0:0:0:
320,192,6987,1,0,0:0:0:0:
64,192,7058,1,0,0:0:0:0:
448,192,7058,1,0,0:0:0:0:
192,192,7129,1,0,0:0:0:0:
64,192,7199,1,0,0:0:0:0:
320,192,7199,1,0,0:0:0:0:
448,192,7341,1,0,0:0:0:0:
192,192,7412,1,0,0:0:0:0:
320,192,7482,1,0,0:0:0:0:
192,192,7553,1,0,0:0:0:0:
448,192,7624,1,0,0:0:0:0:
64,192,7624,1,0,0:0:0:0:
320,192,7765,1,0,0:0:0:0:
192,192,7836,1,0,0:0:0:0:
64,192,7907,1,0,0:0:0:0:
448,192,7907,1,0,0:0:0:0:
320,192,7978,1,0,0:0:0:0:
192,192,8048,1,0,0:0:0:0:
64,192,8190,1,0,0:0:0:0:
448,192,8190,1,0,0:0:0:0:
192,192,8261,1,0,0:0:0:0:
64,192,8331,1,0,0:0:0:0:
320,192,8331,1,0,0:0:0:0:
192,192,8402,1,0,0:0:0:0:
320,192,8473,1,0,0:0:0:0:
448,192,8473,1,0,0:0:0:0:
64,192,8614,1,0,0:0:0:0:
192,192,8662,1,0,0:0:0:0:
320,192,8709,1,0,0:0:0:0:
448,192,8756,1,0,0:0:0:0:
64,192,8756,1,0,0:0:0:0:
192,192,8827,1,0,0:0:0:0:
320,192,8897,1,0,0:0:0:0:
64,192,8897,1,0,0:0:0:0:
192,192,9039,128,0,9110:0:0:0:0:
320,192,9039,128,0,9110:0:0:0:0:
448,192,9039,128,0,9110:0:0:0:0:
192,192,9180,128,0,9251:0:0:0:0:
320,192,9180,128,0,9251:0:0:0:0:
448,192,9180,128,0,9251:0:0:0:0:
448,192,9322,1,0,0:0:0:0:
320,192,9393,1,0,0:0:0:0:
192,192,9463,1,0,0:0:0:0:
448,192,9463,1,0,0:0:0:0:
64,192,9605,128,0,9676:0:0:0:0:
192,192,9605,128,0,9676:0:0:0:0:
320,192,9605,128,0,9676:0:0:0:0:
64,192,9746,128,0,9817:0:0:0:0:
192,192,9746,128,0,9817:0:0:0:0:
320,192,9746,128,0,9817:0:0:0:0:
448,192,9888,1,0,0:0:0:0:
320,192,9935,1,0,0:0:0:0:
192,192,9982,1,0,0:0:0:0:
64,192,10030,1,0,0:0:0:0:
448,192,10171,128,0,10242:0:0:0:0:
192,192,10171,128,0,10242:0:0:0:0:
64,192,10171,128,0,10242:0:0:0:0:
320,192,10265,1,0,0:0:0:0:
448,192,10313,1,0,0:0:0:0:
192,192,10313,1,0,0:0:0:0:
320,192,10454,128,0,10525:0:0:0:0:
192,192,10454,128,0,10525:0:0:0:0:
64,192,10454,128,0,10525:0:0:0:0:
320,192,10596,1,0,0:0:0:0:
192,192,10666,1,0,0:0:0:0:
64,192,10737,128,0,10808:0:0:0:0:
320,192,10737,128,0,10808:0:0:0:0:
448,192,10737,128,0,10808:0:0:0:0:
192,192,10808,1,0,0:0:0:0:
320,192,10879,1,0,0:0:0:0:
64,192,11020,128,0,11091:0:0:0:0:
192,192,11020,128,0,11091:0:0:0:0:
320,192,11091,128,0,11162:0:0:0:0:
448,192,11091,128,0,11162:0:0:0:0:
192,192,11162,128,0,11232:0:0:0:0:
64,192,11162,128,0,11232:0:0:0:0:
320,192,11232,128,0,11303:0:0:0:0:
448,192,11303,128,0,11445:0:0:0:0:
192,192,11303,128,0,11374:0:0:0:0:
64,192,11303,128,0,11374:0:0:0:0:
320,192,11586,128,0,11728:0:0:0:0:
64,192,11869,128,0,12011:0:0:0:0:
320,192,12011,128,0,12152:0:0:0:0:
192,192,12294,128,0,12435:0:0:0:0:
64,192,12577,128,0,12718:0:0:0:0:
320,192,12647,128,0,12718:0:0:0:0:
192,192,12718,128,0,12860:0:0:0:0:
64,192,12860,128,0,13001:0:0:0:0:
448,192,13001,128,0,13143:0:0:0:0:
320,192,13143,128,0,13284:0:0:0:0:
192,192,13284,128,0,13426:0:0:0:0:
64,192,13426,128,0,13567:0:0:0:0:
320,192,13567,128,0,13709:0:0:0:0:
448,192,13567,128,0,13638:0:0:0:0:
448,192,13850,128,0,13992:0:0:0:0:
320,192,14133,128,0,14275:0:0:0:0:
64,192,14204,128,0,14275:0:0:0:0:
192,192,14275,128,0,14346:0:0:0:0:
320,192,14416,128,0,14487:0:0:0:0:
448,192,14416,128,0,14487:0:0:0:0:
192,192,14416,128,0,14487:0:0:0:0:
64,192,14487,128,0,14558:0:0:0:0:
192,192,14558,128,0,14770:0:0:0:0:
320,192,14558,128,0,14770:0:0:0:0:
448,192,14558,128,0,14770:0:0:0:0:
64,192,14699,128,0,14770:0:0:0:0:
448,192,14841,128,0,14982:0:0:0:0:
192,192,14841,128,0,14982:0:0:0:0:
64,192,14841,128,0,14982:0:0:0:0:
320,192,14982,1,0,0:0:0:0:
192,192,15053,1,0,0:0:0:0:
320,192,15124,128,0,15336:0:0:0:0:
448,192,15124,128,0,15336:0:0:0:0:
64,192,15124,128,0,15336:0:0:0:0:
192,192,15265,128,0,15336:0:0:0:0:
320,192,15407,128,0,15478:0:0:0:0:
448,192,15407,128,0,15478:0:0:0:0:
192,192,15407,128,0,15478:0:0:0:0:
448,192,15548,128,0,15619:0:0:0:0:
64,192,15548,128,0,15619:0:0:0:0:
320,192,15548,128,0,15619:0:0:0:0:
448,192,15690,128,0,15761:0:0:0:0:
192,192,15690,128,0,15761:0:0:0:0:
64,192,15690,128,0,15761:0:0:0:0:
64,192,15831,128,0,16114:0:0:0:0:
192,192,15831,128,0,15902:0:0:0:0:
320,192,15831,128,0,16044:0:0:0:0:
192,192,15973,128,0,16114:0:0:0:0:
448,192,16114,128,0,16185:0:0:0:0:
320,192,16185,128,0,16397:0:0:0:0:
448,192,16256,128,0,16397:0:0:0:0:
64,192,16397,128,0,16610:0:0:0:0:
192,192,16539,128,0,16610:0:0:0:0:
320,192,16680,128,0,16751:0:0:0:0:
320,192,16822,128,0,16963:0:0:0:0:
192,192,16963,128,0,17034:0:0:0:0:
448,192,17034,128,0,17105:0:0:0:0:
320,192,17105,128,0,17246:0:0:0:0:
64,192,17246,128,0,17459:0:0:0:0:
192,192,17317,128,0,17459:0:0:0:0:
320,192,17388,128,0,17459:0:0:0:0:
448,192,17530,128,0,17600:0:0:0:0:
192,192,17530,128,0,17600:0:0:0:0:
64,192,17530,128,0,17600:0:0:0:0:
320,192,17671,128,0,17813:0:0:0:0:
192,192,17742,128,0,17813:0:0:0:0:
448,192,17813,128,0,18025:0:0:0:0:
64,192,17813,128,0,17954:0:0:0:0:
320,192,17883,128,0,18025:0:0:0:0:
192,192,17954,128,0,18025:0:0:0:0:
64,192,18096,128,0,18166:0:0:0:0:
320,192,18096,128,0,18166:0:0:0:0:
448,192,18096,128,0,18166:0:0:0:0:
192,192,18166,1,0,0:0:0:0:
320,192,18237,1,0,0:0:0:0:
448,192,18237,1,0,0:0:0:0:
64,192,18308,1,0,0:0:0:0:
192,192,18379,1,0,0:0:0:0:
320,192,18379,1,0,0:0:0:0:
448,192,18449,1,0,0:0:0:0:
192,192,18520,1,0,0:0:0:0:
64,192,18520,1,0,0:0:0:0:
320,192,18591,1,0,0:0:0:0:
64,192,18662,1,0,0:0:0:0:
448,192,18662,1,0,0:0:0:0:
320,192,18732,1,0,0:0:0:0:
192,192,18803,1,0,0:0:0:0:
64,192,18803,1,0,0:0:0:0:
448,192,18874,1,0,0:0:0:0:
320,192,18945,1,0,0:0:0:0:
192,192,18945,1,0,0:0:0:0:
64,192,19015,1,0,0:0:0:0:
448,192,19086,1,0,0:0:0:0:
320,192,19121,1,0,0:0:0:0:
192,192,19157,1,0,0:0:0:0:
64,192,19192,1,0,0:0:0:0:
448,192,19228,1,0,0:0:0:0:
320,192,19228,1,0,0:0:0:0:
192,192,19298,1,0,0:0:0:0:
64,192,19298,1,0,0:0:0:0:
320,192,19369,1,0,0:0:0:0:
448,192,19369,1,0,0:0:0:0:
192,192,19440,1,0,0:0:0:0:
64,192,19440,1,0,0:0:0:0:
320,192,19511,1,0,0:0:0:0:
448,192,19511,1,0,0:0:0:0:
64,192,19581,1,0,0:0:0:0:
192,192,19581,1,0,0:0:0:0:
320,192,19652,1,0,0:0:0:0:
448,192,19652,1,0,0:0:0:0:
64,192,19723,1,0,0:0:0:0:
320,192,19794,128,0,19864:0:0:0:0:
448,192,19794,128,0,19864:0:0:0:0:
192,192,19794,128,0,19864:0:0:0:0:
64,192,19864,1,0,0:0:0:0:
192,192,19935,1,0,0:0:0:0:
64,192,20006,128,0,20077:0:0:0:0:
320,192,20006,128,0,20077:0:0:0:0:
448,192,20006,128,0,20077:0:0:0:0:
192,192,20077,1,0,0:0:0:0:
320,192,20147,1,0,0:0:0:0:
448,192,20218,128,0,20289:0:0:0:0:
192,192,20218,128,0,20289:0:0:0:0:
64,192,20218,128,0,20289:0:0:0:0:
192,192,20360,1,0,0:0:0:0:
64,192,20360,1,0,0:0:0:0:
320,192,20360,1,0,0:0:0:0:
448,192,20360,1,0,0:0:0:0:
448,192,20643,128,0,20737:0:0:0:0:
64,192,20643,1,0,0:0:0:0:
320,192,20690,128,0,20784:0:0:0:0:
192,192,20737,128,0,20831:0:0:0:0:
64,192,20784,128,0,20926:0:0:0:0:
448,192,20831,128,0,20926:0:0:0:0:
192,192,20926,128,0,21138:0:0:0:0:
320,192,20961,128,0,21209:0:0:0:0:
192,192,21209,128,0,21280:0:0:0:0:
320,192,21280,128,0,21421:0:0:0:0:
192,192,21350,128,0,21397:0:0:0:0:
448,192,21492,128,0,21680:0:0:0:0:
192,192,21492,128,0,21680:0:0:0:0:
64,192,21492,128,0,21586:0:0:0:0:
320,192,21633,128,0,21728:0:0:0:0:
192,192,21775,128,0,22011:0:0:0:0:
64,192,21775,128,0,21916:0:0:0:0:
320,192,21822,128,0,21963:0:0:0:0:
448,192,21869,128,0,21916:0:0:0:0:
320,192,22058,128,0,22294:0:0:0:0:
448,192,22058,128,0,22129:0:0:0:0:
192,192,22105,128,0,22246:0:0:0:0:
64,192,22152,128,0,22199:0:0:0:0:
448,192,22199,128,0,22246:0:0:0:0:
192,192,22341,128,0,22530:0:0:0:0:
64,192,22341,128,0,22482:0:0:0:0:
320,192,22388,128,0,22459:0:0:0:0:
448,192,22482,128,0,22553:0:0:0:0:
320,192,22530,128,0,22600:0:0:0:0:
64,192,22624,128,0,22836:0:0:0:0:
192,192,22624,128,0,22765:0:0:0:0:
448,192,22695,128,0,22836:0:0:0:0:
320,192,22765,128,0,22907:0:0:0:0:
192,192,22836,128,0,23001:0:0:0:0:
448,192,22907,128,0,22978:0:0:0:0:
64,192,22907,128,0,23072:0:0:0:0:
320,192,22978,128,0,23119:0:0:0:0:
448,192,23048,128,0,23119:0:0:0:0:
64,192,23190,128,0,23331:0:0:0:0:
448,192,23190,128,0,23308:0:0:0:0:
320,192,23261,128,0,23379:0:0:0:0:
192,192,23331,128,0,23520:0:0:0:0:
64,192,23402,128,0,23473:0:0:0:0:
320,192,23473,128,0,23850:0:0:0:0:
448,192,23473,128,0,23685:0:0:0:0:
64,192,23544,128,0,23638:0:0:0:0:
192,192,23614,128,0,23662:0:0:0:0:
64,192,23756,128,0,23968:0:0:0:0:
448,192,23756,128,0,23827:0:0:0:0:
192,192,23756,128,0,23897:0:0:0:0:
192,192,24039,128,0,24110:0:0:0:0:
320,192,24039,128,0,24157:0:0:0:0:
448,192,24039,128,0,24228:0:0:0:0:
64,192,24039,128,0,24086:0:0:0:0:
64,192,24180,128,0,24322:0:0:0:0:
192,192,24180,128,0,24393:0:0:0:0:
320,192,24322,128,0,24463:0:0:0:0:
448,192,24322,128,0,24534:0:0:0:0:
64,192,24393,128,0,24511:0:0:0:0:
192,192,24463,128,0,24558:0:0:0:0:
320,192,24534,128,0,24629:0:0:0:0:
448,192,24605,128,0,24699:0:0:0:0:
64,192,24605,128,0,24841:0:0:0:0:
192,192,24652,128,0,24794:0:0:0:0:
320,192,24699,128,0,24746:0:0:0:0:
192,192,24888,128,0,24959:0:0:0:0:
448,192,24888,128,0,24935:0:0:0:0:
320,192,24935,128,0,25006:0:0:0:0:
192,192,25030,128,0,25100:0:0:0:0:
320,192,25077,128,0,25124:0:0:0:0:
64,192,25171,128,0,25289:0:0:0:0:
192,192,25171,128,0,25336:0:0:0:0:
448,192,25242,128,0,25313:0:0:0:0:
320,192,25313,128,0,25383:0:0:0:0:
192,192,25454,128,0,25525:0:0:0:0:
64,192,25454,128,0,25596:0:0:0:0:
320,192,25454,128,0,25596:0:0:0:0:
64,192,25737,128,0,25879:0:0:0:0:
192,192,25737,128,0,25808:0:0:0:0:
320,192,25737,128,0,25879:0:0:0:0:
64,192,26020,128,0,26327:0:0:0:0:
448,192,26020,128,0,26162:0:0:0:0:
320,192,26020,128,0,26209:0:0:0:0:
192,192,26020,128,0,26091:0:0:0:0:
192,192,26162,128,0,26374:0:0:0:0:
320,192,26303,128,0,26445:0:0:0:0:
448,192,26303,128,0,26397:0:0:0:0:
192,192,26445,128,0,26633:0:0:0:0:
448,192,26515,128,0,26704:0:0:0:0:
64,192,26586,128,0,26680:0:0:0:0:
320,192,26586,128,0,26751:0:0:0:0:
192,192,26728,128,0,26798:0:0:0:0:
64,192,26775,128,0,26846:0:0:0:0:
448,192,26869,128,0,26987:0:0:0:0:
320,192,26869,128,0,27034:0:0:0:0:
192,192,26916,128,0,26987:0:0:0:0:
64,192,27011,128,0,27081:0:0:0:0:
192,192,27058,128,0,27129:0:0:0:0:
448,192,27152,128,0,27364:0:0:0:0:
320,192,27152,128,0,27294:0:0:0:0:
64,192,27223,128,0,27364:0:0:0:0:
192,192,27294,128,0,27435:0:0:0:0:
320,192,27364,128,0,27506:0:0:0:0:
64,192,27435,128,0,27577:0:0:0:0:
448,192,27435,128,0,27600:0:0:0:0:
192,192,27506,128,0,27624:0:0:0:0:
320,192,27577,128,0,27671:0:0:0:0:
64,192,27718,128,0,27907:0:0:0:0:
192,192,27718,128,0,27954:0:0:0:0:
448,192,27789,128,0,27883:0:0:0:0:
320,192,27860,128,0,27930:0:0:0:0:
448,192,28001,128,0,28072:0:0:0:0:
64,192,28001,128,0,28143:0:0:0:0:
192,192,28048,128,0,28190:0:0:0:0:
320,192,28096,128,0,28237:0:0:0:0:
448,192,28143,128,0,28284:0:0:0:0:
192,192,28284,128,0,28496:0:0:0:0:
64,192,28284,128,0,28496:0:0:0:0:
320,192,28426,128,0,28638:0:0:0:0:
448,192,28496,128,0,28709:0:0:0:0:
192,192,28567,128,0,28780:0:0:0:0:
64,192,28567,128,0,28709:0:0:0:0:
320,192,28709,128,0,28850:0:0:0:0:
64,192,28850,128,0,28992:0:0:0:0:
448,192,28850,128,0,28921:0:0:0:0:
192,192,28897,128,0,29015:0:0:0:0:
320,192,28945,128,0,29039:0:0:0:0:
448,192,28992,128,0,29063:0:0:0:0:
448,192,29133,128,0,29275:0:0:0:0:
64,192,29133,128,0,29204:0:0:0:0:
320,192,29180,128,0,29298:0:0:0:0:
192,192,29228,128,0,29322:0:0:0:0:
64,192,29275,128,0,29346:0:0:0:0:
64,192,29416,128,0,29558:0:0:0:0:
192,192,29416,128,0,29487:0:0:0:0:
320,192,29416,128,0,29558:0:0:0:0:
64,192,29841,128,0,29982:0:0:0:0:
320,192,29841,128,0,29912:0:0:0:0:
448,192,29841,128,0,29982:0:0:0:0:
192,192,30265,128,0,30313:0:0:0:0:
320,192,30265,128,0,30336:0:0:0:0:
448,192,30265,128,0,30336:0:0:0:0:
192,192,30407,128,0,30454:0:0:0:0:
320,192,30407,128,0,30478:0:0:0:0:
448,192,30407,128,0,30478:0:0:0:0:
192,192,30549,1,0,0:0:0:0:
448,192,30549,128,0,30737:0:0:0:0:
64,192,30549,128,0,30800:0:0:0:0:
192,192,30737,128,0,30800:0:0:0:0:
320,192,30737,128,0,30989:0:0:0:0:
448,192,30926,128,0,31209:0:0:0:0:
64,192,30926,128,0,30989:0:0:0:0:
192,192,30926,128,0,30989:0:0:0:0:
192,192,31115,1,0,0:0:0:0:
192,192,31209,1,0,0:0:0:0:
448,192,31303,128,0,31586:0:0:0:0:
64,192,31303,128,0,31586:0:0:0:0:
320,192,31303,1,0,0:0:0:0:
192,192,31398,128,0,31492:0:0:0:0:
320,192,31492,128,0,31681:0:0:0:0:
192,192,31586,128,0,31681:0:0:0:0:
448,192,31681,128,0,31964:0:0:0:0:
64,192,31681,128,0,31869:0:0:0:0:
320,192,31775,128,0,31838:0:0:0:0:
192,192,31869,128,0,31932:0:0:0:0:
320,192,31964,128,0,32026:0:0:0:0:
192,192,32058,128,0,32121:0:0:0:0:
64,192,32058,128,0,32152:0:0:0:0:
448,192,32058,1,0,0:0:0:0:
64,192,32247,128,0,32341:0:0:0:0:
192,192,32247,128,0,32310:0:0:0:0:
64,192,32435,128,0,32624:0:0:0:0:
192,192,32435,128,0,32577:0:0:0:0:
320,192,32435,128,0,32530:0:0:0:0:
448,192,32530,1,0,0:0:0:0:
320,192,32624,1,0,0:0:0:0:
192,192,32671,1,0,0:0:0:0:
64,192,32718,1,0,0:0:0:0:
320,192,32813,128,0,32954:0:0:0:0:
448,192,32813,128,0,33001:0:0:0:0:
192,192,32813,128,0,32907:0:0:0:0:
64,192,32907,1,0,0:0:0:0:
192,192,33001,1,0,0:0:0:0:
320,192,33049,1,0,0:0:0:0:
448,192,33096,1,0,0:0:0:0:
320,192,33190,1,0,0:0:0:0:
64,192,33190,128,0,33473:0:0:0:0:
192,192,33284,128,0,33379:0:0:0:0:
448,192,33379,1,0,0:0:0:0:
320,192,33379,128,0,33473:0:0:0:0:
192,192,33473,128,0,33567:0:0:0:0:
320,192,33567,128,0,33709:0:0:0:0:
64,192,33567,128,0,33803:0:0:0:0:
448,192,33567,128,0,33662:0:0:0:0:
192,192,33662,128,0,33756:0:0:0:0:
448,192,33756,1,0,0:0:0:0:
192,192,33850,1,0,0:0:0:0:
64,192,33898,1,0,0:0:0:0:
320,192,33945,128,0,34196:0:0:0:0:
448,192,33945,128,0,34196:0:0:0:0:
192,192,34133,128,0,34196:0:0:0:0:
320,192,34322,1,0,0:0:0:0:
448,192,34322,1,0,0:0:0:0:
64,192,34322,128,0,34558:0:0:0:0:
320,192,34416,1,0,0:0:0:0:
192,192,34511,128,0,34605:0:0:0:0:
320,192,34558,128,0,34652:0:0:0:0:
448,192,34605,128,0,34699:0:0:0:0:
64,192,34699,128,0,34794:0:0:0:0:
192,192,34699,128,0,34794:0:0:0:0:
320,192,34762,128,0,34951:0:0:0:0:
448,192,34825,128,0,34951:0:0:0:0:
64,192,34888,128,0,35171:0:0:0:0:
192,192,34888,128,0,34951:0:0:0:0:
192,192,35077,128,0,35171:0:0:0:0:
320,192,35077,128,0,35140:0:0:0:0:
448,192,35077,128,0,35140:0:0:0:0:
320,192,35265,128,0,35454:0:0:0:0:
192,192,35360,128,0,35423:0:0:0:0:
448,192,35360,128,0,35454:0:0:0:0:
64,192,35360,128,0,35423:0:0:0:0:
192,192,35549,128,0,35737:0:0:0:0:
320,192,35643,128,0,35706:0:0:0:0:
448,192,35643,128,0,35706:0:0:0:0:
64,192,35643,128,0,35737:0:0:0:0:
448,192,35832,128,0,36020:0:0:0:0:
320,192,35926,128,0,36020:0:0:0:0:
192,192,35926,128,0,35989:0:0:0:0:
64,192,35926,128,0,35989:0:0:0:0:
320,192,36209,128,0,36272:0:0:0:0:
448,192,36209,128,0,36272:0:0:0:0:
320,192,36335,128,0,36398:0:0:0:0:
192,192,36335,128,0,36398:0:0:0:0:
192,192,36460,128,0,36523:0:0:0:0:
64,192,36460,128,0,36523:0:0:0:0:
448,192,36586,128,0,36838:0:0:0:0:
64,192,36586,128,0,36712:0:0:0:0:
320,192,36586,128,0,36775:0:0:0:0:
192,192,36775,1,0,0:0:0:0:
192,192,36869,1,0,0:0:0:0:
320,192,36964,128,0,37058:0:0:0:0:
64,192,36964,128,0,37152:0:0:0:0:
320,192,37152,1,0,0:0:0:0:
192,192,37215,1,0,0:0:0:0:
320,192,37278,1,0,0:0:0:0:
64,192,37341,128,0,37593:0:0:0:0:
192,192,37341,128,0,37530:0:0:0:0:
448,192,37341,128,0,37467:0:0:0:0:
320,192,37530,128,0,37718:0:0:0:0:
448,192,37624,128,0,37718:0:0:0:0:
64,192,37718,1,0,0:0:0:0:
192,192,37813,1,0,0:0:0:0:
320,192,37860,1,0,0:0:0:0:
192,192,37907,1,0,0:0:0:0:
320,192,38001,1,0,0:0:0:0:
192,192,38049,1,0,0:0:0:0:
64,192,38096,128,0,38284:0:0:0:0:
320,192,38096,128,0,38221:0:0:0:0:
448,192,38096,128,0,38347:0:0:0:0:
192,192,38284,1,0,0:0:0:0:
320,192,38332,1,0,0:0:0:0:
192,192,38379,1,0,0:0:0:0:
64,192,38473,1,0,0:0:0:0:
448,192,38473,128,0,38662:0:0:0:0:
320,192,38567,128,0,38662:0:0:0:0:
192,192,38756,128,0,39039:0:0:0:0:
448,192,38850,1,0,0:0:0:0:
64,192,38850,128,0,39102:0:0:0:0:
320,192,38850,128,0,38976:0:0:0:0:
448,192,39039,128,0,39228:0:0:0:0:
320,192,39133,128,0,39228:0:0:0:0:
64,192,39228,1,0,0:0:0:0:
192,192,39228,1,0,0:0:0:0:
320,192,39322,1,0,0:0:0:0:
192,192,39369,1,0,0:0:0:0:
320,192,39416,1,0,0:0:0:0:
192,192,39511,1,0,0:0:0:0:
320,192,39558,1,0,0:0:0:0:
192,192,39605,128,0,39699:0:0:0:0:
448,192,39605,128,0,39794:0:0:0:0:
64,192,39605,128,0,39794:0:0:0:0:
320,192,39699,1,0,0:0:0:0:
192,192,39794,1,0,0:0:0:0:
448,192,39888,128,0,40077:0:0:0:0:
320,192,39888,128,0,39982:0:0:0:0:
64,192,39888,128,0,40077:0:0:0:0:
192,192,39982,1,0,0:0:0:0:
320,192,40077,1,0,0:0:0:0:
192,192,40171,128,0,40360:0:0:0:0:
64,192,40171,128,0,40265:0:0:0:0:
448,192,40171,128,0,40360:0:0:0:0:
320,192,40265,1,0,0:0:0:0:
64,192,40360,1,0,0:0:0:0:
320,192,40454,128,0,40643:0:0:0:0:
192,192,40454,128,0,40643:0:0:0:0:
448,192,40454,128,0,40549:0:0:0:0:
64,192,40549,1,0,0:0:0:0:
448,192,40643,1,0,0:0:0:0:
64,192,40737,128,0,40926:0:0:0:0:
320,192,40737,128,0,40926:0:0:0:0:
192,192,40737,128,0,40832:0:0:0:0:
448,192,40832,1,0,0:0:0:0:
192,192,40926,1,0,0:0:0:0:
320,192,41020,1,0,0:0:0:0:
448,192,41115,128,0,41303:0:0:0:0:
192,192,41115,128,0,41209:0:0:0:0:
64,192,41115,128,0,41303:0:0:0:0:
320,192,41209,1,0,0:0:0:0:
192,192,41303,1,0,0:0:0:0:
64,192,41398,128,0,41586:0:0:0:0:
320,192,41398,128,0,41492:0:0:0:0:
448,192,41398,128,0,41586:0:0:0:0:
192,192,41492,1,0,0:0:0:0:
320,192,41586,1,0,0:0:0:0:
64,192,41681,128,0,41775:0:0:0:0:
448,192,41681,128,0,41775:0:0:0:0:
192,192,41681,128,0,41775:0:0:0:0:
448,192,41869,128,0,41964:0:0:0:0:
320,192,41869,128,0,42026:0:0:0:0:
192,192,41869,128,0,42058:0:0:0:0:
64,192,41869,128,0,41995:0:0:0:0:
64,192,42247,128,0,42372:0:0:0:0:
320,192,42310,128,0,42372:0:0:0:0:
192,192,42372,128,0,42498:0:0:0:0:
320,192,42498,128,0,42624:0:0:0:0:
192,192,42624,1,0,0:0:0:0:
64,192,42624,1,0,0:0:0:0:
448,192,42624,128,0,43048:0:0:0:0:
64,192,42765,1,0,0:0:0:0:
64,192,42907,1,0,0:0:0:0:
192,192,42907,1,0,0:0:0:0:
64,192,43048,1,0,0:0:0:0:
448,192,43190,128,0,43378:0:0:0:0:
64,192,43190,128,0,43331:0:0:0:0:
192,192,43260,128,0,43355:0:0:0:0:
320,192,43331,128,0,43402:0:0:0:0:
64,192,43473,128,0,43661:0:0:0:0:
448,192,43473,128,0,43614:0:0:0:0:
320,192,43543,128,0,43638:0:0:0:0:
192,192,43614,128,0,43685:0:0:0:0:
320,192,43756,1,0,0:0:0:0:
448,192,43756,1,0,0:0:0:0:
64,192,43803,128,0,43897:0:0:0:0:
192,192,43850,128,0,43921:0:0:0:0:
320,192,43897,128,0,43968:0:0:0:0:
448,192,44039,1,0,0:0:0:0:
64,192,44039,1,0,0:0:0:0:
192,192,44086,128,0,44180:0:0:0:0:
320,192,44133,128,0,44204:0:0:0:0:
448,192,44180,128,0,44251:0:0:0:0:
192,192,44322,1,0,0:0:0:0:
64,192,44322,1,0,0:0:0:0:
448,192,44369,128,0,44463:0:0:0:0:
320,192,44416,128,0,44487:0:0:0:0:
192,192,44463,128,0,44534:0:0:0:0:
192,192,44605,1,0,0:0:0:0:
64,192,44605,1,0,0:0:0:0:
448,192,44652,128,0,44746:0:0:0:0:
320,192,44699,128,0,44770:0:0:0:0:
192,192,44746,128,0,44817:0:0:0:0:
64,192,44888,128,0,45029:0:0:0:0:
448,192,44888,128,0,44935:0:0:0:0:
320,192,44888,128,0,44982:0:0:0:0:
192,192,45029,1,0,0:0:0:0:
320,192,45171,1,0,0:0:0:0:
448,192,45171,1,0,0:0:0:0:
64,192,45218,128,0,45312:0:0:0:0:
192,192,45265,128,0,45336:0:0:0:0:
320,192,45312,128,0,45383:0:0:0:0:
64,192,45454,128,0,45619:0:0:0:0:
448,192,45454,128,0,45524:0:0:0:0:
192,192,45524,128,0,45642:0:0:0:0:
320,192,45595,128,0,45666:0:0:0:0:
448,192,45737,128,0,45902:0:0:0:0:
64,192,45737,128,0,45878:0:0:0:0:
320,192,45807,128,0,45925:0:0:0:0:
192,192,45878,128,0,45949:0:0:0:0:
64,192,46020,1,0,0:0:0:0:
320,192,46020,1,0,0:0:0:0:
448,192,46020,1,0,0:0:0:0:
448,192,46161,128,0,46303:0:0:0:0:
192,192,46161,1,0,0:0:0:0:
64,192,46303,1,0,0:0:0:0:
192,192,46303,1,0,0:0:0:0:
320,192,46350,128,0,46468:0:0:0:0:
448,192,46397,128,0,46444:0:0:0:0:
192,192,46444,128,0,46515:0:0:0:0:
448,192,46586,1,0,0:0:0:0:
64,192,46586,1,0,0:0:0:0:
320,192,46633,128,0,46727:0:0:0:0:
192,192,46680,128,0,46751:0:0:0:0:
64,192,46727,128,0,46798:0:0:0:0:
448,192,46869,1,0,0:0:0:0:
320,192,46869,1,0,0:0:0:0:
192,192,46916,128,0,47034:0:0:0:0:
64,192,46963,128,0,47010:0:0:0:0:
448,192,47010,128,0,47081:0:0:0:0:
64,192,47152,1,0,0:0:0:0:
320,192,47152,1,0,0:0:0:0:
192,192,47293,128,0,47364:0:0:0:0:
320,192,47340,128,0,47388:0:0:0:0:
448,192,47388,128,0,47435:0:0:0:0:
192,192,47435,128,0,47506:0:0:0:0:
64,192,47435,128,0,47506:0:0:0:0:
64,192,47576,128,0,47647:0:0:0:0:
192,192,47576,128,0,47647:0:0:0:0:
64,192,47718,128,0,47883:0:0:0:0:
448,192,47718,128,0,47789:0:0:0:0:
192,192,47789,128,0,47907:0:0:0:0:
320,192,47859,128,0,47930:0:0:0:0:
320,192,48001,128,0,48190:0:0:0:0:
64,192,48001,1,0,0:0:0:0:
448,192,48001,128,0,48166:0:0:0:0:
192,192,48142,128,0,48213:0:0:0:0:
320,192,48284,1,0,0:0:0:0:
64,192,48284,128,0,48402:0:0:0:0:
192,192,48355,128,0,48425:0:0:0:0:
448,192,48425,128,0,48567:0:0:0:0:
64,192,48567,5,0,0:0:0:0:
192,192,48567,1,0,0:0:0:0:
320,192,48614,128,0,48732:0:0:0:0:
448,192,48661,128,0,48708:0:0:0:0:
192,192,48708,128,0,48779:0:0:0:0:
64,192,48850,1,0,0:0:0:0:
448,192,48850,1,0,0:0:0:0:
192,192,48897,128,0,48991:0:0:0:0:
320,192,48944,128,0,49015:0:0:0:0:
448,192,48991,128,0,49062:0:0:0:0:
448,192,49133,1,0,0:0:0:0:
320,192,49133,1,0,0:0:0:0:
64,192,49180,128,0,49274:0:0:0:0:
192,192,49227,128,0,49298:0:0:0:0:
320,192,49274,128,0,49345:0:0:0:0:
320,192,49416,128,0,49463:0:0:0:0:
448,192,49416,128,0,49487:0:0:0:0:
64,192,49416,128,0,49487:0:0:0:0:
320,192,49557,128,0,49605:0:0:0:0:
448,192,49557,128,0,49628:0:0:0:0:
64,192,49557,128,0,49628:0:0:0:0:
192,192,49699,1,0,0:0:0:0:
64,192,49746,1,0,0:0:0:0:
320,192,49793,1,0,0:0:0:0:
192,192,49840,1,0,0:0:0:0:
448,192,49888,1,0,0:0:0:0:
320,192,49935,1,0,0:0:0:0:
192,192,49982,128,0,50029:0:0:0:0:
64,192,49982,128,0,50053:0:0:0:0:
448,192,49982,128,0,50053:0:0:0:0:
192,192,50123,128,0,50171:0:0:0:0:
64,192,50123,128,0,50194:0:0:0:0:
448,192,50123,128,0,50194:0:0:0:0:
320,192,50265,1,0,0:0:0:0:
448,192,50312,1,0,0:0:0:0:
192,192,50359,1,0,0:0:0:0:
320,192,50407,1,0,0:0:0:0:
64,192,50454,1,0,0:0:0:0:
192,192,50501,1,0,0:0:0:0:
320,192,50548,128,0,50619:0:0:0:0:
448,192,50548,128,0,50595:0:0:0:0:
64,192,50548,128,0,50619:0:0:0:0:
320,192,50690,128,0,50760:0:0:0:0:
448,192,50690,128,0,50737:0:0:0:0:
64,192,50690,128,0,50760:0:0:0:0:
64,192,50831,1,0,0:0:0:0:
192,192,50878,1,0,0:0:0:0:
320,192,50925,1,0,0:0:0:0:
192,192,50973,1,0,0:0:0:0:
320,192,51020,1,0,0:0:0:0:
448,192,51067,1,0,0:0:0:0:
192,192,51114,128,0,51185:0:0:0:0:
64,192,51114,128,0,51161:0:0:0:0:
320,192,51114,128,0,51185:0:0:0:0:
64,192,51256,128,0,51303:0:0:0:0:
192,192,51256,128,0,51326:0:0:0:0:
320,192,51256,128,0,51326:0:0:0:0:
448,192,51397,1,0,0:0:0:0:
320,192,51444,1,0,0:0:0:0:
192,192,51491,1,0,0:0:0:0:
448,192,51539,1,0,0:0:0:0:
320,192,51609,1,0,0:0:0:0:
192,192,51680,1,0,0:0:0:0:
64,192,51680,1,0,0:0:0:0:
320,192,52105,128,0,52246:0:0:0:0:
192,192,52388,128,0,52529:0:0:0:0:
448,192,52529,128,0,52671:0:0:0:0:
192,192,52671,128,0,52812:0:0:0:0:
64,192,52954,128,0,53095:0:0:0:0:
448,192,53237,128,0,53378:0:0:0:0:
192,192,53520,128,0,53661:0:0:0:0:
448,192,53803,128,0,53873:0:0:0:0:
64,192,53944,128,0,54050:0:0:0:0:
448,192,53944,1,0,0:0:0:0:
192,192,53980,128,0,54086:0:0:0:0:
320,192,54015,128,0,54121:0:0:0:0:
448,192,54050,128,0,54298:0:0:0:0:
320,192,54227,128,0,54333:0:0:0:0:
192,192,54263,128,0,54369:0:0:0:0:
64,192,54298,128,0,54404:0:0:0:0:
448,192,54510,128,0,54616:0:0:0:0:
64,192,54510,1,0,0:0:0:0:
320,192,54546,128,0,54652:0:0:0:0:
192,192,54581,128,0,54687:0:0:0:0:
64,192,54616,128,0,54864:0:0:0:0:
192,192,54793,128,0,54899:0:0:0:0:
320,192,54829,128,0,54935:0:0:0:0:
448,192,54864,128,0,54970:0:0:0:0:
192,192,55076,1,0,0:0:0:0:
64,192,55076,1,0,0:0:0:0:
448,192,55112,128,0,55218:0:0:0:0:
320,192,55147,128,0,55253:0:0:0:0:
192,192,55182,128,0,55289:0:0:0:0:
64,192,55218,128,0,55501:0:0:0:0:
320,192,55359,1,0,0:0:0:0:
448,192,55359,1,0,0:0:0:0:
192,192,55430,128,0,55536:0:0:0:0:
320,192,55465,128,0,55572:0:0:0:0:
448,192,55501,128,0,55784:0:0:0:0:
192,192,55642,1,0,0:0:0:0:
64,192,55642,1,0,0:0:0:0:
320,192,55713,128,0,55819:0:0:0:0:
192,192,55748,128,0,55855:0:0:0:0:
64,192,55784,128,0,55890:0:0:0:0:
320,192,55925,128,0,55973:0:0:0:0:
448,192,55925,128,0,55996:0:0:0:0:
320,192,56067,128,0,56114:0:0:0:0:
448,192,56067,128,0,56138:0:0:0:0:
320,192,56208,128,0,56350:0:0:0:0:
192,192,56208,128,0,56279:0:0:0:0:
64,192,56208,128,0,56279:0:0:0:0:
64,192,56491,128,0,56633:0:0:0:0:
192,192,56562,128,0,56633:0:0:0:0:
320,192,56633,128,0,56774:0:0:0:0:
448,192,56916,128,0,57199:0:0:0:0:
64,192,57199,128,0,57293:0:0:0:0:
192,192,57246,128,0,57340:0:0:0:0:
320,192,57293,128,0,57388:0:0:0:0:
448,192,57340,128,0,57482:0:0:0:0:
64,192,57623,128,0,57765:0:0:0:0:
192,192,57694,128,0,57765:0:0:0:0:
448,192,57765,128,0,57977:0:0:0:0:
192,192,57907,128,0,57977:0:0:0:0:
64,192,57907,128,0,57977:0:0:0:0:
320,192,58048,128,0,58260:0:0:0:0:
192,192,58190,128,0,58260:0:0:0:0:
64,192,58190,128,0,58260:0:0:0:0:
192,192,58331,128,0,58473:0:0:0:0:
64,192,58402,128,0,58473:0:0:0:0:
320,192,58473,128,0,58543:0:0:0:0:
448,192,58473,128,0,58543:0:0:0:0:
192,192,58543,1,0,0:0:0:0:
320,192,58614,1,0,0:0:0:0:
448,192,58614,1,0,0:0:0:0:
64,192,58685,1,0,0:0:0:0:
192,192,58756,1,0,0:0:0:0:
320,192,58756,1,0,0:0:0:0:
448,192,58826,1,0,0:0:0:0:
192,192,58897,128,0,58968:0:0:0:0:
64,192,58897,128,0,58968:0:0:0:0:
320,192,58968,1,0,0:0:0:0:
64,192,59039,1,0,0:0:0:0:
448,192,59039,1,0,0:0:0:0:
320,192,59109,1,0,0:0:0:0:
192,192,59180,1,0,0:0:0:0:
64,192,59180,1,0,0:0:0:0:
448,192,59251,1,0,0:0:0:0:
320,192,59322,128,0,59392:0:0:0:0:
192,192,59322,128,0,59392:0:0:0:0:
64,192,59392,1,0,0:0:0:0:
448,192,59463,1,0,0:0:0:0:
320,192,59463,1,0,0:0:0:0:
192,192,59534,1,0,0:0:0:0:
448,192,59605,1,0,0:0:0:0:
320,192,59605,1,0,0:0:0:0:
192,192,59675,1,0,0:0:0:0:
64,192,59675,1,0,0:0:0:0:
320,192,59746,128,0,59817:0:0:0:0:
448,192,59746,128,0,59817:0:0:0:0:
192,192,59817,1,0,0:0:0:0:
64,192,59817,1,0,0:0:0:0:
320,192,59888,1,0,0:0:0:0:
448,192,59888,1,0,0:0:0:0:
64,192,59958,1,0,0:0:0:0:
192,192,59958,1,0,0:0:0:0:
320,192,60029,1,0,0:0:0:0:
448,192,60029,1,0,0:0:0:0:
64,192,60100,1,0,0:0:0:0:
192,192,60171,128,0,60241:0:0:0:0:
320,192,60171,128,0,60241:0:0:0:0:
448,192,60171,128,0,60241:0:0:0:0:
64,192,60241,1,0,0:0:0:0:
192,192,60312,1,0,0:0:0:0:
64,192,60383,128,0,60454:0:0:0:0:
320,192,60383,128,0,60454:0:0:0:0:
448,192,60383,128,0,60454:0:0:0:0:
192,192,60454,1,0,0:0:0:0:
320,192,60524,1,0,0:0:0:0:
448,192,60595,128,0,60666:0:0:0:0:
192,192,60595,128,0,60666:0:0:0:0:
64,192,60595,128,0,60666:0:0:0:0:
192,192,60737,1,0,0:0:0:0:
64,192,60737,1,0,0:0:0:0:
320,192,60737,1,0,0:0:0:0:
448,192,60737,1,0,0:0:0:0:
64,192,61020,1,0,0:0:0:0:
448,192,61020,128,0,61114:0:0:0:0:
320,192,61067,128,0,61161:0:0:0:0:
192,192,61114,128,0,61208:0:0:0:0:
64,192,61161,128,0,61303:0:0:0:0:
448,192,61208,128,0,61303:0:0:0:0:
192,192,61303,128,0,61798:0:0:0:0:
320,192,61338,128,0,61798:0:0:0:0:
64,192,61869,1,0,0:0:0:0:
192,192,61869,1,0,0:0:0:0:
320,192,61869,1,0,0:0:0:0:
448,192,61869,1,0,0:0:0:0:
448,192,62293,128,0,62435:0:0:0:0:
192,192,62293,128,0,62364:0:0:0:0:
64,192,62293,128,0,62364:0:0:0:0:
320,192,62364,128,0,62506:0:0:0:0:
192,192,62435,128,0,62576:0:0:0:0:
448,192,62576,128,0,62647:0:0:0:0:
448,192,62718,128,0,62859:0:0:0:0:
320,192,62859,128,0,63001:0:0:0:0:
64,192,63001,128,0,63142:0:0:0:0:
448,192,63001,128,0,63072:0:0:0:0:
192,192,63024,128,0,63095:0:0:0:0:
448,192,63142,1,0,0:0:0:0:
448,192,63284,128,0,63425:0:0:0:0:
64,192,63284,128,0,63355:0:0:0:0:
320,192,63307,128,0,63378:0:0:0:0:
64,192,63425,1,0,0:0:0:0:
192,192,63496,1,0,0:0:0:0:
320,192,63567,1,0,0:0:0:0:
64,192,63567,128,0,63708:0:0:0:0:
448,192,63567,1,0,0:0:0:0:
192,192,63638,128,0,63756:0:0:0:0:
320,192,63708,128,0,63850:0:0:0:0:
448,192,63708,128,0,63779:0:0:0:0:
64,192,63850,128,0,64062:0:0:0:0:
448,192,63850,128,0,63991:0:0:0:0:
192,192,63850,1,0,0:0:0:0:
320,192,63921,128,0,64039:0:0:0:0:
192,192,63991,128,0,64133:0:0:0:0:
448,192,64133,128,0,64298:0:0:0:0:
64,192,64133,128,0,64204:0:0:0:0:
320,192,64133,128,0,64251:0:0:0:0:
64,192,64274,128,0,64345:0:0:0:0:
192,192,64345,128,0,64416:0:0:0:0:
320,192,64416,128,0,64487:0:0:0:0:
448,192,64416,128,0,64487:0:0:0:0:
64,192,64416,128,0,64628:0:0:0:0:
320,192,64557,128,0,64699:0:0:0:0:
448,192,64699,128,0,64911:0:0:0:0:
192,192,64699,128,0,64770:0:0:0:0:
64,192,64770,128,0,64840:0:0:0:0:
192,192,64840,128,0,64911:0:0:0:0:
64,192,64982,128,0,65194:0:0:0:0:
320,192,64982,128,0,65053:0:0:0:0:
448,192,65006,128,0,65076:0:0:0:0:
320,192,65123,128,0,65194:0:0:0:0:
448,192,65265,128,0,65407:0:0:0:0:
64,192,65265,128,0,65336:0:0:0:0:
320,192,65289,128,0,65359:0:0:0:0:
64,192,65407,1,0,0:0:0:0:
320,192,65477,1,0,0:0:0:0:
64,192,65548,128,0,65690:0:0:0:0:
448,192,65548,128,0,65619:0:0:0:0:
192,192,65572,128,0,65642:0:0:0:0:
448,192,65690,1,0,0:0:0:0:
192,192,65760,1,0,0:0:0:0:
64,192,65831,128,0,66043:0:0:0:0:
320,192,65831,128,0,65902:0:0:0:0:
448,192,65831,128,0,65902:0:0:0:0:
192,192,65902,128,0,66043:0:0:0:0:
320,192,65973,128,0,66185:0:0:0:0:
448,192,65973,128,0,66185:0:0:0:0:
192,192,66114,128,0,66185:0:0:0:0:
64,192,66114,128,0,66185:0:0:0:0:
192,192,66256,128,0,66326:0:0:0:0:
64,192,66256,128,0,66326:0:0:0:0:
448,192,66256,128,0,66326:0:0:0:0:
320,192,66256,128,0,66326:0:0:0:0:
320,192,66397,128,0,66562:0:0:0:0:
192,192,66468,128,0,66562:0:0:0:0:
64,192,66539,128,0,66609:0:0:0:0:
448,192,66539,128,0,66609:0:0:0:0:
192,192,66680,128,0,66845:0:0:0:0:
320,192,66751,128,0,66845:0:0:0:0:
448,192,66822,128,0,66892:0:0:0:0:
64,192,66822,128,0,66892:0:0:0:0:
320,192,66963,128,0,67034:0:0:0:0:
192,192,67010,128,0,67081:0:0:0:0:
64,192,67057,128,0,67128:0:0:0:0:
320,192,67105,1,0,0:0:0:0:
448,192,67105,1,0,0:0:0:0:
320,192,67175,128,0,67246:0:0:0:0:
448,192,67175,128,0,67246:0:0:0:0:
192,192,67246,128,0,67317:0:0:0:0:
64,192,67246,128,0,67317:0:0:0:0:
192,192,67388,128,0,67458:0:0:0:0:
64,192,67388,128,0,67458:0:0:0:0:
320,192,67529,128,0,67694:0:0:0:0:
64,192,67529,128,0,67694:0:0:0:0:
448,192,67529,128,0,67647:0:0:0:0:
192,192,67671,128,0,67741:0:0:0:0:
64,192,67812,128,0,67954:0:0:0:0:
448,192,67812,128,0,67954:0:0:0:0:
192,192,67883,128,0,68024:0:0:0:0:
320,192,67954,128,0,68095:0:0:0:0:
448,192,68024,128,0,68166:0:0:0:0:
192,192,68095,128,0,68307:0:0:0:0:
64,192,68095,128,0,68237:0:0:0:0:
320,192,68237,128,0,68307:0:0:0:0:
64,192,68378,128,0,68520:0:0:0:0:
448,192,68378,128,0,68520:0:0:0:0:
320,192,68378,128,0,68590:0:0:0:0:
192,192,68520,128,0,68590:0:0:0:0:
64,192,68661,128,0,68779:0:0:0:0:
448,192,68661,128,0,68826:0:0:0:0:
192,192,68661,128,0,68826:0:0:0:0:
320,192,68803,128,0,68873:0:0:0:0:
448,192,68944,128,0,69086:0:0:0:0:
64,192,68944,128,0,69086:0:0:0:0:
320,192,69015,128,0,69157:0:0:0:0:
192,192,69086,128,0,69227:0:0:0:0:
64,192,69157,128,0,69298:0:0:0:0:
448,192,69227,128,0,69298:0:0:0:0:
320,192,69227,128,0,69369:0:0:0:0:
192,192,69298,128,0,69440:0:0:0:0:
64,192,69369,128,0,69440:0:0:0:0:
64,192,69510,128,0,69652:0:0:0:0:
320,192,69510,128,0,69652:0:0:0:0:
192,192,69510,128,0,69723:0:0:0:0:
448,192,69652,128,0,69723:0:0:0:0:
192,192,69793,128,0,69958:0:0:0:0:
64,192,69793,128,0,69911:0:0:0:0:
320,192,69793,128,0,70006:0:0:0:0:
448,192,69935,128,0,70006:0:0:0:0:
64,192,70076,128,0,70218:0:0:0:0:
448,192,70076,128,0,70218:0:0:0:0:
192,192,70147,128,0,70289:0:0:0:0:
320,192,70218,128,0,70359:0:0:0:0:
448,192,70289,128,0,70430:0:0:0:0:
64,192,70359,128,0,70430:0:0:0:0:
192,192,70359,128,0,70501:0:0:0:0:
320,192,70430,128,0,70572:0:0:0:0:
448,192,70501,128,0,70572:0:0:0:0:
192,192,70642,128,0,70855:0:0:0:0:
448,192,70642,128,0,70784:0:0:0:0:
64,192,70642,128,0,70784:0:0:0:0:
320,192,70784,128,0,70855:0:0:0:0:
448,192,70925,128,0,71138:0:0:0:0:
320,192,70925,128,0,70996:0:0:0:0:
64,192,70925,128,0,71067:0:0:0:0:
320,192,71067,128,0,71138:0:0:0:0:
192,192,71067,128,0,71138:0:0:0:0:
448,192,71208,1,0,0:0:0:0:
64,192,71208,128,0,71350:0:0:0:0:
192,192,71256,128,0,71373:0:0:0:0:
320,192,71303,128,0,71397:0:0:0:0:
448,192,71350,128,0,71421:0:0:0:0:
64,192,71491,1,0,0:0:0:0:
448,192,71491,128,0,71633:0:0:0:0:
320,192,71539,128,0,71657:0:0:0:0:
192,192,71586,128,0,71680:0:0:0:0:
64,192,71633,128,0,71704:0:0:0:0:
448,192,71774,1,0,0:0:0:0:
320,192,71774,128,0,71869:0:0:0:0:
192,192,71822,128,0,71892:0:0:0:0:
64,192,71869,128,0,71916:0:0:0:0:
448,192,71916,1,0,0:0:0:0:
320,192,71987,1,0,0:0:0:0:
64,192,72057,128,0,72199:0:0:0:0:
448,192,72057,128,0,72128:0:0:0:0:
192,192,72081,128,0,72152:0:0:0:0:
448,192,72199,1,0,0:0:0:0:
448,192,72340,128,0,72482:0:0:0:0:
64,192,72340,128,0,72411:0:0:0:0:
320,192,72364,128,0,72435:0:0:0:0:
64,192,72482,1,0,0:0:0:0:
192,192,72553,1,0,0:0:0:0:
320,192,72623,1,0,0:0:0:0:
64,192,72623,128,0,72765:0:0:0:0:
448,192,72623,1,0,0:0:0:0:
192,192,72694,128,0,72812:0:0:0:0:
448,192,72765,128,0,72836:0:0:0:0:
320,192,72765,128,0,72907:0:0:0:0:
64,192,72907,128,0,73119:0:0:0:0:
192,192,72907,1,0,0:0:0:0:
448,192,72907,128,0,73048:0:0:0:0:
320,192,72977,128,0,73095:0:0:0:0:
192,192,73048,128,0,73190:0:0:0:0:
448,192,73190,128,0,73355:0:0:0:0:
320,192,73190,128,0,73307:0:0:0:0:
64,192,73190,128,0,73260:0:0:0:0:
64,192,73331,128,0,73402:0:0:0:0:
192,192,73402,128,0,73473:0:0:0:0:
320,192,73473,128,0,73543:0:0:0:0:
448,192,73473,128,0,73543:0:0:0:0:
64,192,73473,128,0,73685:0:0:0:0:
320,192,73614,128,0,73756:0:0:0:0:
448,192,73756,128,0,73968:0:0:0:0:
192,192,73756,128,0,73826:0:0:0:0:
64,192,73826,128,0,73897:0:0:0:0:
192,192,73897,128,0,74039:0:0:0:0:
64,192,74039,128,0,74251:0:0:0:0:
320,192,74039,128,0,74109:0:0:0:0:
448,192,74062,128,0,74133:0:0:0:0:
320,192,74180,128,0,74251:0:0:0:0:
448,192,74322,128,0,74463:0:0:0:0:
64,192,74322,128,0,74392:0:0:0:0:
320,192,74345,128,0,74416:0:0:0:0:
64,192,74463,1,0,0:0:0:0:
320,192,74534,1,0,0:0:0:0:
64,192,74605,128,0,74746:0:0:0:0:
448,192,74605,128,0,74675:0:0:0:0:
192,192,74628,128,0,74699:0:0:0:0:
448,192,74746,1,0,0:0:0:0:
192,192,74817,1,0,0:0:0:0:
64,192,74888,128,0,75029:0:0:0:0:
320,192,74888,1,0,0:0:0:0:
448,192,74888,1,0,0:0:0:0:
192,192,74958,128,0,75100:0:0:0:0:
320,192,75029,128,0,75100:0:0:0:0:
448,192,75029,128,0,75100:0:0:0:0:
64,192,75171,1,0,0:0:0:0:
192,192,75206,1,0,0:0:0:0:
320,192,75241,1,0,0:0:0:0:
448,192,75312,128,0,75454:0:0:0:0:
192,192,75312,128,0,75383:0:0:0:0:
64,192,75312,128,0,75454:0:0:0:0:
320,192,75595,128,0,75666:0:0:0:0:
448,192,75595,128,0,75737:0:0:0:0:
64,192,75595,128,0,75737:0:0:0:0:
448,192,75878,128,0,76020:0:0:0:0:
192,192,75878,128,0,76020:0:0:0:0:
64,192,75878,128,0,75949:0:0:0:0:
64,192,76161,128,0,76232:0:0:0:0:
192,192,76161,128,0,76232:0:0:0:0:
448,192,76161,128,0,76232:0:0:0:0:
320,192,76232,128,0,76303:0:0:0:0:
64,192,76303,128,0,76373:0:0:0:0:
448,192,76303,128,0,76373:0:0:0:0:
192,192,76303,128,0,76373:0:0:0:0:
64,192,76444,128,0,76515:0:0:0:0:
192,192,76444,128,0,76515:0:0:0:0:
320,192,76444,128,0,76515:0:0:0:0:
320,192,76586,128,0,76751:0:0:0:0:
448,192,76586,128,0,76704:0:0:0:0:
64,192,76586,128,0,76798:0:0:0:0:
192,192,76727,128,0,76798:0:0:0:0:
64,192,76869,128,0,77010:0:0:0:0:
448,192,76869,1,0,0:0:0:0:
320,192,76869,1,0,0:0:0:0:
192,192,76940,128,0,77081:0:0:0:0:
320,192,77010,128,0,77223:0:0:0:0:
448,192,77010,128,0,77152:0:0:0:0:
192,192,77152,128,0,77364:0:0:0:0:
64,192,77152,128,0,77364:0:0:0:0:
320,192,77293,128,0,77364:0:0:0:0:
448,192,77435,128,0,77576:0:0:0:0:
64,192,77435,128,0,77506:0:0:0:0:
320,192,77482,128,0,77600:0:0:0:0:
192,192,77529,128,0,77623:0:0:0:0:
64,192,77576,128,0,77647:0:0:0:0:
64,192,77718,128,0,77883:0:0:0:0:
320,192,77718,128,0,77789:0:0:0:0:
448,192,77718,128,0,77789:0:0:0:0:
192,192,77789,128,0,77930:0:0:0:0:
320,192,77859,128,0,77930:0:0:0:0:
64,192,78001,1,0,0:0:0:0:
448,192,78001,128,0,78142:0:0:0:0:
192,192,78001,1,0,0:0:0:0:
320,192,78072,128,0,78213:0:0:0:0:
64,192,78142,128,0,78213:0:0:0:0:
192,192,78213,128,0,78284:0:0:0:0:
448,192,78284,128,0,78496:0:0:0:0:
320,192,78284,128,0,78425:0:0:0:0:
64,192,78284,128,0,78355:0:0:0:0:
192,192,78425,128,0,78496:0:0:0:0:
320,192,78496,128,0,78567:0:0:0:0:
192,192,78567,128,0,78708:0:0:0:0:
64,192,78567,128,0,78708:0:0:0:0:
320,192,78638,128,0,78756:0:0:0:0:
448,192,78708,128,0,78826:0:0:0:0:
192,192,78850,128,0,78921:0:0:0:0:
64,192,78850,128,0,78921:0:0:0:0:
448,192,78921,1,0,0:0:0:0:
192,192,78991,128,0,79062:0:0:0:0:
320,192,78991,128,0,79062:0:0:0:0:
64,192,79062,1,0,0:0:0:0:
320,192,79133,128,0,79204:0:0:0:0:
448,192,79133,128,0,79204:0:0:0:0:
192,192,79204,1,0,0:0:0:0:
320,192,79274,128,0,79345:0:0:0:0:
64,192,79274,128,0,79345:0:0:0:0:
192,192,79345,1,0,0:0:0:0:
64,192,79416,1,0,0:0:0:0:
448,192,79416,1,0,0:0:0:0:
320,192,79487,1,0,0:0:0:0:
192,192,79557,128,0,79628:0:0:0:0:
448,192,79557,128,0,79628:0:0:0:0:
320,192,79628,1,0,0:0:0:0:
192,192,79699,1,0,0:0:0:0:
64,192,79699,1,0,0:0:0:0:
448,192,79770,1,0,0:0:0:0:
320,192,79840,128,0,79958:0:0:0:0:
192,192,79840,128,0,80006:0:0:0:0:
64,192,79840,128,0,80053:0:0:0:0:
448,192,80123,128,0,80289:0:0:0:0:
320,192,80194,128,0,80289:0:0:0:0:
192,192,80265,128,0,80336:0:0:0:0:
64,192,80265,128,0,80336:0:0:0:0:
192,192,80407,128,0,80572:0:0:0:0:
320,192,80477,128,0,80572:0:0:0:0:
448,192,80548,128,0,80619:0:0:0:0:
64,192,80548,128,0,80619:0:0:0:0:
192,192,80690,128,0,80760:0:0:0:0:
320,192,80690,128,0,80760:0:0:0:0:
448,192,80760,128,0,80831:0:0:0:0:
64,192,80760,128,0,80831:0:0:0:0:
192,192,80831,128,0,80902:0:0:0:0:
320,192,80831,128,0,80902:0:0:0:0:
448,192,80973,128,0,81043:0:0:0:0:
64,192,80973,128,0,81043:0:0:0:0:
192,192,80973,128,0,81043:0:0:0:0:
448,192,81114,1,0,0:0:0:0:
64,192,81114,1,0,0:0:0:0:
320,192,81114,1,0,0:0:0:0:
320,192,81397,1,0,0:0:0:0:
64,192,81680,1,0,0:0:0:0:
320,192,81751,1,0,0:0:0:0:
192,192,81822,1,0,0:0:0:0:
192,192,82105,1,0,0:0:0:0:
192,192,82388,1,0,0:0:0:0:
320,192,82458,1,0,0:0:0:0:
192,192,82529,128,0,82600:0:0:0:0:
64,192,82671,128,0,82741:0:0:0:0:
448,192,82812,128,0,82883:0:0:0:0:
192,192,82883,128,0,82954:0:0:0:0:
320,192,82954,128,0,83095:0:0:0:0:
192,192,83095,128,0,83237:0:0:0:0:
64,192,83237,128,0,83378:0:0:0:0:
448,192,83378,128,0,83520:0:0:0:0:
192,192,83661,128,0,83803:0:0:0:0:
320,192,83944,128,0,84086:0:0:0:0:
192,192,84015,128,0,84086:0:0:0:0:
448,192,84086,128,0,84227:0:0:0:0:
320,192,84227,128,0,84298:0:0:0:0:
192,192,84227,128,0,84298:0:0:0:0:
64,192,84227,128,0,84298:0:0:0:0:
448,192,84369,128,0,84510:0:0:0:0:
320,192,84386,128,0,84510:0:0:0:0:
192,192,84422,128,0,84510:0:0:0:0:
448,192,84652,128,0,84793:0:0:0:0:
192,192,84669,128,0,84793:0:0:0:0:
64,192,84705,128,0,84793:0:0:0:0:
320,192,84935,128,0,85076:0:0:0:0:
192,192,84953,128,0,85076:0:0:0:0:
64,192,84988,128,0,85076:0:0:0:0:
64,192,85218,1,0,0:0:0:0:
192,192,85218,1,0,0:0:0:0:
448,192,85218,1,0,0:0:0:0:
320,192,85289,128,0,85359:0:0:0:0:
192,192,85359,128,0,85430:0:0:0:0:
192,192,85501,128,0,85572:0:0:0:0:
320,192,85642,128,0,85807:0:0:0:0:
448,192,85642,128,0,85760:0:0:0:0:
64,192,85642,128,0,85807:0:0:0:0:
192,192,85784,128,0,85855:0:0:0:0:
64,192,85925,128,0,86067:0:0:0:0:
448,192,85925,128,0,86067:0:0:0:0:
192,192,85996,128,0,86138:0:0:0:0:
320,192,86067,128,0,86208:0:0:0:0:
448,192,86138,128,0,86279:0:0:0:0:
192,192,86208,128,0,86421:0:0:0:0:
64,192,86208,128,0,86350:0:0:0:0:
320,192,86350,128,0,86421:0:0:0:0:
320,192,86491,128,0,86704:0:0:0:0:
448,192,86491,128,0,86633:0:0:0:0:
64,192,86491,128,0,86633:0:0:0:0:
192,192,86633,128,0,86704:0:0:0:0:
192,192,86774,128,0,86940:0:0:0:0:
64,192,86774,128,0,86892:0:0:0:0:
448,192,86774,128,0,86940:0:0:0:0:
320,192,86916,128,0,86987:0:0:0:0:
448,192,87057,128,0,87199:0:0:0:0:
64,192,87057,128,0,87199:0:0:0:0:
320,192,87128,128,0,87270:0:0:0:0:
192,192,87199,128,0,87340:0:0:0:0:
64,192,87270,128,0,87411:0:0:0:0:
448,192,87340,128,0,87411:0:0:0:0:
320,192,87340,128,0,87482:0:0:0:0:
192,192,87411,128,0,87553:0:0:0:0:
64,192,87482,128,0,87553:0:0:0:0:
192,192,87623,128,0,87836:0:0:0:0:
64,192,87623,128,0,87765:0:0:0:0:
320,192,87623,128,0,87765:0:0:0:0:
448,192,87765,128,0,87836:0:0:0:0:
320,192,87907,128,0,88119:0:0:0:0:
192,192,87907,128,0,88072:0:0:0:0:
64,192,87907,128,0,88024:0:0:0:0:
448,192,88048,128,0,88119:0:0:0:0:
64,192,88190,128,0,88331:0:0:0:0:
448,192,88190,128,0,88331:0:0:0:0:
192,192,88260,128,0,88402:0:0:0:0:
320,192,88331,128,0,88473:0:0:0:0:
448,192,88402,128,0,88543:0:0:0:0:
64,192,88473,128,0,88543:0:0:0:0:
192,192,88473,128,0,88614:0:0:0:0:
320,192,88543,128,0,88685:0:0:0:0:
448,192,88614,128,0,88685:0:0:0:0:
192,192,88756,128,0,88968:0:0:0:0:
448,192,88756,128,0,88897:0:0:0:0:
64,192,88756,128,0,88897:0:0:0:0:
320,192,88897,128,0,88968:0:0:0:0:
448,192,89039,128,0,89251:0:0:0:0:
320,192,89039,128,0,89109:0:0:0:0:
64,192,89039,128,0,89109:0:0:0:0:
320,192,89180,128,0,89251:0:0:0:0:
192,192,89180,128,0,89251:0:0:0:0:
64,192,89322,128,0,89463:0:0:0:0:
448,192,89322,1,0,0:0:0:0:
192,192,89369,128,0,89487:0:0:0:0:
320,192,89416,128,0,89510:0:0:0:0:
448,192,89463,128,0,89534:0:0:0:0:
64,192,89605,1,0,0:0:0:0:
448,192,89605,128,0,89746:0:0:0:0:
320,192,89652,128,0,89770:0:0:0:0:
192,192,89699,128,0,89793:0:0:0:0:
64,192,89746,128,0,89817:0:0:0:0:
320,192,89888,128,0,89982:0:0:0:0:
448,192,89888,1,0,0:0:0:0:
192,192,89935,128,0,90006:0:0:0:0:
64,192,89982,128,0,90029:0:0:0:0:
448,192,90029,1,0,0:0:0:0:
320,192,90100,1,0,0:0:0:0:
64,192,90171,128,0,90312:0:0:0:0:
448,192,90171,128,0,90241:0:0:0:0:
192,192,90194,128,0,90265:0:0:0:0:
448,192,90312,1,0,0:0:0:0:
448,192,90454,128,0,90595:0:0:0:0:
64,192,90454,128,0,90524:0:0:0:0:
320,192,90477,128,0,90548:0:0:0:0:
64,192,90595,1,0,0:0:0:0:
192,192,90666,1,0,0:0:0:0:
320,192,90737,1,0,0:0:0:0:
64,192,90737,128,0,90878:0:0:0:0:
448,192,90737,1,0,0:0:0:0:
192,192,90807,128,0,90925:0:0:0:0:
320,192,90878,128,0,90949:0:0:0:0:
448,192,90878,128,0,90949:0:0:0:0:
64,192,91020,128,0,91232:0:0:0:0:
192,192,91020,1,0,0:0:0:0:
448,192,91020,128,0,91161:0:0:0:0:
320,192,91090,128,0,91208:0:0:0:0:
192,192,91161,128,0,91232:0:0:0:0:
320,192,91303,128,0,91444:0:0:0:0:
448,192,91303,128,0,91444:0:0:0:0:
192,192,91303,128,0,91373:0:0:0:0:
64,192,91444,128,0,91515:0:0:0:0:
192,192,91515,128,0,91586:0:0:0:0:
320,192,91586,128,0,91657:0:0:0:0:
448,192,91586,128,0,91657:0:0:0:0:
64,192,91586,128,0,91798:0:0:0:0:
320,192,91727,128,0,91869:0:0:0:0:
448,192,91869,128,0,92081:0:0:0:0:
192,192,91869,128,0,91940:0:0:0:0:
64,192,91940,128,0,92010:0:0:0:0:
192,192,92010,128,0,92152:0:0:0:0:
64,192,92152,128,0,92364:0:0:0:0:
320,192,92152,128,0,92223:0:0:0:0:
448,192,92175,128,0,92246:0:0:0:0:
320,192,92293,128,0,92364:0:0:0:0:
448,192,92435,128,0,92576:0:0:0:0:
64,192,92435,128,0,92506:0:0:0:0:
320,192,92458,128,0,92529:0:0:0:0:
64,192,92576,1,0,0:0:0:0:
320,192,92647,1,0,0:0:0:0:
64,192,92718,128,0,92859:0:0:0:0:
448,192,92718,128,0,92789:0:0:0:0:
192,192,92741,128,0,92812:0:0:0:0:
448,192,92859,1,0,0:0:0:0:
192,192,92930,1,0,0:0:0:0:
64,192,93001,128,0,93142:0:0:0:0:
320,192,93001,1,0,0:0:0:0:
448,192,93001,1,0,0:0:0:0:
192,192,93072,128,0,93213:0:0:0:0:
320,192,93142,128,0,93213:0:0:0:0:
448,192,93142,128,0,93213:0:0:0:0:
64,192,93284,1,0,0:0:0:0:
192,192,93319,1,0,0:0:0:0:
320,192,93355,1,0,0:0:0:0:
192,192,93425,128,0,93496:0:0:0:0:
64,192,93425,128,0,93567:0:0:0:0:
448,192,93425,128,0,93567:0:0:0:0:
320,192,93708,128,0,93779:0:0:0:0:
448,192,93708,128,0,93850:0:0:0:0:
64,192,93708,128,0,93850:0:0:0:0:
448,192,93991,128,0,94133:0:0:0:0:
192,192,93991,128,0,94133:0:0:0:0:
64,192,93991,128,0,94062:0:0:0:0:
64,192,94274,128,0,94345:0:0:0:0:
448,192,94274,128,0,94345:0:0:0:0:
192,192,94274,128,0,94345:0:0:0:0:
320,192,94345,128,0,94416:0:0:0:0:
64,192,94416,128,0,94487:0:0:0:0:
192,192,94416,128,0,94487:0:0:0:0:
448,192,94416,128,0,94487:0:0:0:0:
192,192,94557,128,0,94628:0:0:0:0:
320,192,94557,128,0,94628:0:0:0:0:
64,192,94557,128,0,94628:0:0:0:0:
320,192,94699,128,0,94864:0:0:0:0:
448,192,94699,128,0,94817:0:0:0:0:
64,192,94699,128,0,94864:0:0:0:0:
192,192,94840,128,0,94911:0:0:0:0:
64,192,94982,128,0,95123:0:0:0:0:
320,192,94982,128,0,95053:0:0:0:0:
448,192,94982,128,0,95053:0:0:0:0:
192,192,95053,128,0,95194:0:0:0:0:
320,192,95123,128,0,95336:0:0:0:0:
448,192,95123,128,0,95265:0:0:0:0:
192,192,95265,128,0,95477:0:0:0:0:
64,192,95265,128,0,95477:0:0:0:0:
320,192,95407,128,0,95477:0:0:0:0:
64,192,95548,128,0,95619:0:0:0:0:
448,192,95548,128,0,95690:0:0:0:0:
320,192,95595,128,0,95713:0:0:0:0:
192,192,95642,128,0,95737:0:0:0:0:
64,192,95690,128,0,95760:0:0:0:0:
448,192,95831,128,0,95902:0:0:0:0:
320,192,95831,128,0,95902:0:0:0:0:
64,192,95831,128,0,95973:0:0:0:0:
192,192,95902,128,0,96043:0:0:0:0:
320,192,95973,128,0,96043:0:0:0:0:
448,192,96114,128,0,96256:0:0:0:0:
192,192,96114,1,0,0:0:0:0:
64,192,96114,1,0,0:0:0:0:
320,192,96185,128,0,96326:0:0:0:0:
64,192,96256,128,0,96326:0:0:0:0:
192,192,96326,128,0,96397:0:0:0:0:
320,192,96397,128,0,96539:0:0:0:0:
448,192,96397,128,0,96609:0:0:0:0:
64,192,96397,128,0,96468:0:0:0:0:
192,192,96539,128,0,96609:0:0:0:0:
320,192,96609,128,0,96680:0:0:0:0:
192,192,96680,128,0,96892:0:0:0:0:
64,192,96680,128,0,96892:0:0:0:0:
320,192,96751,128,0,96822:0:0:0:0:
448,192,96822,128,0,96892:0:0:0:0:
192,192,96963,128,0,97034:0:0:0:0:
64,192,96963,128,0,97034:0:0:0:0:
448,192,97034,1,0,0:0:0:0:
320,192,97105,128,0,97175:0:0:0:0:
192,192,97105,128,0,97175:0:0:0:0:
64,192,97175,1,0,0:0:0:0:
320,192,97246,128,0,97317:0:0:0:0:
448,192,97246,128,0,97317:0:0:0:0:
192,192,97317,1,0,0:0:0:0:
320,192,97388,128,0,97458:0:0:0:0:
64,192,97388,128,0,97458:0:0:0:0:
192,192,97458,1,0,0:0:0:0:
64,192,97529,1,0,0:0:0:0:
448,192,97529,1,0,0:0:0:0:
320,192,97600,1,0,0:0:0:0:
192,192,97671,128,0,97741:0:0:0:0:
448,192,97671,128,0,97741:0:0:0:0:
320,192,97741,1,0,0:0:0:0:
192,192,97812,1,0,0:0:0:0:
64,192,97812,1,0,0:0:0:0:
448,192,97883,1,0,0:0:0:0:
320,192,97954,128,0,98237:0:0:0:0:
192,192,97954,128,0,98307:0:0:0:0:
64,192,97954,128,0,98307:0:0:0:0:
448,192,98237,128,0,98402:0:0:0:0:
320,192,98307,128,0,98402:0:0:0:0:
192,192,98378,128,0,98449:0:0:0:0:
64,192,98378,128,0,98449:0:0:0:0:
192,192,98520,128,0,98685:0:0:0:0:
320,192,98590,128,0,98685:0:0:0:0:
448,192,98661,128,0,98732:0:0:0:0:
64,192,98661,128,0,98732:0:0:0:0:
192,192,98803,128,0,98873:0:0:0:0:
320,192,98803,128,0,98873:0:0:0:0:
448,192,98873,128,0,98944:0:0:0:0:
64,192,98873,128,0,98944:0:0:0:0:
192,192,98944,128,0,99015:0:0:0:0:
320,192,98944,128,0,99015:0:0:0:0:
192,192,99086,128,0,99157:0:0:0:0:
64,192,99086,128,0,99157:0:0:0:0:
448,192,99086,128,0,99157:0:0:0:0:
448,192,99227,128,0,99416:0:0:0:0:
192,192,99227,128,0,99416:0:0:0:0:
64,192,99227,128,0,99322:0:0:0:0:
320,192,99369,128,0,99463:0:0:0:0:
64,192,99510,128,0,99581:0:0:0:0:
192,192,99510,128,0,99652:0:0:0:0:
320,192,99557,128,0,99699:0:0:0:0:
448,192,99605,128,0,99652:0:0:0:0:
64,192,99652,128,0,99793:0:0:0:0:
192,192,99723,128,0,99793:0:0:0:0:
320,192,99793,128,0,100029:0:0:0:0:
448,192,99793,128,0,99958:0:0:0:0:
192,192,99840,128,0,99982:0:0:0:0:
64,192,99888,128,0,99935:0:0:0:0:
192,192,100076,128,0,100265:0:0:0:0:
64,192,100076,128,0,100218:0:0:0:0:
320,192,100123,128,0,100194:0:0:0:0:
448,192,100218,128,0,100289:0:0:0:0:
320,192,100265,128,0,100336:0:0:0:0:
64,192,100359,128,0,100572:0:0:0:0:
192,192,100359,128,0,100501:0:0:0:0:
448,192,100430,128,0,100572:0:0:0:0:
320,192,100501,128,0,100642:0:0:0:0:
192,192,100572,128,0,100737:0:0:0:0:
448,192,100642,128,0,100713:0:0:0:0:
64,192,100642,128,0,100807:0:0:0:0:
320,192,100713,128,0,100831:0:0:0:0:
448,192,100784,128,0,100855:0:0:0:0:
64,192,100925,128,0,101067:0:0:0:0:
448,192,100925,128,0,101043:0:0:0:0:
320,192,100996,128,0,101114:0:0:0:0:
192,192,101067,128,0,101256:0:0:0:0:
64,192,101138,128,0,101208:0:0:0:0:
320,192,101208,128,0,101586:0:0:0:0:
448,192,101208,128,0,101421:0:0:0:0:
64,192,101279,128,0,101373:0:0:0:0:
192,192,101350,128,0,101397:0:0:0:0:
64,192,101491,128,0,101704:0:0:0:0:
448,192,101491,128,0,101562:0:0:0:0:
192,192,101491,128,0,101633:0:0:0:0:
192,192,101774,128,0,101845:0:0:0:0:
320,192,101774,128,0,101892:0:0:0:0:
448,192,101774,128,0,101963:0:0:0:0:
64,192,101774,128,0,101822:0:0:0:0:
64,192,101916,128,0,102057:0:0:0:0:
192,192,101916,128,0,102128:0:0:0:0:
320,192,102057,128,0,102199:0:0:0:0:
448,192,102057,128,0,102270:0:0:0:0:
64,192,102128,128,0,102246:0:0:0:0:
192,192,102199,128,0,102293:0:0:0:0:
320,192,102270,128,0,102364:0:0:0:0:
448,192,102340,128,0,102435:0:0:0:0:
64,192,102340,128,0,102576:0:0:0:0:
192,192,102388,128,0,102529:0:0:0:0:
320,192,102435,128,0,102482:0:0:0:0:
192,192,102623,128,0,102694:0:0:0:0:
448,192,102623,128,0,102671:0:0:0:0:
320,192,102671,128,0,102741:0:0:0:0:
192,192,102765,128,0,102836:0:0:0:0:
320,192,102812,128,0,102859:0:0:0:0:
64,192,102907,128,0,103024:0:0:0:0:
192,192,102907,128,0,103072:0:0:0:0:
448,192,102977,128,0,103048:0:0:0:0:
320,192,103048,128,0,103119:0:0:0:0:
192,192,103190,128,0,103260:0:0:0:0:
64,192,103190,128,0,103331:0:0:0:0:
320,192,103190,128,0,103331:0:0:0:0:
64,192,103473,128,0,103614:0:0:0:0:
192,192,103473,128,0,103543:0:0:0:0:
320,192,103473,128,0,103614:0:0:0:0:
64,192,103897,128,0,104062:0:0:0:0:
192,192,103897,128,0,104109:0:0:0:0:
320,192,104039,128,0,104180:0:0:0:0:
448,192,104039,128,0,104133:0:0:0:0:
192,192,104180,128,0,104369:0:0:0:0:
448,192,104251,128,0,104440:0:0:0:0:
64,192,104322,128,0,104416:0:0:0:0:
320,192,104322,128,0,104487:0:0:0:0:
192,192,104463,128,0,104534:0:0:0:0:
64,192,104510,128,0,104581:0:0:0:0:
448,192,104605,128,0,104723:0:0:0:0:
320,192,104605,128,0,104770:0:0:0:0:
192,192,104652,128,0,104723:0:0:0:0:
64,192,104746,128,0,104817:0:0:0:0:
192,192,104793,128,0,104864:0:0:0:0:
448,192,104888,128,0,105100:0:0:0:0:
320,192,104888,128,0,105029:0:0:0:0:
64,192,104958,128,0,105100:0:0:0:0:
192,192,105029,128,0,105171:0:0:0:0:
320,192,105100,128,0,105241:0:0:0:0:
64,192,105171,128,0,105312:0:0:0:0:
448,192,105171,128,0,105336:0:0:0:0:
192,192,105241,128,0,105359:0:0:0:0:
320,192,105312,128,0,105407:0:0:0:0:
64,192,105454,128,0,105642:0:0:0:0:
192,192,105454,128,0,105690:0:0:0:0:
448,192,105524,128,0,105619:0:0:0:0:
320,192,105595,128,0,105666:0:0:0:0:
448,192,105737,128,0,105807:0:0:0:0:
64,192,105737,128,0,105878:0:0:0:0:
192,192,105784,128,0,105925:0:0:0:0:
320,192,105831,128,0,105973:0:0:0:0:
448,192,105878,128,0,106020:0:0:0:0:
192,192,106020,128,0,106232:0:0:0:0:
64,192,106020,128,0,106232:0:0:0:0:
320,192,106161,128,0,106373:0:0:0:0:
448,192,106232,128,0,106444:0:0:0:0:
192,192,106303,128,0,106515:0:0:0:0:
64,192,106303,128,0,106444:0:0:0:0:
320,192,106444,128,0,106586:0:0:0:0:
64,192,106586,128,0,106727:0:0:0:0:
448,192,106586,128,0,106657:0:0:0:0:
192,192,106633,128,0,106751:0:0:0:0:
320,192,106680,128,0,106774:0:0:0:0:
448,192,106727,128,0,106798:0:0:0:0:
448,192,106869,128,0,107010:0:0:0:0:
64,192,106869,128,0,106940:0:0:0:0:
320,192,106916,128,0,107034:0:0:0:0:
192,192,106963,128,0,107057:0:0:0:0:
64,192,107010,128,0,107081:0:0:0:0:
64,192,107152,128,0,107293:0:0:0:0:
192,192,107152,128,0,107223:0:0:0:0:
320,192,107152,128,0,107293:0:0:0:0:
64,192,107576,128,0,107718:0:0:0:0:
320,192,107576,128,0,107647:0:0:0:0:
448,192,107576,128,0,107718:0:0:0:0:
192,192,108001,128,0,108048:0:0:0:0:
320,192,108001,128,0,108072:0:0:0:0:
448,192,108001,128,0,108072:0:0:0:0:
192,192,108142,128,0,108190:0:0:0:0:
320,192,108142,128,0,108213:0:0:0:0:
448,192,108142,128,0,108213:0:0:0:0:
192,192,108284,1,0,0:0:0:0:
448,192,108284,128,0,108472:0:0:0:0:
64,192,108284,128,0,108535:0:0:0:0:
192,192,108472,128,0,108535:0:0:0:0:
320,192,108472,128,0,108724:0:0:0:0:
448,192,108661,128,0,108944:0:0:0:0:
64,192,108661,128,0,108724:0:0:0:0:
192,192,108661,128,0,108724:0:0:0:0:
192,192,108850,1,0,0:0:0:0:
192,192,108944,1,0,0:0:0:0:
448,192,109038,128,0,109321:0:0:0:0:
64,192,109038,128,0,109321:0:0:0:0:
320,192,109038,1,0,0:0:0:0:
192,192,109133,128,0,109227:0:0:0:0:
320,192,109227,128,0,109416:0:0:0:0:
192,192,109321,128,0,109416:0:0:0:0:
448,192,109416,128,0,109699:0:0:0:0:
64,192,109416,128,0,109604:0:0:0:0:
320,192,109510,128,0,109573:0:0:0:0:
192,192,109604,128,0,109667:0:0:0:0:
320,192,109699,128,0,109761:0:0:0:0:
192,192,109793,128,0,109856:0:0:0:0:
64,192,109793,128,0,109887:0:0:0:0:
448,192,109793,1,0,0:0:0:0:
64,192,109982,128,0,110076:0:0:0:0:
192,192,109982,128,0,110045:0:0:0:0:
64,192,110170,128,0,110359:0:0:0:0:
192,192,110170,128,0,110312:0:0:0:0:
320,192,110170,128,0,110265:0:0:0:0:
448,192,110265,1,0,0:0:0:0:
320,192,110359,1,0,0:0:0:0:
192,192,110406,1,0,0:0:0:0:
64,192,110453,1,0,0:0:0:0:
320,192,110548,128,0,110689:0:0:0:0:
448,192,110548,128,0,110736:0:0:0:0:
192,192,110548,128,0,110642:0:0:0:0:
64,192,110642,1,0,0:0:0:0:
192,192,110736,1,0,0:0:0:0:
320,192,110784,1,0,0:0:0:0:
448,192,110831,1,0,0:0:0:0:
448,192,110925,128,0,111114:0:0:0:0:
320,192,110925,128,0,111114:0:0:0:0:
192,192,111114,1,0,0:0:0:0:
64,192,111114,1,0,0:0:0:0:
192,192,111208,1,0,0:0:0:0:
64,192,111208,1,0,0:0:0:0:
192,192,111302,128,0,111397:0:0:0:0:
64,192,111302,128,0,111350:0:0:0:0:
320,192,111350,128,0,111444:0:0:0:0:
448,192,111397,128,0,111491:0:0:0:0:
64,192,111491,128,0,111538:0:0:0:0:
192,192,111491,128,0,111585:0:0:0:0:
320,192,111538,128,0,111633:0:0:0:0:
448,192,111585,128,0,111680:0:0:0:0:
64,192,111680,128,0,111963:0:0:0:0:
192,192,111680,1,0,0:0:0:0:
448,192,111868,1,0,0:0:0:0:
320,192,111868,1,0,0:0:0:0:
192,192,111868,128,0,111963:0:0:0:0:
64,192,112057,1,0,0:0:0:0:
448,192,112057,1,0,0:0:0:0:
320,192,112057,1,0,0:0:0:0:
320,192,112151,1,0,0:0:0:0:
448,192,112151,1,0,0:0:0:0:
448,192,112246,128,0,112340:0:0:0:0:
320,192,112246,128,0,112340:0:0:0:0:
64,192,112293,128,0,112387:0:0:0:0:
192,192,112340,128,0,112434:0:0:0:0:
448,192,112434,1,0,0:0:0:0:
320,192,112434,1,0,0:0:0:0:
192,192,112623,1,0,0:0:0:0:
64,192,112623,1,0,0:0:0:0:
320,192,112686,1,0,0:0:0:0:
448,192,112686,1,0,0:0:0:0:
192,192,112749,128,0,112906:0:0:0:0:
320,192,112812,128,0,112875:0:0:0:0:
448,192,112812,128,0,112875:0:0:0:0:
64,192,112812,128,0,112906:0:0:0:0:
320,192,113000,128,0,113189:0:0:0:0:
192,192,113095,128,0,113158:0:0:0:0:
448,192,113095,128,0,113189:0:0:0:0:
64,192,113095,128,0,113158:0:0:0:0:
192,192,113284,128,0,113472:0:0:0:0:
320,192,113378,128,0,113441:0:0:0:0:
448,192,113378,128,0,113441:0:0:0:0:
64,192,113378,128,0,113472:0:0:0:0:
448,192,113567,128,0,113755:0:0:0:0:
320,192,113661,128,0,113755:0:0:0:0:
192,192,113661,128,0,113724:0:0:0:0:
64,192,113661,128,0,113724:0:0:0:0:
320,192,113944,128,0,114007:0:0:0:0:
448,192,113944,128,0,114007:0:0:0:0:
320,192,114070,128,0,114133:0:0:0:0:
192,192,114070,128,0,114133:0:0:0:0:
192,192,114195,128,0,114258:0:0:0:0:
64,192,114195,128,0,114258:0:0:0:0:
448,192,114321,128,0,114447:0:0:0:0:
64,192,114321,128,0,114573:0:0:0:0:
320,192,114321,128,0,114510:0:0:0:0:
192,192,114510,1,0,0:0:0:0:
192,192,114604,1,0,0:0:0:0:
320,192,114699,128,0,114793:0:0:0:0:
64,192,114699,128,0,114887:0:0:0:0:
320,192,114887,1,0,0:0:0:0:
192,192,114950,1,0,0:0:0:0:
320,192,115013,1,0,0:0:0:0:
64,192,115076,128,0,115328:0:0:0:0:
192,192,115076,128,0,115265:0:0:0:0:
448,192,115076,128,0,115202:0:0:0:0:
320,192,115265,128,0,115453:0:0:0:0:
448,192,115359,128,0,115453:0:0:0:0:
64,192,115453,1,0,0:0:0:0:
192,192,115548,1,0,0:0:0:0:
320,192,115595,1,0,0:0:0:0:
192,192,115642,1,0,0:0:0:0:
320,192,115736,1,0,0:0:0:0:
192,192,115784,1,0,0:0:0:0:
64,192,115831,128,0,116019:0:0:0:0:
320,192,115831,128,0,115956:0:0:0:0:
448,192,115831,128,0,116082:0:0:0:0:
192,192,116019,1,0,0:0:0:0:
320,192,116067,1,0,0:0:0:0:
192,192,116114,1,0,0:0:0:0:
64,192,116208,1,0,0:0:0:0:
448,192,116208,128,0,116397:0:0:0:0:
320,192,116302,128,0,116397:0:0:0:0:
192,192,116491,128,0,116774:0:0:0:0:
448,192,116585,1,0,0:0:0:0:
64,192,116585,128,0,116837:0:0:0:0:
320,192,116585,128,0,116711:0:0:0:0:
448,192,116774,128,0,116963:0:0:0:0:
320,192,116868,128,0,116963:0:0:0:0:
64,192,116963,1,0,0:0:0:0:
192,192,116963,1,0,0:0:0:0:
320,192,117057,1,0,0:0:0:0:
192,192,117104,1,0,0:0:0:0:
320,192,117151,1,0,0:0:0:0:
192,192,117246,1,0,0:0:0:0:
320,192,117293,1,0,0:0:0:0:
192,192,117340,128,0,117434:0:0:0:0:
448,192,117340,128,0,117529:0:0:0:0:
64,192,117340,128,0,117529:0:0:0:0:
320,192,117434,1,0,0:0:0:0:
192,192,117529,1,0,0:0:0:0:
448,192,117623,128,0,117812:0:0:0:0:
320,192,117623,128,0,117717:0:0:0:0:
64,192,117623,128,0,117812:0:0:0:0:
192,192,117717,1,0,0:0:0:0:
320,192,117812,1,0,0:0:0:0:
448,192,117906,128,0,118095:0:0:0:0:
64,192,117906,128,0,118000:0:0:0:0:
192,192,117906,128,0,118095:0:0:0:0:
320,192,118000,1,0,0:0:0:0:
64,192,118095,1,0,0:0:0:0:
320,192,118189,128,0,118284:0:0:0:0:
192,192,118189,128,0,118378:0:0:0:0:
448,192,118189,128,0,118378:0:0:0:0:
64,192,118284,1,0,0:0:0:0:
320,192,118378,1,0,0:0:0:0:
64,192,118472,128,0,118661:0:0:0:0:
448,192,118472,128,0,118661:0:0:0:0:
192,192,118472,128,0,118567:0:0:0:0:
320,192,118567,1,0,0:0:0:0:
192,192,118661,1,0,0:0:0:0:
192,192,118755,1,0,0:0:0:0:
64,192,118850,128,0,118944:0:0:0:0:
320,192,118850,128,0,119038:0:0:0:0:
448,192,118850,128,0,119038:0:0:0:0:
64,192,119038,1,0,0:0:0:0:
192,192,119038,1,0,0:0:0:0:
192,192,119133,128,0,119321:0:0:0:0:
64,192,119133,128,0,119321:0:0:0:0:
448,192,119133,128,0,119227:0:0:0:0:
320,192,119321,1,0,0:0:0:0:
448,192,119321,1,0,0:0:0:0:
192,192,119416,1,0,0:0:0:0:
320,192,119416,1,0,0:0:0:0:
192,192,119510,1,0,0:0:0:0:
64,192,119510,1,0,0:0:0:0:
320,192,119604,128,0,119793:0:0:0:0:
64,192,119604,128,0,119793:0:0:0:0:
448,192,119604,128,0,119699:0:0:0:0:
192,192,119982,128,0,120076:0:0:0:0:
320,192,119982,128,0,120170:0:0:0:0:
64,192,119982,128,0,120170:0:0:0:0:
64,192,120359,128,0,120736:0:0:0:0:
192,192,120359,128,0,120673:0:0:0:0:
320,192,120359,128,0,120611:0:0:0:0:
448,192,120359,128,0,120548:0:0:0:0:
