osu file format v14

[General]
AudioFilename: audio.mp3
AudioLeadIn: 0
PreviewTime: 115462
Countdown: 0
SampleSet: Normal
StackLeniency: 0
Mode: 0
LetterboxInBreaks: 0
WidescreenStoryboard: 0

[Editor]
Bookmarks: 78890,82790,86690,97490,101990,114290,126290,135890,145490,155090
DistanceSpacing: 0.2
BeatDivisor: 16
GridSize: 8
TimelineZoom: 6.299996

[Metadata]
Title:Retaliation
TitleUnicode:Retaliation
Artist:Juggernaut.
ArtistUnicode:Juggernaut.
Creator:CyberX
Version:Vengeance
Source:
Tags:2019春M3 Shrukaghn Juggernaut. 1st album Jgnt – Retaliation_xfd
BeatmapID:2041600
BeatmapSetID:975423

[Difficulty]
HPDrainRate:5
CircleSize:4
OverallDifficulty:7.5
ApproachRate:9.7
SliderMultiplier:3.59999990463257
SliderTickRate:1

[Events]
//Background and Video events
0,0,"65737224_p0.jpg",0,0
//Break Periods
2,97700,101505
//Storyboard Layer 0 (Background)
//Storyboard Layer 1 (Fail)
//Storyboard Layer 2 (Pass)
//Storyboard Layer 3 (Foreground)
//Storyboard Sound Samples

[TimingPoints]
1500,300,4,1,1,75,1,0
1500,-50,4,1,1,75,0,0
11100,-100,4,1,1,75,0,0
20700,-100,4,3,1,75,0,0
21300,-200,4,3,1,75,0,0
22200,-100,4,3,1,75,0,0
22500,-66.6666666666667,4,3,1,75,0,0
22800,-100,4,3,1,75,0,0
23100,-100,4,3,1,75,0,0
23700,-200,4,3,1,75,0,0
24600,-100,4,3,1,75,0,0
24900,-66.6666666666667,4,3,1,75,0,0
25200,-100,4,3,1,75,0,0
26100,-200,4,3,1,75,0,0
27000,-100,4,3,1,75,0,0
27300,-66.6666666666667,4,3,1,75,0,0
27600,-100,4,3,1,75,0,0
28500,-200,4,3,1,75,0,0
29100,-100,4,2,1,75,0,0
30300,-66.6666666666667,4,3,1,75,0,0
34800,-125,4,3,1,75,0,0
35100,-66.6666666666667,4,3,1,75,0,0
39600,-125,4,3,1,75,0,0
39900,-200,4,3,1,75,0,0
40350,-100,4,3,1,75,0,0
40500,-83.3333333333333,4,3,1,75,0,0
40650,-71.4285714285714,4,3,1,75,0,0
40800,-100,4,3,1,75,0,0
40950,-71.4285714285714,4,3,1,75,0,0
41100,-200,4,3,1,75,0,0
41550,-100,4,3,1,75,0,0
41700,-83.3333333333333,4,3,1,75,0,0
41850,-71.4285714285714,4,3,1,75,0,0
42000,-100,4,3,1,75,0,0
42150,-71.4285714285714,4,3,1,75,0,0
42300,-200,4,3,1,75,0,0
42750,-100,4,3,1,75,0,0
42900,-83.3333333333333,4,3,1,75,0,0
43050,-71.4285714285714,4,3,1,75,0,0
43200,-100,4,3,1,75,0,0
43350,-71.4285714285714,4,3,1,75,0,0
43500,-200,4,3,1,75,0,0
43950,-100,4,3,1,75,0,0
44100,-83.3333333333333,4,3,1,75,0,0
44250,-100,4,3,1,75,0,0
44400,-71.4285714285714,4,3,1,75,0,0
44700,-200,4,3,1,75,0,0
45150,-100,4,3,1,75,0,0
45300,-83.3333333333333,4,3,1,75,0,0
45450,-71.4285714285714,4,3,1,75,0,0
45600,-100,4,3,1,75,0,0
45750,-71.4285714285714,4,3,1,75,0,0
45900,-200,4,3,1,75,0,0
46200,-100,4,3,1,75,0,0
46350,-83.3333333333333,4,3,1,75,0,0
46500,-71.4285714285714,4,3,1,75,0,0
46650,-100,4,3,1,75,0,0
46800,-71.4285714285714,4,3,1,75,0,0
47100,-200,4,3,1,75,0,0
47400,-100,4,3,1,75,0,0
47550,-83.3333333333333,4,3,1,75,0,0
47700,-71.4285714285714,4,3,1,75,0,0
47850,-100,4,3,1,75,0,0
48000,-71.4285714285714,4,3,1,75,0,0
48300,-142.857142857143,4,3,1,75,0,0
49200,-200,4,3,1,75,0,0
49500,-76.9230769230769,4,3,1,75,0,0
49800,-100,4,2,1,75,0,0
51600,-76.9230769230769,4,2,1,75,0,0
52200,-100,4,2,1,75,0,0
53850,-76.9230769230769,4,2,1,75,0,0
54000,-66.6666666666667,4,2,1,75,0,0
54300,-76.9230769230769,4,2,1,75,0,0
54600,-100,4,2,1,75,0,0
56400,-66.6666666666667,4,2,1,75,0,0
56700,-76.9230769230769,4,2,1,75,0,0
57000,-100,4,2,1,75,0,0
59100,-66.6666666666667,4,2,1,75,0,0
59400,-100,4,2,1,75,0,0
61500,-66.6666666666667,4,2,1,75,0,0
61800,-100,4,2,1,75,0,0
63900,-66.6666666666667,4,2,1,75,0,0
64200,-100,4,2,1,75,0,0
66300,-66.6666666666667,4,2,1,75,0,0
66600,-100,4,2,1,75,0,0
67500,-76.9230769230769,4,2,1,75,0,0
67800,-100,4,2,1,75,0,0
67950,-200,4,2,1,75,0,0
68250,-142.857142857143,4,2,1,75,0,0
68400,-100,4,2,1,75,0,0
68550,-76.9230769230769,4,2,1,75,0,0
68700,-66.6666666666667,4,2,1,75,0,0
69000,-100,4,2,1,75,0,0
70800,-66.6666666666667,4,2,1,75,0,0
71100,-76.9230769230769,4,2,1,75,0,0
71400,-100,4,2,1,75,0,0
73200,-76.9230769230769,4,2,1,75,0,0
73500,-66.6666666666667,4,2,1,75,0,0
73800,-100,4,2,1,75,0,0
75600,-76.9230769230769,4,2,1,75,0,0
75900,-66.6666666666667,4,2,1,75,0,0
76200,-100,4,2,1,75,0,0
78000,-66.6666666666667,4,2,1,75,0,0
78300,-76.9230769230769,4,2,1,75,0,0
78600,-100,4,2,1,75,0,0
80400,-76.9230769230769,4,2,1,75,0,0
80700,-66.6666666666667,4,2,1,75,0,0
81000,-100,4,2,1,75,0,0
82800,-76.9230769230769,4,2,1,75,0,0
83100,-66.6666666666667,4,2,1,75,0,0
83400,-100,4,2,1,75,0,0
85200,-76.9230769230769,4,2,1,75,0,0
85500,-66.6666666666667,4,2,1,75,0,0
85800,-100,4,2,1,75,0,0
86700,-76.9230769230769,4,2,1,75,0,0
87000,-66.6666666666667,4,2,1,75,0,0
87150,-200,4,2,1,75,0,0
87450,-100,4,2,1,75,0,0
87600,-76.9230769230769,4,2,1,75,0,0
87750,-66.6666666666667,4,2,1,75,0,0
87900,-100,4,3,1,75,0,0
88050,-200,4,3,1,75,0,0
88350,-100,4,3,1,75,0,0
88500,-200,4,3,1,75,0,0
88800,-100,4,3,1,75,0,0
88950,-200,4,3,1,75,0,0
89250,-100,4,3,1,75,0,0
89400,-200,4,3,1,75,0,0
89700,-66.6666666666667,4,3,1,75,0,0
90300,-100,4,3,1,75,0,0
90450,-200,4,3,1,75,0,0
90750,-100,4,3,1,75,0,0
90900,-66.6666666666667,4,3,1,75,0,0
91200,-83.3333333333333,4,3,1,75,0,0
91350,-100,4,3,1,75,0,0
91500,-71.4285714285714,4,3,1,75,0,0
91650,-200,4,3,1,75,0,0
91950,-100,4,3,1,75,0,0
92100,-200,4,3,1,75,0,0
92400,-100,4,3,1,75,0,0
92550,-83.3333333333333,4,3,1,75,0,0
92700,-71.4285714285714,4,3,1,75,0,0
92850,-100,4,3,1,75,0,0
93150,-83.3333333333333,4,3,1,75,0,0
93300,-200,4,3,1,75,0,0
93600,-83.3333333333333,4,3,1,75,0,0
93750,-200,4,3,1,75,0,0
94050,-83.3333333333333,4,3,1,75,0,0
94200,-200,4,3,1,75,0,0
94500,-66.6666666666667,4,3,1,75,0,0
95100,-100,4,3,1,75,0,0
95250,-200,4,3,1,75,0,0
95550,-100,4,3,1,75,0,0
95700,-200,4,3,1,75,0,0
96000,-100,4,3,1,75,0,0
96150,-83.3333333333333,4,3,1,75,0,0
96300,-100,4,3,1,75,0,0
96450,-200,4,3,1,75,0,0
96750,-100,4,3,1,75,0,0
97500,-200,4,3,1,75,0,0
107100,-100,4,1,1,75,0,0
116400,-100,4,3,1,75,0,1
116625,-100,4,3,1,75,0,0
116700,-66.6666666666667,4,3,1,75,0,1
155100,-50,4,1,1,75,0,0

[Colours]
Combo1 : 119,187,255
Combo2 : 255,255,119
Combo3 : 147,220,255
Combo4 : 202,255,149
Combo5 : 255,215,91
Combo6 : 189,255,255
Combo7 : 245,245,245
Combo8 : 255,180,104

[HitObjects]
278,48,1500,6,0,B|256:10|256:10|273:77|273:77|267:88|267:88|282:147,1,179.999995231629,4|0,0:0|0:0,0:0:0:0:
50,186,3900,6,0,B|36:227|36:227|161:286,1,179.999995231629
179,361,4050,102,0,B|213:356|213:356|221:336|221:336|355:324,1,179.999995231629
284,182,5100,6,0,B|294:225|294:225|318:255|318:255|317:264|317:264|367:389,1,179.999995231629
194,159,5550,102,0,B|226:124|226:124|238:90|238:90|247:86|247:86|329:-18,1,179.999995231629
221,245,6000,6,0,B|174:232|174:232|139:238|139:238|130:233|130:233|-2:213,1,179.999995231629
390,40,6300,102,0,B|302:17|302:17|270:113,1,179.999995231629
205,61,6450,6,0,B|164:65|164:65|111:39|111:39|32:43,1,179.999995231629
179,376,8700,102,0,B|195:299|195:299|191:271|191:271|208:186,1,179.999995231629
119,193,8850,6,0,B|113:143|113:143|166:11,1,179.999995231629
457,360,9900,102,0,B|407:245|407:245|461:221,1,179.999995231629
438,204,10050,1,0,0:0:0:0:
421,185,10125,1,0,0:0:0:0:
403,166,10200,5,0,0:0:0:0:
386,149,10275,1,0,0:0:0:0:
366,127,10350,2,0,B|325:146|325:146|242:16,1,179.999995231629
178,92,10500,101,0,0:0:0:0:
142,91,10575,1,0,0:0:0:0:
106,91,10650,1,0,0:0:0:0:
70,90,10725,1,0,0:0:0:0:
34,89,10800,6,0,B|-14:102|-14:102|30:58|32:21|32:21|51:55|116:83|116:83|163:57|163:57|238:79|238:79|300:70|300:70|322:34|322:34|391:25,1,539.999985694885
480,10,11100,6,0,B|488:67|488:67|499:90|499:90|515:205,1,179.999995231629,14|0,0:0|0:0,0:0:0:0:
386,149,11400,6,0,B|394:206|394:206|405:229|405:229|421:344,1,179.999995231629
512,364,11625,1,0,0:0:0:0:
512,364,11700,102,0,B|478:332|478:332|336:310,1,179.999995231629,10|0,0:0|0:0,0:0:0:0:
276,343,11925,1,0,0:0:0:0:
262,352,12000,6,0,L|63:328,1,179.999995231629,2|0,0:0|0:0,0:0:0:0:
225,263,12300,2,0,L|30:239,1,179.999995231629,10|0,0:0|0:0,0:0:0:0:
8,179,12525,1,0,0:0:0:0:
29,142,12600,102,0,B|9:181|9:181|57:337,1,179.999995231629
10,371,12825,1,0,0:0:0:0:
0,384,12900,6,0,B|61:351|61:351|80:310|80:310|139:275,1,179.999995231629,10|0,0:0|0:0,0:0:0:0:
160,202,13125,1,0,0:0:0:0:
141,174,13200,102,0,B|202:207|202:207|221:248|221:248|280:283,1,179.999995231629,2|0,0:0|0:0,0:0:0:0:
322,196,13500,6,0,L|281:406,1,179.999995231629,10|0,0:0|0:0,0:0:0:0:
394,272,13725,1,0,0:0:0:0:
394,272,13800,102,0,B|428:189|428:189|398:103,1,179.999995231629
442,33,14025,1,0,0:0:0:0:
449,10,14100,6,0,L|517:196,1,179.999995231629,10|0,0:0|0:0,0:0:0:0:
398,103,14325,1,0,0:0:0:0:
380,82,14400,102,0,L|177:56,1,179.999995231629,2|0,0:0|0:0,0:0:0:0:
133,138,14700,6,0,B|117:180|117:180|162:166|270:141,1,179.999995231629,10|0,0:0|0:0,0:0:0:0:
32,40,14925,1,0,0:0:0:0:
21,18,15000,102,0,L|40:201,1,179.999995231629,2|0,0:0|0:0,0:0:0:0:
162,265,15225,1,0,0:0:0:0:
162,265,15300,6,0,B|107:248|107:248|139:454,1,179.999995231629,10|0,0:0|0:0,0:0:0:0:
18,384,15600,101,0,0:0:0:0:
14,348,15675,1,0,0:0:0:0:
10,312,15750,1,0,0:0:0:0:
6,276,15825,1,0,0:0:0:0:
3,240,15900,6,0,B|82:262|82:262|101:284|101:284|178:301,1,179.999995231629,14|0,0:0|0:0,0:0:0:0:
255,356,16125,1,0,0:0:0:0:
263,374,16200,102,0,B|273:283|273:283|267:258|267:258|277:194,1,179.999995231629,2|0,0:0|0:0,0:0:0:0:
188,158,16425,1,0,0:0:0:0:
163,159,16500,6,0,B|230:144|230:144|249:122|249:122|328:100,1,179.999995231629,10|0,0:0|0:0,0:0:0:0:
23,37,16725,1,0,0:0:0:0:
0,17,16800,102,0,B|78:38|78:38|97:60|97:60|165:75,1,179.999995231629,2|0,0:0|0:0,0:0:0:0:
308,4,17100,6,0,B|274:37|274:37|252:167,1,179.999995231629,8|0,0:0|0:0,0:0:0:0:
388,142,17325,1,0,0:0:0:0:
396,158,17400,102,0,L|360:342,1,179.999995231629,2|0,0:0|0:0,0:0:0:0:
442,384,17625,1,0,0:0:0:0:
442,384,17700,6,0,B|476:351|476:351|498:221,1,179.999995231629,10|0,0:0|0:0,0:0:0:0:
296,273,18000,102,0,L|191:284,1,89.9999976158143,2|0,0:0|0:0,0:0:0:0:
125,302,18150,1,0,0:0:0:0:
80,306,18225,1,0,0:0:0:0:
35,310,18300,37,14,0:0:0:0:
35,310,19350,69,0,0:0:0:0:
80,306,19425,1,0,0:0:0:0:
125,302,19500,6,0,L|106:190,1,89.9999976158143,10|0,0:0|0:0,0:0:0:0:
208,245,19650,1,2,0:0:0:0:
217,289,19725,1,2,0:0:0:0:
226,333,19800,102,0,L|335:302,1,89.9999976158143,2|0,0:0|0:0,0:0:0:0:
374,336,19950,6,0,L|318:135,1,179.999995231629,10|0,0:0|0:0,0:0:0:0:
239,83,20175,1,2,0:0:0:0:
233,103,20250,2,0,L|266:213,1,89.9999976158143,2|0,0:0|0:0,0:0:0:0:
440,211,20400,102,0,L|414:124,1,89.9999976158143,10|0,0:0|0:0,0:0:0:0:
335,53,20550,5,0,0:0:0:0:
290,58,20625,1,0,0:0:0:0:
245,63,20700,22,0,B|164:54|164:54|142:60|142:60|55:50,1,179.999995231629,8|0,0:1|0:1,0:0:0:0:
0,104,21300,6,0,B|10:134|10:134|160:152,1,179.999995231629,8|0,0:0|0:0,0:0:0:0:
237,178,22200,102,0,B|245:238|245:238|252:247|252:247|268:357,1,179.999995231629
436,305,22500,6,0,B|367:320|367:320|341:290|341:290|155:322,1,270.000003147125,8|0,0:0|0:0,0:0:0:0:
109,362,22725,1,0,0:0:0:0:
109,362,22800,102,0,B|94:255|94:255|87:246|87:246|79:186,1,179.999995231629
1,192,23100,6,0,B|16:133|16:133|77:105|77:105|109:26,1,179.999995231629
184,121,23700,102,0,B|295:114|295:114|316:104|316:104|370:100,1,179.999995231629,8|0,0:0|0:0,0:0:0:0:
456,48,24600,6,0,B|340:11|340:11|278:35,1,179.999995231629
361,100,24900,102,0,B|375:150|375:150|401:164|401:164|411:203|411:203|381:268|381:268|403:345,1,270.000003147125,8|0,0:0|0:0,0:0:0:0:
337,373,25200,5,2,0:0:0:0:
319,340,25275,1,2,0:0:0:0:
294,314,25350,1,2,0:0:0:0:
262,299,25425,1,2,0:0:0:0:
227,294,25500,102,0,B|212:313|212:313|26:286,1,179.999995231629
289,216,26100,6,0,B|346:220|346:220|361:214|361:214|478:221,1,179.999995231629,8|0,0:0|0:0,0:0:0:0:
154,251,27000,102,0,B|207:178|207:178|310:226,1,179.999995231629
320,144,27300,6,0,B|115:52|115:52|109:4,1,270.000003147125,8|0,0:0|0:0,0:0:0:0:
19,19,27525,1,2,0:0:0:0:
34,53,27600,102,0,L|53:232,1,179.999995231629,2|0,0:0|0:0,0:0:0:0:
78,369,27900,6,0,B|137:298|137:298|120:188,1,179.999995231629
223,356,28500,102,0,L|188:167,1,179.999995231629,8|0,0:0|0:0,0:0:0:0:
223,356,29100,6,0,P|257:308|315:301,1,89.9999976158143,8|0,0:0|0:0,0:0:0:0:
375,376,29250,1,2,0:0:0:0:
357,370,29325,1,2,0:0:0:0:
342,360,29400,102,0,P|294:326|287:268,1,89.9999976158143,8|0,0:0|0:0,0:0:0:0:
381,81,29550,2,0,P|405:134|382:188,1,89.9999976158143
287,202,29700,5,10,0:0:0:0:
301,190,29775,1,2,0:0:0:0:
318,182,29850,2,0,P|371:157|425:180,1,89.9999976158143
452,370,30000,101,10,0:0:0:0:
482,336,30075,1,2,0:0:0:0:
496,293,30150,1,2,0:0:0:0:
493,249,30225,1,2,0:0:0:0:
474,208,30300,22,0,B|373:229|373:229|338:209|338:209|208:236,1,270.000003147125,10|0,0:0|0:0,0:0:0:0:
90,339,30525,1,0,0:0:0:0:
90,339,30600,6,0,P|173:372|193:220,1,270.000003147125,2|0,0:0|0:0,0:0:0:0:
155,293,30900,102,8,B|168:154|168:154|160:143|160:143|171:24,3,270.000003147125,2|2|2|2,0:0|0:0|0:0|0:0,0:0:0:0:
306,65,31500,6,0,B|293:1|293:1|267:230,1,270.000003147125,10|0,0:0|0:0,0:0:0:0:
7,223,31725,1,0,0:0:0:0:
7,223,31800,102,0,B|94:211|94:211|115:227|115:227|285:201,1,270.000003147125,2|0,0:0|0:0,0:0:0:0:
170,26,32100,6,0,B|257:38|257:38|278:22|278:22|448:48,3,270.000003147125,10|2|2|2,0:0|0:0|0:0|0:0,0:0:0:0:
480,160,32700,102,0,L|209:123,1,270.000003147125,10|0,0:0|0:0,0:0:0:0:
20,31,32925,1,0,0:0:0:0:
20,31,33000,6,0,B|10:96|10:96|229:125,1,270.000003147125,2|0,0:0|0:0,0:0:0:0:
418,236,33300,102,0,B|286:216|286:216|276:222|276:222|152:204,3,270.000003147125,10|2|2|2,0:0|0:0|0:0|0:0,0:0:0:0:
42,301,33900,6,0,P|71:213|199:294,1,270.000003147125,10|0,0:0|0:0,0:0:0:0:
122,281,34125,1,0,0:0:0:0:
122,281,34200,102,0,B|116:328|116:328|221:346|221:346|224:354|224:354|335:370,1,270.000003147125,2|2,0:0|0:0,0:0:0:0:
479,374,34500,6,0,B|490:296|490:296|290:264,1,270.000003147125,8|0,0:0|0:0,0:0:0:0:
243,190,34725,1,0,0:0:0:0:
264,177,34800,70,0,L|416:202,1,143.999996185303,2|0,0:0|0:0,0:0:0:0:
510,38,35100,22,0,B|471:76|471:76|414:322,1,270.000003147125,10|0,0:0|0:0,0:0:0:0:
301,265,35400,6,0,B|194:226|194:226|168:191|168:191|51:152,1,270.000003147125,2|0,0:0|0:0,0:0:0:0:
9,10,35700,102,0,P|44:120|135:49,3,270.000003147125,10|2|2|2,0:0|0:0|0:0|0:0,0:0:0:0:
213,3,36300,6,0,B|233:45|233:45|179:267,1,270.000003147125,10|0,0:0|0:0,0:0:0:0:
12,273,36525,1,0,0:0:0:0:
12,273,36600,102,0,B|24:233|24:233|263:278,1,270.000003147125,2|0,0:0|0:0,0:0:0:0:
339,122,36900,6,0,B|300:160|300:160|243:406,3,270.000003147125,10|2|2|2,0:0|0:0|0:0|0:0,0:0:0:0:
155,361,37500,102,0,L|222:98,1,270.000003147125,10|0,0:0|0:0,0:0:0:0:
153,50,37725,1,0,0:0:0:0:
153,50,37800,6,0,B|166:8|166:8|274:26|274:26|285:42|285:42|381:60,1,270.000003147125,2|0,0:0|0:0,0:0:0:0:
485,156,38100,102,0,L|179:90,3,270.000003147125,10|2|2|2,0:0|0:0|0:0|0:0,0:0:0:0:
160,163,38700,6,0,B|13:134|13:134|33:12,1,270.000003147125,10|0,0:0|0:0,0:0:0:0:
143,20,38925,1,0,0:0:0:0:
153,50,39000,102,0,L|97:352,1,270.000003147125,2|2,0:0|0:0,0:0:0:0:
39,361,39225,1,0,0:0:0:0:
105,315,39300,6,0,L|242:306,1,135.000001573563,2|0,0:0|0:0,0:0:0:0:
331,227,39450,2,0,L|305:380,1,135.000001573563,2|0,0:0|0:0,0:0:0:0:
39,361,39600,70,0,L|66:204,1,143.999996185303,10|0,0:0|0:0,0:0:0:0:
56,73,39900,70,0,B|43:171|43:171|33:178|33:178|25:248,1,179.999995231629,10|0,0:0|0:0,0:0:0:0:
137,117,40275,1,0,0:0:0:0:
137,117,40350,6,0,L|148:28,1,89.9999976158143,2|0,0:0|0:0,0:0:0:0:
216,82,40500,2,0,L|329:95,1,107.999993843079,10|0,0:0|0:0,0:0:0:0:
271,163,40650,102,0,L|256:292,1,125.999992816925,2|0,0:0|0:0,0:0:0:0:
118,220,40800,2,0,L|206:233,1,89.9999976158143,2|0,0:0|0:0,0:0:0:0:
311,289,40950,6,0,L|447:312,1,125.999992816925,2|0,0:0|0:0,0:0:0:0:
296,375,41100,22,0,B|200:358|200:358|192:349|192:349|123:338,1,179.999995231629,10|0,0:0|0:0,0:0:0:0:
370,214,41475,1,0,0:0:0:0:
370,214,41550,70,0,L|502:237,1,89.9999976158143,2|0,0:0|0:0,0:0:0:0:
426,140,41700,2,0,L|447:17,1,107.999993843079,10|0,0:0|0:0,0:0:0:0:
352,84,41850,6,0,L|226:61,1,125.999992816925,2|0,0:0|0:0,0:0:0:0:
296,158,42000,2,0,L|279:250,1,89.9999976158143,2|0,0:0|0:0,0:0:0:0:
436,353,42150,102,0,L|459:226,1,125.999992816925,2|0,0:0|0:0,0:0:0:0:
296,158,42300,38,0,B|200:174|200:174|192:183|192:183|123:195,1,179.999995231629,10|0,0:0|0:0,0:0:0:0:
36,171,42675,1,0,0:0:0:0:
36,171,42750,70,0,L|52:259,1,89.9999976158143,2|0,0:0|0:0,0:0:0:0:
166,373,42900,2,0,L|146:266,1,107.999993843079,10|0,0:0|0:0,0:0:0:0:
204,250,43050,6,0,L|79:271,1,125.999992816925,2|0,0:0|0:0,0:0:0:0:
0,361,43200,2,0,L|95:344,1,89.9999976158143,2|0,0:0|0:0,0:0:0:0:
166,373,43350,102,0,L|296:349,1,125.999992816925,2|0,0:0|0:0,0:0:0:0:
382,376,43500,38,0,B|370:307|370:307|361:299|361:299|345:203,1,179.999995231629,10|0,0:0|0:0,0:0:0:0:
290,132,43875,1,0,0:0:0:0:
290,132,43950,70,0,L|388:120,1,89.9999976158143,2|0,0:0|0:0,0:0:0:0:
512,40,44100,2,0,L|394:51,1,107.999993843079,10|0,0:0|0:0,0:0:0:0:
361,0,44250,6,0,L|373:98,1,89.9999976158143,2|0,0:0|0:0,0:0:0:0:
487,236,44400,102,0,B|483:204|483:204|476:197|476:197|471:156|471:156|325:173|325:173|311:168|311:168|240:175|240:175|232:113,1,377.999978450776,2|0,0:0|0:0,0:0:0:0:
165,17,44700,38,0,B|148:113|148:113|139:121|139:121|128:190,1,179.999995231629,10|0,0:0|0:0,0:0:0:0:
40,288,45075,1,0,0:0:0:0:
40,288,45150,6,0,L|58:196,1,89.9999976158143,2|0,0:0|0:0,0:0:0:0:
204,226,45300,2,0,L|182:336,1,107.999993843079,10|0,0:0|0:0,0:0:0:0:
160,368,45450,6,0,L|35:343,1,125.999992816925,2|0,0:0|0:0,0:0:0:0:
28,110,45600,2,0,L|120:126,1,89.9999976158143,2|0,0:0|0:0,0:0:0:0:
322,161,45750,102,0,L|292:292,1,125.999992816925,2|0,0:0|0:0,0:0:0:0:
272,370,45900,6,0,L|345:351,3,44.9999988079071,10|0|0|0,0:0|0:0|0:0|0:0,0:0:0:0:
402,370,46200,102,0,L|497:347,1,89.9999976158143,2|0,0:0|0:0,0:0:0:0:
486,271,46350,2,0,L|517:392,1,107.999993843079,2|0,0:0|0:0,0:0:0:0:
402,370,46500,6,0,L|372:243,1,125.999992816925,10|0,0:0|0:0,0:0:0:0:
322,161,46650,2,0,L|416:137,1,89.9999976158143,2|0,0:0|0:0,0:0:0:0:
489,22,46800,102,0,L|368:54,1,125.999992816925,2|0,0:0|0:0,0:0:0:0:
256,114,46950,2,0,L|288:235,1,125.999992816925,2|0,0:0|0:0,0:0:0:0:
260,326,47100,6,0,L|275:381,3,44.9999988079071,10|0|0|0,0:0|0:0|0:0|0:0,0:0:0:0:
204,256,47400,102,0,L|118:279,1,89.9999976158143,2|0,0:0|0:0,0:0:0:0:
65,146,47550,2,0,L|174:120,1,107.999993843079,2|0,0:0|0:0,0:0:0:0:
45,333,47700,6,0,L|16:210,1,125.999992816925,10|0,0:0|0:0,0:0:0:0:
219,13,47850,2,0,L|242:99,1,89.9999976158143,2|0,0:0|0:0,0:0:0:0:
265,185,48000,101,2,0:0:0:0:
313,173,48075,1,2,0:0:0:0:
362,161,48150,1,2,0:0:0:0:
411,149,48225,1,2,0:0:0:0:
460,137,48300,101,8,0:0:0:0:
460,137,49050,1,2,0:0:0:0:
411,149,49125,1,2,0:0:0:0:
362,161,49200,6,0,B|372:197|372:197|381:200|381:200|397:258,1,89.9999976158143,2|0,0:0|0:0,0:0:0:0:
341,379,49500,6,0,B|350:311|350:311|414:321|414:321|425:332|425:332|517:345,1,233.999983089448,8|0,0:0|0:0,0:0:0:0:
509,343,49800,70,0,B|261:307|261:307|277:195,1,359.999990463257,2|0,0:3|0:0,0:0:0:0:
308,35,50175,5,2,0:0:0:0:
310,71,50250,1,2,0:0:0:0:
324,104,50325,1,2,0:0:0:0:
348,131,50400,102,0,L|438:123,1,89.9999976158143,10|0,0:0|0:0,0:0:0:0:
209,177,50550,1,2,0:0:0:0:
173,178,50625,1,2,0:0:0:0:
137,180,50700,6,0,L|129:89,1,89.9999976158143,2|0,0:0|0:0,0:0:0:0:
47,14,50850,2,0,B|28:51|28:51|50:101,1,89.9999976158143,2|0,0:0|0:0,0:0:0:0:
209,85,51000,102,0,B|228:48|228:48|206:-2,1,89.9999976158143,10|0,0:0|0:0,0:0:0:0:
35,222,51150,1,2,0:0:0:0:
30,248,51225,1,2,0:0:0:0:
35,274,51300,6,0,L|165:265,1,89.9999976158143,2|0,0:0|0:0,0:0:0:0:
208,299,51450,2,0,B|231:257|231:257|287:270,1,89.9999976158143,2|0,0:0|0:0,0:0:0:0:
53,368,51600,102,0,B|90:353|90:353|126:366|126:366|209:326|209:326|243:283|243:283|372:276,1,350.999974634172,10|0,0:0|0:0,0:0:0:0:
129,90,51900,6,0,B|166:104|166:104|202:92|202:92|285:132|285:132|319:175|319:175|448:182,1,350.999974634172,2|0,0:0|0:0,0:0:0:0:
505,99,52200,102,0,B|480:60|480:60|372:55|372:55|397:40,1,179.999995231629,10|0,0:0|0:0,0:0:0:0:
512,258,52500,5,2,0:0:0:0:
508,284,52575,1,2,0:0:0:0:
505,311,52650,1,2,0:0:0:0:
503,338,52725,1,2,0:0:0:0:
500,364,52800,102,0,L|409:354,1,89.9999976158143,10|0,0:0|0:0,0:0:0:0:
286,270,52950,1,2,0:0:0:0:
312,274,53025,1,2,0:0:0:0:
339,277,53100,6,0,L|329:367,1,89.9999976158143,2|0,0:0|0:0,0:0:0:0:
260,266,53250,2,2,B|277:220|277:220|329:189,1,89.9999976158143,0|0,0:0|0:0,0:0:0:0:
272,133,53400,102,0,B|233:156|233:156|206:121,1,89.9999976158143,10|0,0:0|0:0,0:0:0:0:
88,13,53550,1,2,0:0:0:0:
110,18,53625,1,2,0:0:0:0:
132,23,53700,6,0,L|227:50,1,89.9999976158143,2|0,0:0|0:0,0:0:0:0:
445,55,53850,2,0,B|385:76|385:76|380:89|380:89|338:102,1,116.999991544724,2|0,0:0|0:0,0:0:0:0:
12,275,54000,102,0,B|38:306|38:306|42:318|42:318|101:383|101:383|116:321|116:321|126:305|126:305|138:250|138:250|213:238,1,337.500003933907,10|0,0:0|0:0,0:0:0:0:
1,31,54300,6,0,B|11:84|11:84|59:98|59:98|45:127|45:127|51:138|51:138|39:193|39:193|130:175,1,292.49997886181,2|0,0:0|0:0,0:0:0:0:
376,339,54600,102,0,B|276:358|276:358|263:291|263:291|278:265|278:265|266:197,1,269.999992847443,10|0,0:0|0:0,0:0:0:0:
361,227,54900,5,2,0:0:0:0:
377,257,54975,1,2,0:0:0:0:
409,273,55050,1,2,0:0:0:0:
444,266,55125,1,2,0:0:0:0:
469,241,55200,102,0,L|451:123,1,89.9999976158143,10|0,0:0|0:0,0:0:0:0:
326,37,55350,1,2,0:0:0:0:
341,52,55425,1,2,0:0:0:0:
361,64,55500,6,0,L|271:78,1,89.9999976158143,2|0,0:0|0:0,0:0:0:0:
177,78,55650,2,0,B|170:34|170:34|224:24,1,89.9999976158143,2|0,0:0|0:0,0:0:0:0:
310,165,55800,102,0,B|319:202|319:202|268:213,1,89.9999976158143,10|0,0:0|0:0,0:0:0:0:
52,189,55950,1,0,0:0:0:0:
71,178,56025,1,0,0:0:0:0:
91,167,56100,6,0,B|150:153|150:153|188:170,1,89.9999976158143,2|0,0:0|0:0,0:0:0:0:
268,213,56250,2,0,L|280:308,1,89.9999976158143,2|0,0:0|0:0,0:0:0:0:
187,369,56400,102,0,B|175:299|175:299|188:288|188:288|209:250|209:250|206:242|206:242|226:211|226:211|215:116,1,270.000003147125,10|0,0:0|0:0,0:0:0:0:
25,10,56700,6,0,B|119:26|119:26|140:75|140:75|240:84|240:84|252:61|252:61|334:65,1,350.999974634172,2|0,0:0|0:0,0:0:0:0:
129,234,57000,102,0,B|133:192|133:192|316:206|316:206|311:258,1,269.999992847443,10|0,0:0|0:0,0:0:0:0:
68,367,57300,5,2,0:0:0:0:
69,344,57375,1,2,0:0:0:0:
71,322,57450,1,2,0:0:0:0:
73,299,57525,1,2,0:0:0:0:
74,277,57600,102,0,L|176:286,1,89.9999976158143,10|0,0:0|0:0,0:0:0:0:
286,324,57750,1,2,0:0:0:0:
300,333,57825,1,2,0:0:0:0:
316,340,57900,6,0,P|356:323|375:274,1,89.9999976158143,2|0,0:0|0:0,0:0:0:0:
327,156,58050,2,0,P|286:172|267:221,1,89.9999976158143,2|0,0:0|0:0,0:0:0:0:
213,370,58200,102,0,P|173:350|156:310,1,89.9999976158143,10|0,0:0|0:0,0:0:0:0:
39,189,58350,1,2,0:0:0:0:
37,171,58425,1,2,0:0:0:0:
36,153,58500,6,0,L|171:171,1,89.9999976158143,2|0,0:0|0:0,0:0:0:0:
202,129,58650,2,0,P|242:112|261:63,1,89.9999976158143,2|0,0:0|0:0,0:0:0:0:
405,38,58800,102,0,B|388:87|388:87|310:69|310:69|270:40|270:40|181:24,1,269.999992847443,10|0,0:0|0:0,0:0:0:0:
498,35,59100,6,0,B|484:82|484:82|485:98|485:98|455:185|455:185|424:178|424:178|410:184|410:184|344:168|344:168|304:312,1,405.000004720688,2|0,0:0|0:0,0:0:0:0:
377,354,59400,102,0,B|403:266|403:266|495:287,1,179.999995231629,10|0,0:0|0:0,0:0:0:0:
279,384,59700,53,2,0:0:0:0:
249,362,59775,1,2,0:0:0:0:
228,333,59850,1,2,0:0:0:0:
216,300,59925,1,2,0:0:0:0:
213,263,60000,86,0,L|87:316,1,89.9999976158143,10|0,0:0|0:0,0:0:0:0:
27,380,60150,1,2,0:0:0:0:
39,367,60225,1,2,0:0:0:0:
50,353,60300,22,0,L|7:251,1,89.9999976158143,2|0,0:0|0:0,0:0:0:0:
81,198,60450,2,0,B|116:221|116:221|174:202,1,89.9999976158143,2|0,0:0|0:0,0:0:0:0:
276,212,60600,86,0,L|251:126,1,89.9999976158143,10|0,0:0|0:0,0:0:0:0:
178,40,60750,1,2,0:0:0:0:
200,41,60825,1,2,0:0:0:0:
222,43,60900,22,0,L|347:50,1,89.9999976158143,2|0,0:0|0:0,0:0:0:0:
420,110,61050,2,0,B|385:133|385:133|323:129,1,89.9999976158143,2|0,0:0|0:0,0:0:0:0:
0,108,61200,86,0,L|181:122,1,179.999995231629,10|0,0:0|0:0,0:0:0:0:
322,302,61500,22,0,P|362:197|203:279,1,405.000004720688,2|0,0:0|0:0,0:0:0:0:
138,329,61800,86,0,P|176:378|225:287,1,179.999995231629,10|0,0:0|0:0,0:0:0:0:
55,370,62100,21,2,0:0:0:0:
33,331,62175,1,2,0:0:0:0:
34,286,62250,1,2,0:0:0:0:
58,249,62325,1,2,0:0:0:0:
100,232,62400,86,0,L|209:254,1,89.9999976158143,10|0,0:0|0:0,0:0:0:0:
275,226,62550,1,2,0:0:0:0:
290,209,62625,1,2,0:0:0:0:
298,188,62700,22,0,L|311:82,1,89.9999976158143,2|0,0:0|0:0,0:0:0:0:
362,20,62850,2,0,B|406:29|406:29|397:74,1,89.9999976158143,2|0,0:0|0:0,0:0:0:0:
226,89,63000,86,0,B|187:92|187:92|175:89|175:89|126:93,1,89.9999976158143,10|0,0:0|0:0,0:0:0:0:
0,45,63150,1,2,0:0:0:0:
20,35,63225,1,2,0:0:0:0:
37,21,63300,22,0,L|51:125,1,89.9999976158143,2|0,0:0|0:0,0:0:0:0:
153,177,63450,2,0,L|167:281,1,89.9999976158143,2|0,0:0|0:0,0:0:0:0:
0,367,63600,86,0,B|-4:330|-4:330|-2:325|-2:325|-6:309|-6:309|80:298|80:298|77:258,1,179.999995231629,10|0,0:0|0:0,0:0:0:0:
380,223,63900,22,0,B|390:285|390:285|355:323|355:323|312:328|312:328|299:316|299:316|239:323|239:323|236:297|236:297|160:306|160:306|168:372,1,405.000004720688,2|0,0:0|0:0,0:0:0:0:
301,239,64200,86,0,B|296:171|296:171|287:162|287:162|291:118|291:118|283:107|283:107|279:65,1,179.999995231629,10|0,0:0|0:0,0:0:0:0:
148,22,64500,21,2,0:0:0:0:
149,44,64575,1,2,0:0:0:0:
151,66,64650,1,2,0:0:0:0:
152,89,64725,1,2,0:0:0:0:
154,111,64800,86,0,L|252:103,1,89.9999976158143,10|0,0:0|0:0,0:0:0:0:
366,55,64950,1,2,0:0:0:0:
363,32,65025,1,2,0:0:0:0:
361,10,65100,22,0,L|260:18,1,89.9999976158143,2|0,0:0|0:0,0:0:0:0:
352,136,65250,2,0,B|399:141|399:141|443:97,1,89.9999976158143,2|0,0:0|0:0,0:0:0:0:
270,182,65400,86,0,L|248:277,1,89.9999976158143,10|0,0:0|0:0,0:0:0:0:
234,351,65550,1,2,0:0:0:0:
255,354,65625,1,2,0:0:0:0:
277,358,65700,22,0,B|312:326|312:326|326:275,1,89.9999976158143,2|0,0:0|0:0,0:0:0:0:
413,239,65850,2,0,L|393:333,1,89.9999976158143,2|0,0:0|0:0,0:0:0:0:
510,265,66000,86,0,B|488:234|488:234|514:89,1,179.999995231629,10|0,0:0|0:0,0:0:0:0:
489,14,66300,22,0,B|394:36|394:36|374:111|374:111|377:126|377:126|350:227|350:227|206:287,1,405.000004720688,2|0,0:0|0:0,0:0:0:0:
111,232,66600,86,0,B|153:213|153:213|171:216|171:216|291:168,1,179.999995231629,10|0,0:0|0:0,0:0:0:0:
275,5,66900,21,2,0:0:0:0:
272,27,66975,1,2,0:0:0:0:
270,49,67050,1,2,0:0:0:0:
268,72,67125,1,2,0:0:0:0:
266,94,67200,6,0,L|150:137,1,89.9999976158143,10|0,0:0|0:0,0:0:0:0:
111,232,67350,2,0,L|144:335,1,89.9999976158143,2|0,0:0|0:0,0:0:0:0:
98,135,67500,6,0,B|3:177|3:177|21:221|21:221|17:238|17:238|52:334|52:334|-14:384,1,350.999974634172,10|0,0:3|0:0,0:0:0:0:
6,77,67800,6,0,L|101:39,1,89.9999976158143,2|0,0:3|0:0,0:0:0:0:
169,18,67950,6,0,B|161:53|161:53|167:64|167:64|146:156,1,134.999996423721,2|0,0:3|0:0,0:0:0:0:
204,264,68250,6,0,L|221:179,1,62.9999964084627,2|0,0:3|0:0,0:0:0:0:
130,277,68400,6,0,L|237:288,1,89.9999976158143,2|0,0:3|0:0,0:0:0:0:
316,244,68550,6,0,L|296:378,1,116.999991544724,2|0,0:3|0:0,0:0:0:0:
188,382,68700,54,0,B|298:361|298:361|340:300|340:300|429:286,1,270.000003147125,14|0,0:3|0:0,0:0:0:0:
502,184,69000,6,0,B|434:194|434:194|421:189|421:189|219:216|219:216|211:227|211:227|149:237,1,359.999990463257,10|0,0:0|0:0,0:0:0:0:
0,128,69375,1,2,0:0:0:0:
25,152,69450,1,2,0:0:0:0:
59,163,69525,1,2,0:0:0:0:
94,156,69600,102,0,L|184:143,1,89.9999976158143,10|0,0:0|0:0,0:0:0:0:
310,86,69750,1,2,0:0:0:0:
300,65,69825,1,2,0:0:0:0:
286,48,69900,6,0,L|182:64,1,89.9999976158143,2|0,0:0|0:0,0:0:0:0:
118,69,70050,2,0,B|86:73|86:73|76:4,1,89.9999976158143,2|0,0:0|0:0,0:0:0:0:
258,149,70200,102,0,L|272:246,1,89.9999976158143,10|0,0:0|0:0,0:0:0:0:
285,339,70350,1,2,0:0:0:0:
269,355,70425,1,2,0:0:0:0:
251,367,70500,6,0,P|206:347|186:298,1,89.9999976158143,2|0,0:0|0:0,0:0:0:0:
357,304,70650,2,0,L|459:292,1,89.9999976158143,2|0,0:0|0:0,0:0:0:0:
330,381,70800,102,0,B|325:341|325:341|329:318|329:318|299:105,1,270.000003147125,10|0,0:0|0:0,0:0:0:0:
461,363,71100,6,0,B|452:302|452:302|446:295|446:295|430:192|430:192|401:165|401:165|389:96|389:96|409:33,1,350.999974634172,2|0,0:0|0:0,0:0:0:0:
280,34,71400,102,0,B|327:45|327:45|344:4,2,89.9999976158143,10|0|0,0:0|0:0|0:0,0:0:0:0:
202,59,71700,5,2,0:0:0:0:
165,34,71775,1,2,0:0:0:0:
121,34,71850,1,2,0:0:0:0:
84,58,71925,1,2,0:0:0:0:
68,100,72000,102,0,L|83:214,1,89.9999976158143,10|0,0:0|0:0,0:0:0:0:
120,338,72150,1,2,0:0:0:0:
149,346,72225,1,2,0:0:0:0:
178,355,72300,6,0,B|189:308|189:308|163:259,1,89.9999976158143,2|0,0:0|0:0,0:0:0:0:
176,168,72450,2,0,L|264:153,1,89.9999976158143,2|0,0:0|0:0,0:0:0:0:
92,266,72600,102,0,L|0:282,1,89.9999976158143,10|0,0:0|0:0,0:0:0:0:
255,262,72750,1,2,0:0:0:0:
268,280,72825,1,2,0:0:0:0:
285,293,72900,6,0,L|375:275,1,89.9999976158143,2|0,0:0|0:0,0:0:0:0:
344,104,73050,2,0,B|366:146|366:146|354:200,1,89.9999976158143,2|0,0:0|0:0,0:0:0:0:
29,151,73200,102,0,B|74:188|74:188|211:167|211:167|232:169|232:169|365:147,1,350.999974634172,10|0,0:0|0:0,0:0:0:0:
143,101,73500,6,0,B|75:44|75:44|181:30|181:30|193:35|193:35|308:16|308:16|248:83,1,405.000004720688,2|0,0:0|0:0,0:0:0:0:
9,338,73800,102,0,B|33:300|33:300|138:282|138:282|153:276|153:276|254:261,1,269.999992847443,10|0,0:0|0:0,0:0:0:0:
290,356,74100,5,2,0:0:0:0:
327,331,74175,1,2,0:0:0:0:
350,293,74250,1,2,0:0:0:0:
353,248,74325,1,2,0:0:0:0:
337,207,74400,102,0,P|303:180|241:182,1,89.9999976158143,10|0,0:0|0:0,0:0:0:0:
121,163,74550,1,2,0:0:0:0:
136,179,74625,1,2,0:0:0:0:
155,190,74700,6,0,L|140:87,1,89.9999976158143,2|0,0:0|0:0,0:0:0:0:
233,20,74850,2,0,B|212:62|212:62|257:103,1,89.9999976158143,2|0,0:0|0:0,0:0:0:0:
334,92,75000,102,0,L|447:77,1,89.9999976158143,10|0,0:0|0:0,0:0:0:0:
482,182,75150,1,2,0:0:0:0:
463,175,75225,1,2,0:0:0:0:
443,167,75300,6,0,L|459:264,1,89.9999976158143,2|0,0:0|0:0,0:0:0:0:
337,207,75450,2,0,L|352:305,1,89.9999976158143,2|0,0:0|0:0,0:0:0:0:
352,376,75600,102,0,B|282:384|282:384|257:216,1,233.999983089448,10|0,0:0|0:0,0:0:0:0:
98,161,75900,6,0,B|173:152|173:152|182:219,1,135.000001573563,2|0,0:0|0:0,0:0:0:0:
113,366,76050,1,2,0:0:0:0:
79,370,76125,1,2,0:0:0:0:
46,375,76200,102,0,B|26:256|26:256|97:243,1,179.999995231629,10|0,0:0|0:0,0:0:0:0:
260,143,76500,5,2,0:0:0:0:
282,138,76575,1,2,0:0:0:0:
304,134,76650,1,2,0:0:0:0:
326,130,76725,1,2,0:0:0:0:
348,125,76800,102,0,L|335:24,1,89.9999976158143,10|0,0:0|0:0,0:0:0:0:
133,18,76950,1,2,0:0:0:0:
140,39,77025,1,2,0:0:0:0:
154,56,77100,6,0,P|215:40|231:9,1,89.9999976158143,2|0,0:0|0:0,0:0:0:0:
464,15,77250,2,0,L|479:116,1,89.9999976158143,2|0,0:0|0:0,0:0:0:0:
411,292,77400,102,0,P|371:249|366:214,1,89.9999976158143,10|0,0:0|0:0,0:0:0:0:
260,143,77550,1,2,0:0:0:0:
238,147,77625,1,2,0:0:0:0:
216,152,77700,6,0,L|115:173,1,89.9999976158143,2|0,0:0|0:0,0:0:0:0:
26,222,77850,2,0,P|65:242|123:240,1,89.9999976158143,2|0,0:0|0:0,0:0:0:0:
215,343,78000,102,0,P|245:237|302:332,1,270.000003147125,10|0,0:0|0:0,0:0:0:0:
397,360,78300,6,0,P|386:265|314:345,1,233.999983089448,2|0,0:0|0:0,0:0:0:0:
124,314,78600,102,0,P|128:372|213:328,1,179.999995231629,10|0,0:0|0:0,0:0:0:0:
237,211,78900,38,0,L|294:219,10,44.9999988079071,2|0|0|0|0|0|0|0|0|0|0,0:0|0:0|0:0|0:0|0:0|0:0|0:0|0:0|0:0|0:0|0:0,0:0:0:0:
339,126,79350,1,2,0:0:0:0:
316,127,79425,1,2,0:0:0:0:
294,129,79500,6,0,L|205:135,1,89.9999976158143,2|0,0:0|0:0,0:0:0:0:
152,22,79650,1,2,0:0:0:0:
185,23,79725,1,2,0:0:0:0:
218,26,79800,102,0,L|348:34,1,89.9999976158143,10|0,0:0|0:0,0:0:0:0:
419,88,79950,2,0,B|445:49|445:49|411:-3,1,89.9999976158143,2|0,0:0|0:0,0:0:0:0:
512,123,80100,6,0,L|446:226,1,89.9999976158143,2|0,0:0|0:0,0:0:0:0:
398,271,80250,2,0,P|360:244|310:238,1,89.9999976158143,2|0,0:0|0:0,0:0:0:0:
432,377,80400,102,0,P|414:287|512:334,1,233.999983089448,10|0,0:0|0:0,0:0:0:0:
305,373,80700,6,0,B|279:326|279:326|344:179|344:179|401:166,1,270.000003147125,2|0,0:0|0:0,0:0:0:0:
512,123,81000,102,0,B|496:64|496:64|402:80|402:80|396:52|396:52|351:60|351:60|339:8,1,269.999992847443,10|0,0:0|0:0,0:0:0:0:
220,24,81300,6,0,L|234:94,10,44.9999988079071,2|0|0|0|0|0|0|0|0|0|0,0:0|0:0|0:0|0:0|0:0|0:0|0:0|0:0|0:0|0:0|0:0,0:0:0:0:
226,211,81750,1,2,0:0:0:0:
207,223,81825,1,2,0:0:0:0:
188,235,81900,102,0,L|165:149,1,89.9999976158143,2|0,0:0|0:0,0:0:0:0:
118,2,82050,1,2,0:0:0:0:
126,34,82125,1,2,0:0:0:0:
134,65,82200,6,0,L|27:56,1,89.9999976158143,10|0,0:0|0:0,0:0:0:0:
79,146,82350,2,0,L|102:239,1,89.9999976158143,2|0,0:0|0:0,0:0:0:0:
42,286,82500,102,0,B|10:257|10:257|-5:190,1,89.9999976158143,2|0,0:0|0:0,0:0:0:0:
79,355,82650,2,0,L|177:331,1,89.9999976158143,2|0,0:0|0:0,0:0:0:0:
292,285,82800,6,0,B|283:246|283:246|211:219|211:219|315:199|315:199|320:191|320:191|400:175|400:175|416:131,1,350.999974634172,10|0,0:0|0:0,0:0:0:0:
475,14,83100,102,0,B|361:35|361:35|333:82|333:82|206:105,1,270.000003147125,2|0,0:0|0:0,0:0:0:0:
508,94,83400,6,0,B|492:132|492:132|493:147|493:147|444:270,1,179.999995231629,10|0,0:0|0:0,0:0:0:0:
454,367,83700,101,2,0:0:0:0:
418,368,83775,1,2,0:0:0:0:
385,355,83850,1,2,0:0:0:0:
359,330,83925,1,2,0:0:0:0:
347,296,84000,6,0,L|378:206,1,89.9999976158143,10|0,0:0|0:0,0:0:0:0:
295,90,84150,1,2,0:0:0:0:
301,99,84225,1,2,0:0:0:0:
308,108,84300,102,0,L|271:194,1,89.9999976158143,2|0,0:0|0:0,0:0:0:0:
209,278,84450,2,0,B|257:298|257:298|284:246,1,89.9999976158143,2|0,0:0|0:0,0:0:0:0:
448,82,84600,6,0,B|406:69|406:69|382:122,1,89.9999976158143,10|0,0:0|0:0,0:0:0:0:
218,172,84750,1,2,0:0:0:0:
207,174,84825,1,2,0:0:0:0:
196,177,84900,102,0,L|85:145,1,89.9999976158143,2|0,0:0|0:0,0:0:0:0:
188,7,85050,2,0,L|287:36,1,89.9999976158143,2|0,0:0|0:0,0:0:0:0:
417,243,85200,6,0,B|377:211|377:211|350:342|350:342|418:312,1,233.999983089448,10|0,0:0|0:0,0:0:0:0:
471,384,85500,102,0,L|497:248,1,135.000001573563,2|0,0:0|0:0,0:0:0:0:
259,319,85650,1,2,0:0:0:0:
256,335,85725,1,2,0:0:0:0:
254,351,85800,6,0,B|163:366|163:366|150:361|150:361|64:375,1,179.999995231629,10|0,0:0|0:0,0:0:0:0:
12,300,86100,101,2,0:0:0:0:
56,294,86175,1,2,0:0:0:0:
100,288,86250,1,2,0:0:0:0:
145,282,86325,1,2,0:0:0:0:
190,276,86400,6,0,L|178:181,1,89.9999976158143,10|0,0:0|0:0,0:0:0:0:
163,101,86550,2,0,P|149:47|104:0,1,89.9999976158143,2|0,0:0|0:0,0:0:0:0:
27,33,86700,6,0,B|35:89|35:89|192:62|192:62|206:66|206:66|275:54|275:54|256:114,1,350.999974634172,10|0,0:3|0:0,0:0:0:0:
332,129,87000,6,0,B|361:37|361:37|409:12,1,135.000001573563,2|0,0:3|0:0,0:0:0:0:
446,191,87150,6,0,B|406:174|406:174|431:85,1,134.999996423721,2|0,0:3|0:0,0:0:0:0:
463,277,87450,6,0,L|376:251,1,89.9999976158143,2|0,0:3|0:0,0:0:0:0:
270,335,87600,6,0,L|303:220,1,116.999991544724,2|0,0:3|0:0,0:0:0:0:
487,369,87750,6,0,L|347:327,1,135.000001573563,10|0,0:3|0:0,0:0:0:0:
204,165,87900,70,0,B|227:189|227:189|205:257,1,89.9999976158143,2|0,0:0|0:0,0:0:0:0:
171,313,88050,2,0,B|124:321|124:321|108:334|108:334|14:344,1,134.999996423721,2|0,0:0|0:0,0:0:0:0:
302,41,88350,38,0,B|279:65|279:65|301:133,1,89.9999976158143,2|0,0:0|0:0,0:0:0:0:
339,208,88500,2,0,B|386:216|386:216|402:229|402:229|488:240,1,134.999996423721,2|0,0:0|0:0,0:0:0:0:
462,44,88800,70,0,P|444:82|379:105,1,89.9999976158143,2|0,0:0|0:0,0:0:0:0:
168,43,88950,2,0,B|206:51|206:51|330:37,1,134.999996423721,2|0,0:0|0:0,0:0:0:0:
49,190,89250,38,0,P|67:228|132:251,1,89.9999976158143,2|0,0:0|0:0,0:0:0:0:
339,208,89400,2,0,B|301:216|301:216|205:205,1,134.999996423721,2|0,0:0|0:0,0:0:0:0:
252,355,89700,70,0,B|218:333|218:333|188:320|188:320|331:305|331:305|347:311|347:311|411:274|411:274|485:275|485:275|474:209|474:209|476:194|476:194|452:165|452:165|482:89|482:89|381:65|381:65|372:49|372:49|265:19|265:19|334:41|334:41|350:97,1,945.000011014939,14|0,0:0|0:0,0:0:0:0:
187,78,90300,38,0,L|273:102,1,89.9999976158143,2|0,0:0|0:0,0:0:0:0:
115,155,90450,2,0,B|101:81|101:81|96:71|96:71|87:13,1,134.999996423721,2|0,0:0|0:0,0:0:0:0:
209,243,90750,70,0,B|223:190|223:190|271:199,1,89.9999976158143,2|0,0:0|0:0,0:0:0:0:
129,383,90900,2,0,P|105:230|27:364,1,405.000004720688,2|0,0:0|0:0,0:0:0:0:
302,377,91200,38,0,L|290:265,1,107.999993843079,2|0,0:0|0:0,0:0:0:0:
209,243,91350,2,0,L|100:253,1,89.9999976158143,2|0,0:0|0:0,0:0:0:0:
395,337,91500,70,0,B|372:305|372:305|362:206,1,125.999992816925,2|0,0:0|0:0,0:0:0:0:
436,121,91650,2,0,L|454:283,1,134.999996423721,2|0,0:0|0:0,0:0:0:0:
285,193,91950,38,0,B|282:150|282:150|337:146,1,89.9999976158143,2|0,0:0|0:0,0:0:0:0:
472,28,92100,2,0,B|413:30|413:30|401:35|401:35|338:38,1,134.999996423721
211,22,92400,70,0,L|218:126,1,89.9999976158143,2|0,0:0|0:0,0:0:0:0:
210,233,92550,2,0,P|156:193|143:142,1,107.999993843079,2|0,0:0|0:0,0:0:0:0:
0,81,92700,38,0,B|28:97|28:97|136:71,1,125.999992816925,2|0,0:0|0:0,0:0:0:0:
328,146,92850,2,0,B|291:117|291:117|64:179,1,269.999992847443,2|0,0:0|0:0,0:0:0:0:
57,252,93150,70,0,L|40:401,1,107.999993843079,2|0,0:0|0:0,0:0:0:0:
135,320,93300,2,0,B|143:256|143:256|215:231,1,134.999996423721,2|0,0:0|0:0,0:0:0:0:
451,152,93600,38,0,L|347:185,1,107.999993843079,2|0,0:0|0:0,0:0:0:0:
312,291,93750,2,0,B|226:325|226:325|216:376,1,134.999996423721,2|0,0:0|0:0,0:0:0:0:
469,352,94050,70,0,L|429:249,1,107.999993843079,2|0,0:0|0:0,0:0:0:0:
282,66,94200,2,0,B|297:106|297:106|390:79,1,134.999996423721,2|0,0:0|0:0,0:0:0:0:
163,20,94500,38,0,B|99:40|99:40|59:25|59:25|12:58|12:58|16:112|16:112|34:113|34:113|78:205|78:205|143:140|143:140|149:124|149:124|234:144|234:144|244:235|244:235|301:258|301:258|356:199|356:199|370:201|370:201|427:184|427:184|443:186|443:186|471:157|471:157|461:110,1,945.000011014939,14|0,0:0|0:0,0:0:0:0:
168,225,95100,70,0,L|143:312,1,89.9999976158143,2|0,0:0|0:0,0:0:0:0:
21,384,95250,2,0,B|66:372|66:372|78:346|78:346|139:330,1,134.999996423721,2|0,0:0|0:0,0:0:0:0:
325,180,95550,38,0,L|346:267,1,89.9999976158143,2|0,0:0|0:0,0:0:0:0:
468,339,95700,2,0,B|423:327|423:327|411:301|411:301|350:285,1,134.999996423721,2|0,0:0|0:0,0:0:0:0:
243,273,96000,70,0,L|262:370,1,89.9999976158143,2|0,0:0|0:0,0:0:0:0:
158,214,96150,2,0,P|119:185|102:125,1,107.999993843079,2|0,0:0|0:0,0:0:0:0:
243,57,96300,38,0,L|232:156,1,89.9999976158143,2|0,0:0|0:0,0:0:0:0:
347,134,96450,2,0,P|398:110|433:24,1,134.999996423721,2|0,0:0|0:0,0:0:0:0:
120,0,96750,2,0,P|150:59|162:103,1,89.9999976158143,2|0,0:0|0:0,0:0:0:0:
181,334,96900,5,10,0:0:0:0:
120,360,96975,5,10,0:0:0:0:
56,344,97050,5,10,0:0:0:0:
13,293,97125,5,10,0:0:0:0:
9,227,97200,6,0,B|93:235|93:235|106:246|106:246|202:256,1,179.999995231629,10|0,0:2|0:0,0:0:0:0:
512,384,97500,37,14,0:2:0:0:
190,191,102000,5,0,0:0:0:0:
223,193,102075,1,0,0:0:0:0:
257,195,102150,1,0,0:0:0:0:
290,198,102225,1,0,0:0:0:0:
324,200,102300,5,12,0:0:0:0:
257,189,104550,101,0,0:0:0:0:
290,186,104625,1,0,0:0:0:0:
324,184,104700,5,12,0:0:0:0:
190,191,105750,101,2,0:0:0:0:
223,193,105825,1,2,0:0:0:0:
257,195,105900,6,0,L|251:260,1,44.9999988079071,8|0,0:0|0:0,0:0:0:0:
113,318,106050,1,2,0:0:0:0:
130,335,106125,1,2,0:0:0:0:
147,352,106200,102,0,L|223:359,1,44.9999988079071,2|0,0:0|0:0,0:0:0:0:
376,340,106350,2,0,L|464:346,1,44.9999988079071,10|0,0:0|0:0,0:0:0:0:
107,219,106500,6,0,L|43:214,1,44.9999988079071,2|0,0:0|0:0,0:0:0:0:
451,198,106650,2,0,L|527:198,1,44.9999988079071,2|0,0:0|0:0,0:0:0:0:
191,106,106800,101,2,0:0:0:0:
224,108,106875,1,2,0:0:0:0:
258,111,106950,1,2,0:0:0:0:
291,114,107025,1,2,0:0:0:0:
325,117,107100,102,0,B|299:162|299:162|333:288,1,179.999995231629,12|0,0:0|0:0,0:0:0:0:
456,311,107325,1,0,0:0:0:0:
474,306,107400,6,0,B|418:320|418:320|398:351|398:351|300:373,1,179.999995231629,2|0,0:0|0:0,0:0:0:0:
239,366,107625,1,0,0:0:0:0:
239,366,107700,102,0,B|219:278|219:278|212:270|212:270|192:187,1,179.999995231629,10|0,0:0|0:0,0:0:0:0:
115,374,107925,1,0,0:0:0:0:
100,353,108000,6,0,B|80:265|80:265|73:257|73:257|53:174,1,179.999995231629,2|2,0:0|0:0,0:0:0:0:
31,69,108300,102,0,B|17:90|17:90|193:48,1,179.999995231629,10|0,0:0|0:0,0:0:0:0:
317,109,108525,1,0,0:0:0:0:
349,119,108600,6,0,L|168:165,1,179.999995231629,2|0,0:0|0:0,0:0:0:0:
352,221,108825,1,0,0:0:0:0:
352,221,108900,102,0,B|415:199|415:199|435:150|435:150|519:117,1,179.999995231629,10|0,0:0|0:0,0:0:0:0:
372,342,109125,1,0,0:0:0:0:
339,357,109200,6,0,B|276:335|276:335|256:286|256:286|172:253,1,179.999995231629,2|2,0:0|0:0,0:0:0:0:
118,218,109500,102,0,B|141:156|141:156|266:192,1,179.999995231629,10|0,0:0|0:0,0:0:0:0:
68,13,109725,1,0,0:0:0:0:
68,13,109800,6,0,B|91:61|91:61|236:102,1,179.999995231629,2|0,0:0|0:0,0:0:0:0:
413,36,110025,1,0,0:0:0:0:
423,69,110100,102,0,B|400:126|400:126|402:144|402:144|364:245,1,179.999995231629,10|0,0:0|0:0,0:0:0:0:
276,25,110325,1,0,0:0:0:0:
276,25,110400,6,0,B|317:21|317:21|266:152,1,179.999995231629,2|2,0:0|0:0,0:0:0:0:
280,376,110700,102,0,B|249:333|249:333|305:200,1,179.999995231629,10|0,0:0|0:0,0:0:0:0:
33,180,110925,1,0,0:0:0:0:
33,180,111000,6,0,B|89:194|89:194|109:225|109:225|207:247,1,179.999995231629,2|0,0:0|0:0,0:0:0:0:
251,361,111225,1,0,0:0:0:0:
280,376,111300,102,0,B|336:362|336:362|356:331|356:331|454:309,1,179.999995231629,10|0,0:0|0:0,0:0:0:0:
117,372,111525,1,0,0:0:0:0:
117,372,111600,6,0,B|105:313|105:313|230:284,1,179.999995231629,2|2,0:0|0:0,0:0:0:0:
503,184,111900,102,0,B|439:204|439:204|421:199|421:199|320:225,1,179.999995231629,10|0,0:0|0:0,0:0:0:0:
210,160,112125,1,0,0:0:0:0:
190,153,112200,6,0,L|380:109,1,179.999995231629,2|0,0:0|0:0,0:0:0:0:
45,32,112425,1,0,0:0:0:0:
25,14,112500,102,0,B|97:28|97:28|118:63|118:63|194:76,1,179.999995231629,10|0,0:0|0:0,0:0:0:0:
324,27,112800,6,0,B|288:52|288:52|257:197,1,179.999995231629,2|2,0:0|0:0,0:0:0:0:
137,271,113025,1,0,0:0:0:0:
137,271,113100,102,0,B|190:244|190:244|141:404,1,179.999995231629,10|0,0:0|0:0,0:0:0:0:
57,180,113325,1,0,0:0:0:0:
40,165,113400,6,0,B|96:173|96:173|108:183|108:183|226:205,1,179.999995231629,2|0,0:0|0:0,0:0:0:0:
350,328,113625,1,0,0:0:0:0:
350,328,113700,102,0,L|398:142,1,179.999995231629,10|0,0:0|0:0,0:0:0:0:
244,323,113925,1,0,0:0:0:0:
244,323,114000,6,0,B|257:366|257:366|292:222,1,179.999995231629,2|2,0:0|0:0,0:0:0:0:
146,151,114300,6,0,P|187:196|232:200,3,89.9999976158143,10|0|0|0,0:0|0:0|0:0|0:0,0:0:0:0:
127,76,114600,6,0,P|96:130|101:162,3,89.9999976158143,2|0|0|0,0:0|0:0|0:0|0:0,0:0:0:0:
190,38,114900,6,0,P|142:25|88:42,3,89.9999976158143,10|0|0|0,0:0|0:0|0:0|0:0,0:0:0:0:
248,84,115200,6,0,P|242:28|206:-10,3,89.9999976158143,2|0|0|0,0:0|0:0|0:0|0:0,0:0:0:0:
221,153,115500,38,0,P|298:116|301:-1,1,179.999995231629,8|0,0:0|0:0,0:0:0:0:
41,265,115725,1,2,0:0:0:0:
36,283,115800,6,0,L|256:260,1,179.999995231629,2|0,0:0|0:0,0:0:0:0:
334,375,116025,1,2,0:0:0:0:
334,375,116100,102,0,B|302:315|302:315|290:196,1,179.999995231629,10|0,0:0|0:0,0:0:0:0:
449,258,116325,1,2,0:0:0:0:
449,258,116400,6,0,B|432:291|432:291|377:310,1,89.9999976158143,2|0,0:1|0:1,0:1:0:0:
290,203,116550,6,0,B|314:161|314:161|361:150,1,89.9999976158143,2|0,0:1|0:1,0:1:0:0:
468,15,116700,38,0,B|477:53|477:53|392:71|392:71|370:57|370:57|253:78,1,270.000003147125,14|0,0:0|0:0,0:0:0:0:
50,174,116925,1,0,0:0:0:0:
15,188,117000,22,0,B|111:168|111:168|134:172|134:172|288:143,1,270.000003147125,2|0,0:0|0:0,0:0:0:0:
101,37,117225,1,0,0:0:0:0:
101,37,117300,86,0,B|65:73|65:73|287:34,1,270.000003147125,10|0,0:0|0:0,0:0:0:0:
479,199,117525,1,0,0:0:0:0:
479,199,117600,22,0,P|450:87|356:168,1,270.000003147125,2|0,0:0|0:0,0:0:0:0:
261,307,117825,1,0,0:0:0:0:
243,328,117900,86,0,B|227:272|227:272|394:238|394:238|390:295,1,270.000003147125,10|0,0:0|0:0,0:0:0:0:
455,364,118125,1,0,0:0:0:0:
455,364,118200,22,0,B|464:278|464:278|475:256|475:256|490:93,1,270.000003147125,2|0,0:0|0:0,0:0:0:0:
354,151,118500,86,0,B|308:141|308:141|85:181,1,270.000003147125,10|0,0:0|0:0,0:0:0:0:
25,268,118725,1,0,0:0:0:0:
25,268,118800,22,0,B|88:286|88:286|169:251,1,135.000001573563,2|0,0:0|0:0,0:0:0:0:
135,90,118950,2,0,B|70:71|70:71|-9:107,1,135.000001573563,2|0,0:0|0:0,0:0:0:0:
139,363,119100,86,0,B|224:323|224:323|262:140,1,270.000003147125,10|0,0:0|0:0,0:0:0:0:
174,22,119325,1,0,0:0:0:0:
161,3,119400,22,0,B|196:55|196:55|145:286,1,270.000003147125,2|0,0:0|0:0,0:0:0:0:
3,384,119625,1,0,0:0:0:0:
3,384,119700,86,0,B|87:354|87:354|114:288|114:288|227:244,1,270.000003147125,10|0,0:0|0:0,0:0:0:0:
278,165,119925,1,0,0:0:0:0:
259,150,120000,22,0,B|343:179|343:179|370:245|370:245|483:289,1,270.000003147125,2|0,0:0|0:0,0:0:0:0:
311,350,120225,1,0,0:0:0:0:
311,350,120300,86,0,B|278:301|278:301|349:324|349:324|367:338|367:338|478:374,1,270.000003147125,10|0,0:0|0:0,0:0:0:0:
502,215,120525,1,0,0:0:0:0:
502,215,120600,22,0,B|428:189|428:189|399:90|399:90|500:125,1,270.000003147125,2|0,0:0|0:0,0:0:0:0:
288,27,120900,86,0,B|312:116|312:116|324:130|324:130|368:299,1,270.000003147125,10|0,0:0|0:0,0:0:0:0:
271,359,121125,1,0,0:0:0:0:
267,343,121200,22,0,B|246:248|246:248|271:282,1,135.000001573563,2|0,0:0|0:0,0:0:0:0:
380,1,121350,2,0,B|401:96|401:96|376:62,1,135.000001573563,2|0,0:0|0:0,0:0:0:0:
193,157,121500,86,0,B|188:187|188:187|143:10|143:10|205:19,1,270.000003147125,10|0,0:0|0:0,0:0:0:0:
92,193,121725,1,0,0:0:0:0:
92,193,121800,22,0,B|108:254|108:254|107:266|107:266|134:357|134:357|131:296|131:296|146:247,1,270.000003147125,2|0,0:0|0:0,0:0:0:0:
12,98,122025,1,0,0:0:0:0:
12,98,122100,86,0,B|18:139|18:139|258:176,1,270.000003147125,10|0,0:0|0:0,0:0:0:0:
271,359,122325,1,0,0:0:0:0:
271,359,122400,22,0,B|319:328|319:328|341:188|341:188|457:208,1,270.000003147125,2|0,0:0|0:0,0:0:0:0:
249,270,122625,1,0,0:0:0:0:
232,254,122700,86,0,B|250:271|250:271|283:63|283:63|312:18,1,270.000003147125,10|0,0:0|0:0,0:0:0:0:
396,111,122925,1,0,0:0:0:0:
396,111,123000,22,0,B|381:138|381:138|345:374,1,270.000003147125,2|0,0:0|0:0,0:0:0:0:
478,360,123300,86,0,B|449:335|449:335|221:287,1,270.000003147125,10|0,0:0|0:0,0:0:0:0:
57,333,123525,1,0,0:0:0:0:
71,343,123600,22,0,L|204:364,1,135.000001573563,2|0,0:0|0:0,0:0:0:0:
501,252,123750,2,0,L|368:225,1,135.000001573563,2|0,0:0|0:0,0:0:0:0:
97,222,123900,86,0,B|49:237|49:237|204:265|204:265|188:196,1,270.000003147125,10|0,0:0|0:0,0:0:0:0:
241,61,124125,1,0,0:0:0:0:
241,61,124200,22,0,B|193:46|193:46|348:18|348:18|332:87,1,270.000003147125,2|0,0:0|0:0,0:0:0:0:
63,109,124425,1,0,0:0:0:0:
43,94,124500,86,0,B|105:105|105:105|122:120|122:120|305:153,1,270.000003147125,10|0,0:0|0:0,0:0:0:0:
398,295,124725,1,0,0:0:0:0:
398,295,124800,22,0,B|383:300|358:331|358:331|388:201|388:201|385:192|385:192|406:102,1,270.000003147125,2|0,0:0|0:0,0:0:0:0:
258,359,125025,1,0,0:0:0:0:
275,342,125100,86,0,L|353:-10,1,270.000003147125,10|0,0:0|0:0,0:0:0:0:
466,41,125325,1,0,0:0:0:0:
466,41,125400,22,0,B|510:15|510:15|460:247,1,270.000003147125,2|0,0:0|0:0,0:0:0:0:
197,273,125700,86,0,B|237:273|237:273|468:322,1,270.000003147125,10|0,0:0|0:0,0:0:0:0:
209,183,125925,1,0,0:0:0:0:
192,169,126000,22,0,B|227:196|227:196|330:214,1,135.000001573563,2|0,0:0|0:0,0:0:0:0:
199,367,126150,2,0,B|110:349|110:349|68:360,1,135.000001573563,2|0,0:0|0:0,0:0:0:0:
187,54,126300,54,0,B|119:77|119:77|105:174|105:174|109:188|109:188|96:277,1,270.000003147125,14|0,0:0|0:0,0:0:0:0:
48,49,126525,1,0,0:0:0:0:
45,24,126600,70,0,B|31:120|31:120|38:128|38:128|11:305,1,270.000003147125,2|0,0:0|0:0,0:0:0:0:
288,40,126825,1,0,0:0:0:0:
284,25,126900,38,0,P|292:119|351:12,1,270.000003147125,10|0,0:0|0:0,0:0:0:0:
487,181,127125,1,0,0:0:0:0:
474,162,127200,70,0,B|465:191|465:191|271:230|271:230|244:283,1,270.000003147125,2|0,0:0|0:0,0:0:0:0:
290,364,127425,1,0,0:0:0:0:
290,364,127500,38,0,B|322:311|322:311|484:278|484:278|473:331,1,270.000003147125,10|0,0:0|0:0,0:0:0:0:
190,379,127725,1,0,0:0:0:0:
190,379,127800,70,0,B|172:221|172:221|165:208|165:208|186:109,1,270.000003147125,2|0,0:0|0:0,0:0:0:0:
270,14,128100,38,0,B|280:47|280:47|85:88|85:88|72:38,1,270.000003147125,10|0,0:0|0:0,0:0:0:0:
13,234,128325,1,0,0:0:0:0:
13,234,128400,70,0,B|79:235|79:235|99:152,1,135.000001573563,2|0,0:0|0:0,0:0:0:0:
291,122,128550,2,0,B|278:186|278:186|356:211,1,135.000001573563,2|0,0:0|0:0,0:0:0:0:
468,149,128700,38,0,B|419:149|419:149|193:208,1,270.000003147125,10|0,0:0|0:0,0:0:0:0:
461,38,128925,1,0,0:0:0:0:
472,15,129000,70,0,B|462:58|462:58|221:121,1,270.000003147125,2|0,0:0|0:0,0:0:0:0:
185,331,129225,1,0,0:0:0:0:
183,363,129300,38,0,B|146:203|146:203|149:170|149:170|130:97,1,270.000003147125,10|0,0:0|0:0,0:0:0:0:
294,360,129525,1,0,0:0:0:0:
294,360,129600,70,0,B|281:306|281:306|506:251,1,270.000003147125,2|0,0:0|0:0,0:0:0:0:
489,177,129825,1,0,0:0:0:0:
499,157,129900,38,0,B|377:186|377:186|356:183|356:183|226:215,1,270.000003147125,10|0,0:0|0:0,0:0:0:0:
59,156,130125,1,0,0:0:0:0:
59,156,130200,70,0,B|4:268|4:268|147:367,1,270.000003147125,2|0,0:0|0:0,0:0:0:0:
115,227,130500,38,0,B|184:94|184:94|62:25,1,270.000003147125,10|0,0:0|0:0,0:0:0:0:
253,62,130725,1,0,0:0:0:0:
277,82,130800,70,0,L|414:69,1,135.000001573563,2|0,0:0|0:0,0:0:0:0:
263,290,130950,2,0,L|235:111,1,135.000001573563,2|0,0:0|0:0,0:0:0:0:
415,373,131100,38,0,B|305:352|305:352|263:291|263:291|174:277,1,270.000003147125,10|0,0:0|0:0,0:0:0:0:
369,278,131325,1,0,0:0:0:0:
369,278,131400,70,0,B|332:220|332:220|305:19,1,270.000003147125,2|0,0:0|0:0,0:0:0:0:
474,224,131625,1,0,0:0:0:0:
484,245,131700,38,0,B|428:231|428:231|421:221|421:221|223:185,1,270.000003147125,10|0,0:0|0:0,0:0:0:0:
100,182,131925,1,0,0:0:0:0:
100,182,132000,70,0,B|143:158|143:158|96:274|96:274|4:204,1,270.000003147125,2|0,0:0|0:0,0:0:0:0:
180,60,132225,1,0,0:0:0:0:
171,39,132300,38,0,B|190:88|190:88|414:133,1,270.000003147125,10|0,0:0|0:0,0:0:0:0:
41,68,132525,1,0,0:0:0:0:
41,68,132600,70,0,B|72:76|72:76|91:65|91:65|341:46,1,270.000003147125,2|0,0:0|0:0,0:0:0:0:
443,39,132900,38,0,B|481:79|481:79|470:101|470:101|485:128|485:128|468:179|468:179|410:216|410:216|362:193,1,270.000003147125,10|0,0:0|0:0,0:0:0:0:
366,342,133125,1,0,0:0:0:0:
393,334,133200,70,0,L|509:253,1,135.000001573563,2|0,0:0|0:0,0:0:0:0:
257,165,133350,2,0,L|333:281,1,135.000001573563,2|0,0:0|0:0,0:0:0:0:
153,223,133500,38,0,B|170:183|170:183|212:249|212:249|214:264|214:264|270:349|270:349|240:362,1,270.000003147125,10|0,0:0|0:0,0:0:0:0:
25,135,133725,1,0,0:0:0:0:
19,114,133800,70,0,B|42:163|42:163|240:69,1,270.000003147125,2|0,0:0|0:0,0:0:0:0:
26,280,134025,1,0,0:0:0:0:
36,258,134100,38,0,L|297:131,1,270.000003147125,10|0,0:0|0:0,0:0:0:0:
490,208,134325,1,0,0:0:0:0:
490,208,134400,70,0,B|445:136|445:136|268:235,1,270.000003147125,2|0,0:0|0:0,0:0:0:0:
175,282,134625,1,0,0:0:0:0:
175,282,134700,38,0,P|233:346|273:220,1,270.000003147125,10|0,0:0|0:0,0:0:0:0:
390,366,134925,1,0,0:0:0:0:
390,366,135000,70,0,B|431:307|431:307|404:178|404:178|337:130,1,270.000003147125,2|0,0:0|0:0,0:0:0:0:
471,27,135300,38,0,B|457:62|457:62|512:299,1,270.000003147125,10|0,0:0|0:0,0:0:0:0:
312,39,135525,1,0,0:0:0:0:
296,25,135600,70,0,B|325:39|325:39|349:138,1,135.000001573563,2|0,0:0|0:0,0:0:0:0:
123,118,135750,2,0,L|260:93,1,135.000001573563,2|0,0:0|0:0,0:0:0:0:
399,325,135900,6,0,B|310:294|310:294|282:225|282:225|165:179,1,270.000003147125,14|0,0:0|0:0,0:0:0:0:
58,269,136125,1,0,0:0:0:0:
58,269,136200,38,0,B|33:212|33:212|233:287,1,270.000003147125,2|0,0:0|0:0,0:0:0:0:
114,351,136425,1,0,0:0:0:0:
114,372,136500,70,0,B|133:326|133:326|132:313|132:313|221:108,1,270.000003147125,10|0,0:0|0:0,0:0:0:0:
180,14,136725,1,0,0:0:0:0:
180,14,136800,38,0,P|213:127|319:60,1,270.000003147125,2|0,0:0|0:0,0:0:0:0:
61,150,137025,1,0,0:0:0:0:
60,166,137100,70,0,P|108:60|215:125,1,270.000003147125,10|0,0:0|0:0,0:0:0:0:
227,284,137325,1,0,0:0:0:0:
227,284,137400,38,0,B|326:304|326:304|337:316|337:316|366:322|366:322|384:318|384:318|504:344,1,270.000003147125,2|0,0:0|0:0,0:0:0:0:
151,181,137700,70,0,B|249:204|249:204|264:198|264:198|293:205|293:205|307:216|307:216|410:240,1,270.000003147125,10|0,0:0|0:0,0:0:0:0:
402,111,137925,1,0,0:0:0:0:
402,111,138000,38,0,B|391:157|391:157|477:178,1,135.000001573563,2|0,0:0|0:0,0:0:0:0:
212,328,138150,2,0,B|225:282|225:282|310:307,1,135.000001573563,2|0,0:0|0:0,0:0:0:0:
301,41,138300,70,0,B|283:93|283:93|311:319,1,270.000003147125,10|0,0:0|0:0,0:0:0:0:
496,365,138525,1,0,0:0:0:0:
496,365,138600,38,0,P|464:258|410:354,1,270.000003147125,2|0,0:0|0:0,0:0:0:0:
119,286,138825,1,0,0:0:0:0:
119,286,138900,70,0,P|150:179|204:275,1,270.000003147125,10|0,0:0|0:0,0:0:0:0:
147,34,139125,1,0,0:0:0:0:
140,14,139200,38,0,B|183:64|183:64|211:278,1,270.000003147125,2|0,0:0|0:0,0:0:0:0:
294,348,139425,1,0,0:0:0:0:
304,362,139500,70,0,L|265:88,1,270.000003147125,10|0,0:0|0:0,0:0:0:0:
45,131,139725,1,0,0:0:0:0:
32,136,139800,38,0,B|116:107|116:107|143:41|143:41|259:12,1,270.000003147125,2|0,0:0|0:0,0:0:0:0:
382,60,140100,70,0,B|210:113|210:113|170:203,1,270.000003147125,10|0,0:0|0:0,0:0:0:0:
68,360,140325,1,0,0:0:0:0:
68,360,140400,38,0,B|130:336|130:336|151:258,1,135.000001573563,2|0,0:0|0:0,0:0:0:0:
369,147,140550,2,0,B|303:168|303:168|276:242,1,135.000001573563,2|0,0:0|0:0,0:0:0:0:
228,374,140700,70,0,B|244:317|244:317|212:108,1,270.000003147125,10|0,0:0|0:0,0:0:0:0:
127,64,140925,1,0,0:0:0:0:
137,44,141000,38,0,B|115:87|115:87|290:60|290:60|259:28,1,270.000003147125,2|0,0:0|0:0,0:0:0:0:
56,234,141225,1,0,0:0:0:0:
56,234,141300,70,0,B|9:203|9:203|226:170,1,270.000003147125,10|0,0:0|0:0,0:0:0:0:
419,288,141525,1,0,0:0:0:0:
419,288,141600,38,0,B|309:302|309:302|274:251|274:251|176:267,1,270.000003147125,2|0,0:0|0:0,0:0:0:0:
351,105,141825,1,0,0:0:0:0:
351,105,141900,70,0,P|383:211|444:122,1,270.000003147125,10|0,0:0|0:0,0:0:0:0:
55,341,142125,1,0,0:0:0:0:
50,318,142200,38,0,B|58:370|58:370|241:338|241:338|265:375,1,270.000003147125,2|0,0:0|0:0,0:0:0:0:
243,125,142500,70,0,B|220:169|220:169|-1:204,1,270.000003147125,10|0,0:0|0:0,0:0:0:0:
324,44,142725,1,0,0:0:0:0:
335,34,142800,38,0,L|197:56,1,135.000001573563,2|0,0:0|0:0,0:0:0:0:
126,272,142950,2,0,L|260:249,1,135.000001573563,2|0,0:0|0:0,0:0:0:0:
473,227,143100,70,0,B|380:210|380:210|341:146|341:146|219:119,1,270.000003147125,10|0,0:0|0:0,0:0:0:0:
339,354,143325,1,0,0:0:0:0:
339,354,143400,38,0,B|330:290|330:290|474:318|474:318|424:370,1,270.000003147125,2|0,0:0|0:0,0:0:0:0:
460,71,143625,1,0,0:0:0:0:
463,44,143700,70,0,B|433:80|433:80|403:306,1,270.000003147125,10|0,0:0|0:0,0:0:0:0:
240,384,143925,1,0,0:0:0:0:
240,384,144000,38,0,B|269:174|269:174|242:121,1,270.000003147125,2|0,0:0|0:0,0:0:0:0:
63,116,144225,1,0,0:0:0:0:
88,130,144300,70,0,L|368:113,1,270.000003147125,10|0,0:0|0:0,0:0:0:0:
25,229,144525,1,0,0:0:0:0:
25,229,144600,38,0,B|15:266|15:266|202:254|202:254|155:238,1,270.000003147125,2|0,0:0|0:0,0:0:0:0:
384,284,144900,70,0,B|346:353|346:353|244:366|244:366|294:271,1,270.000003147125,10|0,0:0|0:0,0:0:0:0:
261,209,145125,1,0,0:0:0:0:
283,199,145200,38,0,L|430:189,1,135.000001573563,2|0,0:0|0:0,0:0:0:0:
132,369,145350,2,0,L|206:250,1,135.000001573563,2|0,0:0|0:0,0:0:0:0:
357,113,145500,102,0,B|297:118|297:118|285:116|285:116|190:124|190:124|132:218,1,270.000003147125,14|0,0:0|0:0,0:0:0:0:
23,111,145725,1,0,0:0:0:0:
23,111,145800,22,0,B|110:88|110:88|152:26|152:26|258:18,1,270.000003147125,2|0,0:0|0:0,0:0:0:0:
459,100,146025,1,0,0:0:0:0:
459,100,146100,86,0,B|489:79|489:79|225:96,1,270.000003147125,10|0,0:0|0:0,0:0:0:0:
68,195,146325,1,0,0:0:0:0:
68,195,146400,22,0,B|38:216|38:216|302:199,1,270.000003147125,2|0,0:0|0:0,0:0:0:0:
453,283,146625,1,0,0:0:0:0:
453,283,146700,86,0,P|426:176|364:282,1,270.000003147125,10|0,0:0|0:0,0:0:0:0:
196,382,146925,1,0,0:0:0:0:
196,382,147000,22,0,P|178:301|262:383,1,270.000003147125,2|0,0:0|0:0,0:0:0:0:
390,377,147300,86,0,B|376:256|376:256|368:246|368:246|349:105,1,270.000003147125,10|0,0:0|0:0,0:0:0:0:
448,120,147525,1,0,0:0:0:0:
448,120,147600,22,0,B|478:58|478:58|424:10,1,135.000001573563,2|0,0:0|0:0,0:0:0:0:
257,101,147750,2,0,B|226:162|226:162|280:210,1,135.000001573563,2|0,0:0|0:0,0:0:0:0:
316,19,147900,86,0,B|248:25|248:25|241:20|241:20|144:29|144:29|150:128,1,270.000003147125,10|0,0:0|0:0,0:0:0:0:
5,331,148125,1,0,0:0:0:0:
5,331,148200,22,0,B|109:322|109:322|118:319|118:319|168:314|168:314|160:206,1,270.000003147125,2|0,0:0|0:0,0:0:0:0:
29,171,148425,1,0,0:0:0:0:
13,159,148500,86,0,B|51:176|51:176|287:158,1,270.000003147125,10|0,0:0|0:0,0:0:0:0:
476,216,148725,1,0,0:0:0:0:
463,203,148800,22,0,B|372:171|372:171|343:100|343:100|221:52,1,270.000003147125,2|0,0:0|0:0,0:0:0:0:
289,248,149025,1,0,0:0:0:0:
289,248,149100,86,0,B|377:277|377:277|389:274|389:274|477:301|477:301|454:383,1,270.000003147125,10|0,0:0|0:0,0:0:0:0:
244,367,149325,1,0,0:0:0:0:
234,360,149400,22,0,B|194:332|194:332|172:159|172:159|219:123,1,270.000003147125,2|0,0:0|0:0,0:0:0:0:
110,33,149700,86,0,B|249:38|249:38|255:43|255:43|387:47,1,270.000003147125,10|0,0:0|0:0,0:0:0:0:
445,175,149925,1,0,0:0:0:0:
452,159,150000,22,0,L|452:12,1,135.000001573563,2|0,0:0|0:0,0:0:0:0:
289,248,150150,2,0,L|441:254,1,135.000001573563,2|0,0:0|0:0,0:0:0:0:
342,380,150300,86,0,B|364:345|364:345|367:103,1,270.000003147125,10|0,0:0|0:0,0:0:0:0:
138,194,150525,1,0,0:0:0:0:
138,194,150600,22,0,B|106:142|106:142|270:129|270:129|229:178,1,270.000003147125,2|0,0:0|0:0,0:0:0:0:
267,371,150825,1,0,0:0:0:0:
267,371,150900,86,0,B|157:350|157:350|115:289|115:289|26:275,1,270.000003147125,10|0,0:0|0:0,0:0:0:0:
227,285,151125,1,0,0:0:0:0:
227,285,151200,22,0,B|194:242|194:242|170:24,1,270.000003147125,2|0,0:0|0:0,0:0:0:0:
0,46,151425,1,0,0:0:0:0:
0,46,151500,86,0,P|37:135|53:23,1,270.000003147125,10|0,0:0|0:0,0:0:0:0:
351,95,151725,1,0,0:0:0:0:
353,111,151800,22,0,B|341:13|341:13|134:30,1,270.000003147125,2|0,0:0|0:0,0:0:0:0:
457,146,152100,86,0,L|163:175,1,270.000003147125,10|0,0:0|0:0,0:0:0:0:
80,284,152325,1,0,0:0:0:0:
80,284,152400,22,0,B|68:188|68:188|106:184,1,135.000001573563,2|0,0:0|0:0,0:0:0:0:
256,104,152550,2,0,L|272:239,1,135.000001573563,2|0,0:0|0:0,0:0:0:0:
271,358,152700,86,0,B|291:383|291:383|141:351|141:351|211:300,1,270.000003147125,10|0,0:0|0:0,0:0:0:0:
446,282,152925,1,0,0:0:0:0:
426,273,153000,22,0,L|157:246,1,270.000003147125,2|0,0:0|0:0,0:0:0:0:
409,112,153225,1,0,0:0:0:0:
428,91,153300,86,0,B|411:132|411:132|387:376,1,270.000003147125,10|0,0:0|0:0,0:0:0:0:
316,0,153525,1,0,0:0:0:0:
316,0,153600,22,0,B|339:49|339:49|310:262,1,270.000003147125,2|0,0:0|0:0,0:0:0:0:
161,353,153825,1,0,0:0:0:0:
159,371,153900,86,0,B|170:282|170:282|229:242|229:242|249:122,1,270.000003147125,10|0,0:0|0:0,0:0:0:0:
112,64,154125,1,0,0:0:0:0:
112,64,154200,22,0,B|164:36|164:36|144:168|144:168|75:204,1,270.000003147125,2|0,0:0|0:0,0:0:0:0:
1,293,154500,86,0,L|289:267,1,270.000003147125,10|0,0:0|0:0,0:0:0:0:
380,371,154725,1,0,0:0:0:0:
380,371,154800,22,0,B|401:302|401:302|335:259,1,135.000001573563,2|0,0:0|0:0,0:0:0:0:
292,19,154950,2,0,L|305:168,1,135.000001573563,2|0,0:0|0:0,0:0:0:0:
473,202,155100,86,0,B|513:184|513:184|444:193|444:193|434:186|434:186|374:195,1,179.999995231629,4|0,0:0|0:0,0:0:0:0:
268,345,157500,54,0,B|282:304|282:304|157:245,1,179.999995231629
0,379,157650,54,0,B|34:374|34:374|42:354|42:354|176:342,1,179.999995231629
290,161,158700,54,0,B|330:186|330:186|374:181|374:181|449:233,1,179.999995231629
212,186,159150,54,0,B|214:138|214:138|187:102|187:102|195:12,1,179.999995231629
274,240,159600,54,0,B|231:261|231:261|213:303|213:303|131:341,1,179.999995231629
3,258,159900,54,0,B|-20:346|-20:346|76:378,1,179.999995231629
78,205,160050,54,0,B|62:129|62:129|69:99|69:99|76:95|76:95|80:72|80:72|70:33,1,179.999995231629
287,355,162300,54,0,B|303:278|303:278|299:250|299:250|316:165,1,179.999995231629
218,21,162450,54,0,B|224:71|224:71|195:208,1,179.999995231629
491,371,163500,54,0,B|407:277|407:277|451:237,1,179.999995231629
424,228,163650,1,0,0:0:0:0:
402,215,163725,1,0,0:0:0:0:
379,203,163800,53,0,0:0:0:0:
358,192,163875,1,0,0:0:0:0:
332,177,163950,2,0,B|298:207|298:207|179:109,1,179.999995231629
142,202,164100,53,0,0:0:0:0:
108,212,164175,1,0,0:0:0:0:
74,223,164250,1,0,0:0:0:0:
39,233,164325,1,0,0:0:0:0:
5,244,164400,54,0,B|-36:271|-36:271|-8:215|-17:179|-17:179|10:206|81:212|81:212|117:173|117:173|195:171|195:171|252:143|252:143|261:102|261:102|324:72,1,539.999985694885
489,104,164700,6,0,B|480:144|480:144|365:123|365:123|306:37|306:37|181:17,1,359.999990463257
193,346,165150,6,0,B|155:369|155:369|269:348|269:348|328:262|328:262|372:256|372:256|385:314,1,359.999990463257
119,50,165600,6,0,B|151:95|151:95|141:133|141:133|142:143|142:143|130:209|130:209|50:263|50:263|27:373,1,359.999990463257
