osu file format v14

[General]
AudioFilename: audio.mp3
AudioLeadIn: 0
PreviewTime: 87088
Countdown: 0
SampleSet: Normal
StackLeniency: 0.7
Mode: 1
LetterboxInBreaks: 0
WidescreenStoryboard: 0

[Editor]
Bookmarks: 338,9480,23195,41480,59766,68909,78052,87195,105480,114623,123766,128338,137480,146623,154623,164909,201480,210623,219766,238052,247195,256338
DistanceSpacing: 3
BeatDivisor: 4
GridSize: 16
TimelineZoom: 2.099999

[Metadata]
Title:Apocaliptix //-Another-//
TitleUnicode:Apocaliptix //-Another-//
Artist:Juggernaut.
ArtistUnicode:Juggernaut.
Creator:op45667
Version:Desolation
Source:BOFXV -THE BMS OF FIGHTERS eXtreme Violence-
Tags:kyex electronic instrumental siegfried apocalypse apocalyptic renaissance hardcore drumstep dubstep bofxv19
BeatmapID:3898450
BeatmapSetID:1892078

[Difficulty]
HPDrainRate:4.5
CircleSize:5
OverallDifficulty:7
ApproachRate:5
SliderMultiplier:1.4
SliderTickRate:1

[Events]
//Background and Video events
0,0,"BG.jpg",0,0
//Break Periods
//Storyboard Layer 0 (Background)
//Storyboard Layer 1 (Fail)
//Storyboard Layer 2 (Pass)
//Storyboard Layer 3 (Foreground)
//Storyboard Layer 4 (Overlay)
//Storyboard Sound Samples

[TimingPoints]
338,285.714285714286,4,1,0,80,1,0
338,-83.3333333333333,4,1,0,80,0,0
409,-83.3333333333333,4,1,0,70,0,0
1475,-125.00524,4,1,0,70,0,0
2047,-128.04095,4,1,0,70,0,0
2618,-131.14488,4,1,0,70,0,0
3761,-137.58606,4,1,0,70,0,0
4904,-144.34363,4,1,0,70,0,0
6047,-151.43307,4,1,0,70,0,0
6618,-155.10406,4,1,0,70,0,0
7190,-158.87071,4,1,0,70,0,0
8333,-166.67366,4,1,0,70,0,0
9476,-83.3333333333333,4,1,0,100,0,0
9905,-111.111111111111,4,1,0,80,0,0
14048,-83.3333333333333,4,1,0,100,0,0
14088,-83.3333333333333,4,1,0,80,0,0
14476,-111.111111111111,4,1,0,80,0,0
18047,-111.111115,4,1,0,80,0,0
18190,-114.942528735632,4,1,0,80,0,0
18333,-119.047619047619,4,1,0,80,0,0
18475,-123.456790123457,4,1,0,80,0,0
18619,-83.3333333333333,4,1,0,100,0,0
18761,-125,4,1,0,90,0,0
18904,-122.28269,4,1,0,90,0,0
19047,-119.62445,4,1,0,90,0,0
19118,-118.32617,4,1,0,90,0,0
19190,-117.024,4,1,0,90,0,0
19261,-115.753944,4,1,0,90,0,0
19333,-114.48009,4,1,0,90,0,0
19475,-112.00867,4,1,0,90,0,0
19547,-110.77602,4,1,0,90,0,0
19618,-109.57377,4,1,0,90,0,0
19690,-108.36792,4,1,0,90,0,0
19761,-83.3333333333333,4,1,0,100,0,0
19904,-104.861626,4,1,0,90,0,0
20047,-102.58209,4,1,0,90,0,0
20190,-100.35212,4,1,0,90,0,0
20333,-98.17062,4,1,0,90,0,0
20404,-97.10519,4,1,0,90,0,0
20475,-96.05131,4,1,0,90,0,0
20547,-94.99426,4,1,0,90,0,0
20618,-93.963295,4,1,0,90,0,0
20761,-91.92067,4,1,0,90,0,0
20833,-90.90909,4,1,0,90,0,0
20905,-80,4,1,0,100,0,0
21047,-111.078384,4,1,0,90,0,0
21118,-108.77949,4,1,0,90,0,0
21190,-106.49677,4,1,0,90,0,0
21261,-104.292694,4,1,0,90,0,0
21333,-102.10415,4,1,0,90,0,0
21404,-99.990974,4,1,0,90,0,0
21475,-97.92154,4,1,0,90,0,0
21547,-95.866684,4,1,0,90,0,0
21618,-93.88261,4,1,0,90,0,0
21690,-91.912506,4,1,0,90,0,0
21761,-90.01027,4,1,0,90,0,0
21833,-88.12144,4,1,0,90,0,0
21904,-86.29765,4,1,0,90,0,0
21975,-84.51161,4,1,0,90,0,0
22047,-82.73816,4,1,0,90,0,0
22118,-81.025795,4,1,0,90,0,0
22190,-79.32549,4,1,0,90,0,0
22261,-77.683754,4,1,0,90,0,0
22333,-76.05359,4,1,0,90,0,0
22404,-74.47956,4,1,0,90,0,0
22475,-72.93811,4,1,0,90,0,0
22547,-71.40753,4,1,0,90,0,0
22618,-66.666664,4,1,0,90,0,0
22690,-68.843636,4,1,0,90,0,0
22761,-71.059975,4,1,0,90,0,0
22833,-73.3804,4,1,0,90,0,0
22904,-75.74279,4,1,0,90,0,0
22975,-78.18124,4,1,0,90,0,0
23047,-80.73421,4,1,0,90,0,0
23118,-83.333336,4,1,0,90,0,0
23191,-66.6666683733334,4,1,0,100,0,0
23748,-74.12539,4,1,0,100,0,0
23795,-76.620125,4,1,0,100,0,0
23843,-79.34741,4,1,0,100,0,0
23890,-82.21283,4,1,0,100,0,0
23962,-83.3333333333333,4,1,0,100,0,0
24047,-76.92308,4,1,0,100,0,0
24094,-77.48908,4,1,0,100,0,0
24142,-78.07144,4,1,0,100,0,0
24190,-78.658165,4,1,0,100,0,0
24261,-79.534134,4,1,0,100,0,0
24333,-80.432396,4,1,0,100,0,0
24380,-81.024216,4,1,0,100,0,0
24428,-81.63313,4,1,0,100,0,0
24475,-82.2338,4,1,0,100,0,0
24547,-83.16256,4,1,0,100,0,0
24618,-84.088684,4,1,0,100,0,0
24690,-85.03838,4,1,0,100,0,0
24761,-85.9854,4,1,0,100,0,0
24833,-86.95652,4,1,0,100,0,0
24904,-74.07407,4,1,0,100,0,0
24952,-75.22311,4,1,0,100,0,0
24999,-76.36548,4,1,0,100,0,0
25047,-77.55006,4,1,0,100,0,0
25094,-78.72776,4,1,0,100,0,0
25142,-79.94898,4,1,0,100,0,0
25190,-81.18914,4,1,0,100,0,0
25261,-83.058914,4,1,0,100,0,0
25333,-84.99901,4,1,0,100,0,0
25404,-86.95651,4,1,0,100,0,0
25476,-66.6666666666667,4,1,0,100,0,0
26045,-74.02206,4,1,0,100,0,0
26092,-76.50667,4,1,0,100,0,0
26140,-79.13023,4,1,0,100,0,0
26188,-81.84377,4,1,0,100,0,0
26259,-83.3333333333333,4,1,0,100,0,0
26331,-71.410675,4,1,0,100,0,0
26378,-72.25669,4,1,0,100,0,0
26426,-73.13105,4,1,0,100,0,0
26473,-73.99745,4,1,0,100,0,0
26521,-74.892876,4,1,0,100,0,0
26569,-75.79914,4,1,0,100,0,0
26616,-76.69714,4,1,0,100,0,0
26688,-78.0935,4,1,0,100,0,0
26759,-79.49534,4,1,0,100,0,0
26831,-80.94263,4,1,0,100,0,0
26902,-82.395615,4,1,0,100,0,0
26973,-83.87468,4,1,0,100,0,0
27045,-85.4017,4,1,0,100,0,0
27116,-86.93473,4,1,0,100,0,0
27190,-74.07407,4,1,0,100,0,0
27237,-75.199,4,1,0,100,0,0
27285,-76.36548,4,1,0,100,0,0
27333,-77.55006,4,1,0,100,0,0
27404,-79.33601,4,1,0,100,0,0
27475,-81.16312,4,1,0,100,0,0
27547,-83.058914,4,1,0,100,0,0
27618,-84.97175,4,1,0,100,0,0
27690,-86.95651,4,1,0,100,0,0
27762,-62.5,4,1,0,100,0,0
28333,-74.12539,4,1,0,100,0,0
28380,-76.620125,4,1,0,100,0,0
28428,-79.34741,4,1,0,100,0,0
28475,-82.21283,4,1,0,100,0,0
28547,-83.3333333333333,4,1,0,100,0,0
28618,-74.125145,4,1,0,100,0,0
28666,-76.6625,4,1,0,100,0,0
28713,-79.32115,4,1,0,100,0,0
28761,-82.233696,4,1,0,100,0,0
28833,-83.3333333333333,4,1,0,100,0,0
28904,-74.09603,4,1,0,100,0,0
28952,-75.16537,4,1,0,100,0,0
28999,-76.24276,4,1,0,100,0,0
29047,-77.37542,4,1,0,100,0,0
29118,-79.11392,4,1,0,100,0,0
29190,-80.95854,4,1,0,100,0,0
29261,-82.86376,4,1,0,100,0,0
29333,-84.889626,4,1,0,100,0,0
29404,-86.98676,4,1,0,100,0,0
29475,-71.42857,4,1,0,100,0,0
29523,-73.10154,4,1,0,100,0,0
29571,-74.813705,4,1,0,100,0,0
29618,-76.52904,4,1,0,100,0,0
29666,-78.32147,4,1,0,100,0,0
29713,-80.11724,4,1,0,100,0,0
29761,-81.99371,4,1,0,100,0,0
29833,-84.89117,4,1,0,100,0,0
29904,-87.8486,4,1,0,100,0,0
29975,-90.90909,4,1,0,100,0,0
30048,-58.8235294117647,4,1,0,100,0,0
30605,-74.12539,4,1,0,100,0,0
30652,-76.620125,4,1,0,100,0,0
30700,-79.34741,4,1,0,100,0,0
30747,-82.21283,4,1,0,100,0,0
30819,-83.3333333333333,4,1,0,100,0,0
30887,-76.92308,4,1,0,100,0,0
30934,-79.3650793650794,4,1,0,100,0,0
30982,-81.9672131147541,4,1,0,100,0,0
31030,-84.7457627118644,4,1,0,100,0,0
31119,-86.2068965517241,4,1,0,100,0,0
31190,-71.42857,4,1,0,100,0,0
31237,-72.64802,4,1,0,100,0,0
31285,-73.93716,4,1,0,100,0,0
31333,-75.272865,4,1,0,100,0,0
31404,-77.33952,4,1,0,100,0,0
31475,-79.52286,4,1,0,100,0,0
31547,-81.866554,4,1,0,100,0,0
31618,-84.31703,4,1,0,100,0,0
31690,-86.95652,4,1,0,100,0,0
31761,-71.42857,4,1,0,100,0,0
31809,-72.42179,4,1,0,100,0,0
31856,-73.42144,4,1,0,100,0,0
31904,-74.47125,4,1,0,100,0,0
31952,-75.55153,4,1,0,100,0,0
31999,-76.6401,4,1,0,100,0,0
32047,-77.7847,4,1,0,100,0,0
32118,-79.54184,4,1,0,100,0,0
32190,-81.40671,4,1,0,100,0,0
32261,-83.333336,4,1,0,100,0,0
32334,-55.5555555555556,4,1,0,100,0,0
32548,-58.8235294117647,4,1,0,100,0,0
32762,-62.5,4,1,0,100,0,0
32905,-50,4,1,0,100,0,0
33191,-78.4313725490196,4,1,0,100,0,0
33262,-80,4,1,0,100,0,0
33333,-71.42857,4,1,0,100,0,0
33380,-72.64799,4,1,0,100,0,0
33428,-73.91485,4,1,0,100,0,0
33475,-75.176704,4,1,0,100,0,0
33523,-76.487656,4,1,0,100,0,0
33571,-77.82147,4,1,0,100,0,0
33618,-79.15002,4,1,0,100,0,0
33690,-81.22938,4,1,0,100,0,0
33761,-83.333336,4,1,0,100,0,0
33905,-78.4313725490196,4,1,0,100,0,0
33976,-80,4,1,0,100,0,0
34047,-71.42857,4,1,0,100,0,0
34094,-72.471115,4,1,0,100,0,0
34142,-73.55156,4,1,0,100,0,0
34190,-74.6481,4,1,0,100,0,0
34237,-75.73763,4,1,0,100,0,0
34285,-76.86677,4,1,0,100,0,0
34333,-78.01274,4,1,0,100,0,0
34404,-79.73922,4,1,0,100,0,0
34475,-81.5039,4,1,0,100,0,0
34547,-83.333336,4,1,0,100,0,0
34619,-66.6666666666667,4,1,0,100,0,0
34833,-76.92308,4,1,0,100,0,0
34904,-78.503586,4,1,0,100,0,0
34975,-80.11655,4,1,0,100,0,0
35047,-81.78609,4,1,0,100,0,0
35118,-83.4665,4,1,0,100,0,0
35190,-85.20585,4,1,0,100,0,0
35261,-86.95652,4,1,0,100,0,0
35333,-74.07407,4,1,0,100,0,0
35380,-76.7291,4,1,0,100,0,0
35428,-79.53886,4,1,0,100,0,0
35475,-82.389755,4,1,0,100,0,0
35547,-84.0336134453781,4,1,0,100,0,0
35618,-71.42857,4,1,0,100,0,0
35666,-73.01811,4,1,0,100,0,0
35713,-74.608795,4,1,0,100,0,0
35761,-76.26911,4,1,0,100,0,0
35833,-78.82912,4,1,0,100,0,0
35904,-81.43769,4,1,0,100,0,0
35975,-84.13258,4,1,0,100,0,0
36047,-86.95652,4,1,0,100,0,0
36191,-78.4313725490196,4,1,0,100,0,0
36262,-80,4,1,0,100,0,0
36333,-71.42857,4,1,0,100,0,0
36380,-72.471115,4,1,0,100,0,0
36428,-73.55156,4,1,0,100,0,0
36475,-74.625084,4,1,0,100,0,0
36523,-75.73763,4,1,0,100,0,0
36571,-76.86677,4,1,0,100,0,0
36618,-77.98869,4,1,0,100,0,0
36690,-79.73922,4,1,0,100,0,0
36761,-81.5039,4,1,0,100,0,0
36833,-83.333336,4,1,0,100,0,0
36905,-66.6666666666667,4,1,0,100,0,0
37190,-71.42857,4,1,0,100,0,0
37237,-75.14074,4,1,0,100,0,0
37285,-79.131096,4,1,0,100,0,0
37333,-83.333336,4,1,0,100,0,0
37476,-74.0740740740741,4,1,0,100,0,0
37512,-75.7575757575758,4,1,0,100,0,0
37601,-74.0740740740741,4,1,0,100,0,0
37637,-75.7575757575758,4,1,0,100,0,0
37761,-71.42857,4,1,0,100,0,0
37809,-73.300644,4,1,0,100,0,0
37856,-75.181244,4,1,0,100,0,0
37904,-77.15168,4,1,0,100,0,0
37975,-80.16136,4,1,0,100,0,0
38047,-83.333336,4,1,0,100,0,0
38173,-74.0740740740741,4,1,0,100,0,0
38209,-75.7575757575758,4,1,0,100,0,0
38334,-78.125,4,1,0,100,0,0
38476,-79.3650793650794,4,1,0,100,0,0
38548,-81.3008130081301,4,1,0,100,0,0
38601,-74.0740740740741,4,1,0,100,0,0
38637,-75.7575757575758,4,1,0,100,0,0
38762,-83.3333333333333,4,1,0,100,0,0
38904,-71.42857,4,1,0,100,0,0
38952,-73.68411,4,1,0,100,0,0
38999,-75.96166,4,1,0,100,0,0
39047,-78.360344,4,1,0,100,0,0
39094,-80.782425,4,1,0,100,0,0
39142,-83.333336,4,1,0,100,0,0
39187,-50,4,1,0,100,0,0
39403,-50.88796,4,1,0,100,0,0
39617,-55.405937,4,1,0,100,0,0
39760,-62.5,4,1,0,100,0,0
39952,-62.5,4,1,0,100,0,0
40047,-64.05307,4,1,0,100,0,0
40142,-65.64474,4,1,0,100,0,0
40237,-67.27595,4,1,0,100,0,0
40333,-68.965515,4,1,0,100,0,0
40619,-75.4716981132076,4,1,0,100,0,0
40762,-78.4313725490196,4,1,0,100,0,0
40834,-80,4,1,0,100,0,0
40904,-68.965515,4,1,0,100,0,0
40952,-70.22989,4,1,0,100,0,0
40999,-71.49036,4,1,0,100,0,0
41047,-72.801,4,1,0,100,0,0
41094,-74.107635,4,1,0,100,0,0
41142,-75.46628,4,1,0,100,0,0
41190,-76.849815,4,1,0,100,0,0
41261,-78.94295,4,1,0,100,0,0
41333,-81.12379,4,1,0,100,0,0
41404,-83.333336,4,1,0,100,0,0
41476,-66.6666666666667,4,1,0,100,0,0
41618,-86.95652,4,1,0,100,0,0
41690,-86.57358,4,1,0,100,0,0
41761,-86.197586,4,1,0,100,0,0
41904,-85.445274,4,1,0,100,0,0
42047,-84.699524,4,1,0,100,0,0
42190,-83.96029,4,1,0,100,0,0
42261,-83.59566,4,1,0,100,0,0
42333,-83.22751,4,1,0,100,0,0
42475,-82.50617,4,1,0,100,0,0
42618,-81.78609,4,1,0,100,0,0
42761,-81.07227,4,1,0,100,0,0
42833,-80.71524,4,1,0,100,0,0
42904,-80.36469,4,1,0,100,0,0
43047,-79.66329,4,1,0,100,0,0
43190,-78.96801,4,1,0,100,0,0
43333,-78.2788,4,1,0,100,0,0
43404,-77.93884,4,1,0,100,0,0
43475,-77.60035,4,1,0,100,0,0
43547,-77.25861,4,1,0,100,0,0
43618,-76.92308,4,1,0,100,0,0
43761,-86.95652,4,1,0,100,0,0
43904,-86.24802,4,1,0,100,0,0
43976,-85.893486,4,1,0,100,0,0
44047,-85.545296,4,1,0,100,0,0
44190,-84.8483,4,1,0,100,0,0
44333,-84.156975,4,1,0,100,0,0
44476,-83.471275,4,1,0,100,0,0
44547,-83.13291,4,1,0,100,0,0
44619,-82.79118,4,1,0,100,0,0
44761,-82.121315,4,1,0,100,0,0
44904,-81.45222,4,1,0,100,0,0
45047,-80.78857,4,1,0,100,0,0
45119,-80.45647,4,1,0,100,0,0
45190,-80.13032,4,1,0,100,0,0
45333,-79.47744,4,1,0,100,0,0
45476,-78.82988,4,1,0,100,0,0
45619,-78.1876,4,1,0,100,0,0
45690,-77.870636,4,1,0,100,0,0
45761,-77.55497,4,1,0,100,0,0
45833,-77.23617,4,1,0,100,0,0
45904,-76.92308,4,1,0,100,0,0
46048,-66.6666666666667,4,1,0,100,0,0
46190,-86.95652,4,1,0,100,0,0
46262,-86.57358,4,1,0,100,0,0
46333,-86.197586,4,1,0,100,0,0
46476,-85.445274,4,1,0,100,0,0
46619,-84.699524,4,1,0,100,0,0
46762,-83.96029,4,1,0,100,0,0
46833,-83.59566,4,1,0,100,0,0
46905,-83.22751,4,1,0,100,0,0
47047,-82.50617,4,1,0,100,0,0
47190,-81.78609,4,1,0,100,0,0
47333,-81.07227,4,1,0,100,0,0
47405,-80.71524,4,1,0,100,0,0
47476,-80.36469,4,1,0,100,0,0
47619,-79.66329,4,1,0,100,0,0
47762,-78.96801,4,1,0,100,0,0
47905,-78.2788,4,1,0,100,0,0
47976,-77.93884,4,1,0,100,0,0
48047,-77.60035,4,1,0,100,0,0
48119,-77.25861,4,1,0,100,0,0
48190,-76.92308,4,1,0,100,0,0
48334,-66.6666666666667,4,1,0,100,0,0
48475,-86.95652,4,1,0,100,0,0
48547,-86.3495,4,1,0,100,0,0
48618,-85.75506,4,1,0,100,0,0
48761,-84.570206,4,1,0,100,0,0
48904,-83.40171,4,1,0,100,0,0
49047,-82.24936,4,1,0,100,0,0
49118,-81.68315,4,1,0,100,0,0
49190,-81.11294,4,1,0,100,0,0
49332,-80,4,1,0,100,0,0
49476,-66.6666666666667,4,1,0,100,0,0
49618,-86.95652,4,1,0,100,0,0
49690,-85.15022,4,1,0,100,0,0
49761,-83.40577,4,1,0,100,0,0
49904,-80,4,1,0,100,0,0
50048,-66.6666666666667,4,1,0,100,0,0
50190,-71.42857,4,1,0,100,0,0
50261,-73.6523,4,1,0,100,0,0
50333,-75.97806,4,1,0,100,0,0
50404,-78.34342,4,1,0,100,0,0
50475,-80.782425,4,1,0,100,0,0
50547,-83.333336,4,1,0,100,0,0
50619,-66.6666666666667,4,1,0,100,0,0
50761,-83.333336,4,1,0,100,0,0
50833,-82.87217,4,1,0,100,0,0
50904,-82.4199,4,1,0,100,0,0
51047,-81.51648,4,1,0,100,0,0
51190,-80.62295,4,1,0,100,0,0
51333,-79.73922,4,1,0,100,0,0
51404,-79.304054,4,1,0,100,0,0
51476,-78.86517,4,1,0,100,0,0
51547,-78.43478,4,1,0,100,0,0
51618,-78.00674,4,1,0,100,0,0
51690,-77.57504,4,1,0,100,0,0
51761,-77.151665,4,1,0,100,0,0
51904,-76.306,4,1,0,100,0,0
51976,-75.88371,4,1,0,100,0,0
52047,-75.46959,4,1,0,100,0,0
52190,-74.64234,4,1,0,100,0,0
52333,-73.82418,4,1,0,100,0,0
52404,-73.42129,4,1,0,100,0,0
52476,-73.01496,4,1,0,100,0,0
52547,-72.616486,4,1,0,100,0,0
52618,-72.2202,4,1,0,100,0,0
52690,-71.82052,4,1,0,100,0,0
52761,-71.42857,4,1,0,100,0,0
52904,-83.333336,4,1,0,100,0,0
53047,-82.48054,4,1,0,100,0,0
53119,-82.05447,4,1,0,100,0,0
53190,-81.636475,4,1,0,100,0,0
53333,-80.80103,4,1,0,100,0,0
53476,-79.97415,4,1,0,100,0,0
53619,-79.15573,4,1,0,100,0,0
53690,-78.752495,4,1,0,100,0,0
53762,-78.34569,4,1,0,100,0,0
53833,-77.94658,4,1,0,100,0,0
53904,-77.5495,4,1,0,100,0,0
53975,-77.15445,4,1,0,100,0,0
54047,-76.75589,4,1,0,100,0,0
54190,-75.970406,4,1,0,100,0,0
54262,-75.57796,4,1,0,100,0,0
54333,-75.192955,4,1,0,100,0,0
54476,-74.423454,4,1,0,100,0,0
54619,-73.66184,4,1,0,100,0,0
54690,-73.2866,4,1,0,100,0,0
54762,-72.90802,4,1,0,100,0,0
54833,-72.53661,4,1,0,100,0,0
54904,-72.1671,4,1,0,100,0,0
54976,-71.794304,4,1,0,100,0,0
55047,-71.42857,4,1,0,100,0,0
55191,-66.6666666666667,4,1,0,100,0,0
55333,-83.333336,4,1,0,100,0,0
55405,-82.87217,4,1,0,100,0,0
55476,-82.4199,4,1,0,100,0,0
55619,-81.51648,4,1,0,100,0,0
55762,-80.62295,4,1,0,100,0,0
55905,-79.73922,4,1,0,100,0,0
55976,-79.304054,4,1,0,100,0,0
56048,-78.86517,4,1,0,100,0,0
56118,-78.440834,4,1,0,100,0,0
56190,-78.00674,4,1,0,100,0,0
56261,-77.58102,4,1,0,100,0,0
56333,-77.151665,4,1,0,100,0,0
56476,-76.306,4,1,0,100,0,0
56548,-75.88371,4,1,0,100,0,0
56619,-75.46959,4,1,0,100,0,0
56762,-74.64234,4,1,0,100,0,0
56905,-73.82418,4,1,0,100,0,0
56975,-73.42694,4,1,0,100,0,0
57048,-73.01496,4,1,0,100,0,0
57119,-72.616486,4,1,0,100,0,0
57190,-72.2202,4,1,0,100,0,0
57262,-71.82052,4,1,0,100,0,0
57333,-71.42857,4,1,0,100,0,0
57476,-66.6666666666667,4,1,0,100,0,0
57618,-83.333336,4,1,0,100,0,0
57690,-80.16136,4,1,0,100,0,0
57761,-77.151665,4,1,0,100,0,0
57833,-74.21499,4,1,0,100,0,0
57904,-71.42857,4,1,0,100,0,0
58048,-66.6666666666667,4,1,0,100,0,0
58190,-83.333336,4,1,0,100,0,0
58261,-80.193794,4,1,0,100,0,0
58333,-77.13081,4,1,0,100,0,0
58404,-74.22496,4,1,0,100,0,0
58475,-71.42857,4,1,0,100,0,0
58619,-66.6666666666667,4,1,0,100,0,0
58761,-83.333336,4,1,0,100,0,0
58833,-80.16136,4,1,0,100,0,0
58904,-77.151665,4,1,0,100,0,0
58975,-74.255,4,1,0,100,0,0
59047,-71.42857,4,1,0,100,0,0
59190,-70.4225352112676,4,1,0,100,0,0
59261,-69.4444444444444,4,1,0,100,0,0
59333,-68.4931506849315,4,1,0,100,0,0
59404,-67.5675675675676,4,1,0,100,0,0
59475,-64.5161290322581,4,1,0,100,0,0
59547,-68.9655172413793,4,1,0,100,0,0
59618,-74.0740740740741,4,1,0,100,0,0
59690,-80,4,1,0,100,0,0
59761,-74.07407,4,1,0,100,0,0
59833,-77.00075,4,1,0,100,0,0
59904,-80,4,1,0,100,0,0
59959,-74.07407,4,1,0,100,0,0
60031,-77.00075,4,1,0,100,0,0
60102,-80,4,1,0,100,0,0
60173,-74.07407,4,1,0,100,0,0
60245,-77.00075,4,1,0,100,0,0
60316,-80,4,1,0,100,0,0
60387,-74.07407,4,1,0,100,0,0
60459,-77.00075,4,1,0,100,0,0
60530,-80,4,1,0,100,0,0
60601,-74.07407,4,1,0,100,0,0
60673,-77.00075,4,1,0,100,0,0
60744,-80,4,1,0,100,0,0
60834,-83.3333333333333,4,1,0,100,0,0
60905,-62.5,4,1,0,100,0,0
61119,-63.6942675159236,4,1,0,100,0,0
61334,-64.9350649350649,4,1,0,100,0,0
61548,-66.2251655629139,4,1,0,100,0,0
61762,-67.5675675675676,4,1,0,100,0,0
61905,-71.4285714285714,4,1,0,100,0,0
61976,-73.5294117647059,4,1,0,100,0,0
62048,-62.5,4,1,0,100,0,0
62334,-76.9230769230769,4,1,0,100,0,0
62476,-62.5,4,1,0,100,0,0
62762,-76.9230769230769,4,1,0,100,0,0
62905,-62.5,4,1,0,100,0,0
63191,-83.3333333333333,4,1,0,100,0,0
63332,-71.37714,4,1,0,100,0,0
63379,-73.83502,4,1,0,100,0,0
63427,-76.43258,4,1,0,100,0,0
63474,-79.06455,4,1,0,100,0,0
63546,-81.3008130081301,4,1,0,100,0,0
63619,-66.6666666666667,4,1,0,100,0,0
63757,-80,4,1,0,100,0,0
63765,-80.499954,4,1,0,100,0,0
63829,-84.61366,4,1,0,100,0,0
63837,-85.14245,4,1,0,100,0,0
63900,-89.42374,4,1,0,100,0,0
63908,-89.98258,4,1,0,100,0,0
63971,-94.50725,4,1,0,100,0,0
63979,-95.09786,4,1,0,100,0,0
64043,-99.957565,4,1,0,100,0,0
64051,-100.582245,4,1,0,100,0,0
64186,-111.732254,4,1,0,100,0,0
64194,-112.430504,4,1,0,100,0,0
64257,-118.08395,4,1,0,100,0,0
64265,-118.82189,4,1,0,100,0,0
64329,-124.89394,4,1,0,60,0,0
65459,-62.5,4,1,0,100,0,0
65673,-63.6942675159236,4,1,0,100,0,0
65888,-64.9350649350649,4,1,0,100,0,0
66102,-66.2251655629139,4,1,0,100,0,0
66316,-67.5675675675676,4,1,0,100,0,0
66459,-71.4285714285714,4,1,0,100,0,0
66530,-73.5294117647059,4,1,0,100,0,0
66602,-62.5,4,1,0,100,0,0
66888,-76.9230769230769,4,1,0,100,0,0
67030,-62.5,4,1,0,100,0,0
67316,-76.9230769230769,4,1,0,100,0,0
67459,-62.5,4,1,0,100,0,0
67762,-83.3333333333333,4,1,0,100,0,0
67904,-71.42857,4,1,0,100,0,0
67952,-73.300644,4,1,0,100,0,0
67999,-75.181244,4,1,0,100,0,0
68047,-77.15168,4,1,0,100,0,0
68118,-80.16136,4,1,0,100,0,0
68190,-83.333336,4,1,0,100,0,0
68333,-66.666664,4,1,0,100,0,0
68380,-68.079796,4,1,0,100,0,0
68428,-69.553925,4,1,0,100,0,0
68475,-71.02827,4,1,0,100,0,0
68547,-73.34766,4,1,0,100,0,0
68618,-75.70899,4,1,0,100,0,0
68690,-78.18124,4,1,0,100,0,0
68761,-80.69818,4,1,0,100,0,0
68833,-83.333336,4,1,0,100,0,0
68905,-62.5,4,1,0,100,0,0
68941,-142.857142857143,4,1,0,40,0,0
75761,-142.85715,4,1,0,40,0,0
76904,-119.52286,4,1,0,40,0,0
77475,-109.33504,4,1,0,40,0,0
77761,-104.5634,4,1,0,40,0,0
77904,-102.25624,4,1,0,40,0,0
78046,-100,4,1,0,90,0,0
78123,-100,4,1,0,80,0,0
78333,-99.34209,4,1,0,80,0,0
78475,-99.018166,4,1,0,80,0,0
78761,-98.36897,4,1,0,80,0,0
78904,-98.045975,4,1,0,80,0,0
79047,-97.72404,4,1,0,80,0,0
79190,-97.40317,4,1,0,80,0,0
79333,-97.083336,4,1,0,80,0,0
79618,-96.44905,4,1,0,80,0,0
79761,-96.132355,4,1,0,80,0,0
79904,-95.816696,4,1,0,80,0,0
80047,-95.50208,4,1,0,80,0,0
80190,-95.18849,4,1,0,80,0,0
80333,-94.87594,4,1,0,80,0,0
80618,-94.25608,4,1,0,80,0,0
80761,-93.94659,4,1,0,80,0,0
81047,-93.33065,4,1,0,80,0,0
81190,-93.02419,4,1,0,80,0,0
81333,-92.718735,4,1,0,80,0,0
81475,-92.41642,4,1,0,80,0,0
81618,-92.11297,4,1,0,80,0,0
81761,-91.81051,4,1,0,80,0,0
81904,-91.50905,4,1,0,80,0,0
82190,-90.90909,4,1,0,80,0,0
82475,-90.90909,4,1,0,90,0,0
82618,-90.15239,4,1,0,90,0,0
82761,-89.401985,4,1,0,90,0,0
82904,-88.65783,4,1,0,90,0,0
83047,-87.91987,4,1,0,90,0,0
83190,-87.18805,4,1,0,90,0,0
83333,-86.46232,4,1,0,90,0,0
83475,-85.74764,4,1,0,90,0,0
83547,-85.387535,4,1,0,90,0,0
83618,-85.03391,4,1,0,90,0,0
83690,-84.67679,4,1,0,90,0,0
83761,-62.5,4,1,0,100,0,0
83904,-83.6242,4,1,0,90,0,0
84047,-82.92815,4,1,0,90,0,0
84190,-82.23787,4,1,0,90,0,0
84333,-81.55334,4,1,0,90,0,0
84475,-80.87925,4,1,0,90,0,0
84618,-80.20603,4,1,0,90,0,0
84761,-79.538414,4,1,0,90,0,0
84833,-79.204384,4,1,0,90,0,0
84904,-66.6666666666667,4,1,0,100,0,0
85047,-78.21981,4,1,0,90,0,0
85190,-77.56874,4,1,0,90,0,0
85333,-76.92308,4,1,0,90,0,0
85619,-81.3008130081301,4,1,0,90,0,0
85905,-86.2068965517241,4,1,0,90,0,0
86046,-95.2381,4,1,0,90,0,0
86117,-91.425934,4,1,0,90,0,0
86189,-87.715866,4,1,0,90,0,0
86260,-84.20481,4,1,0,90,0,0
86332,-80.78779,4,1,0,90,0,0
86403,-77.55404,4,1,0,90,0,0
86474,-74.44973,4,1,0,90,0,0
86546,-71.42857,4,1,0,90,0,0
86616,-62.499996,4,1,0,90,0,0
86688,-65.14352,4,1,0,90,0,0
86759,-67.85979,4,1,0,90,0,0
86831,-70.73,4,1,0,90,0,0
86902,-73.679214,4,1,0,90,0,0
86973,-76.751396,4,1,0,90,0,0
87045,-79.997696,4,1,0,90,0,0
87116,-83.333336,4,1,0,90,0,0
87195,-66.6666666666667,4,1,0,100,0,1
87334,-83.3333333333333,4,1,0,100,0,1
95618,-83.333336,4,1,0,100,0,1
95690,-82.99148,4,1,0,100,0,1
95761,-82.65574,4,1,0,100,0,1
95833,-82.316666,4,1,0,100,0,1
95904,-81.98364,4,1,0,100,0,1
95975,-81.651985,4,1,0,100,0,1
96047,-81.31703,4,1,0,100,0,1
96118,-80.98806,4,1,0,100,0,1
96190,-80.65582,4,1,0,100,0,1
96261,-80.329544,4,1,0,100,0,1
96333,-80,4,1,0,100,0,1
105190,-71.42857,4,1,0,100,0,1
105261,-75.176704,4,1,0,100,0,1
105333,-79.178535,4,1,0,100,0,1
105404,-83.333336,4,1,0,100,0,1
105480,-76.9230769230769,4,1,0,100,0,0
108904,-76.92308,4,1,0,100,0,0
109047,-80.6451612903226,4,1,0,100,0,0
109190,-84.7457627118644,4,1,0,100,0,0
109333,-89.2857142857143,4,1,0,100,0,0
109475,-71.42857,4,1,0,100,0,0
109547,-73.03185,4,1,0,100,0,0
109618,-74.6481,4,1,0,100,0,0
109690,-76.32365,4,1,0,100,0,0
109761,-78.01274,4,1,0,100,0,0
109833,-79.76381,4,1,0,100,0,0
109904,-81.529045,4,1,0,100,0,0
109975,-83.3333360000001,4,1,0,100,0,0
110048,-76.9230791952663,4,1,0,100,0,0
113476,-76.92308,4,1,0,100,0,0
113619,-80.6451612903226,4,1,0,100,0,0
113762,-84.7457627118644,4,1,0,100,0,0
113905,-89.2857142857143,4,1,0,100,0,0
114047,-71.42857,4,1,0,100,0,0
114119,-73.03185,4,1,0,100,0,0
114190,-74.6481,4,1,0,100,0,0
114262,-76.32365,4,1,0,100,0,0
114333,-78.01274,4,1,0,100,0,0
114405,-79.76381,4,1,0,100,0,0
114476,-81.529045,4,1,0,100,0,0
114547,-83.3333360000001,4,1,0,100,0,0
114623,-76.9230791952663,4,1,0,100,0,1
123476,-66.666664,4,1,0,100,0,1
123547,-68.9655172413793,4,1,0,100,0,1
123618,-71.4285714285714,4,1,0,100,0,1
123689,-74.0740740740741,4,1,0,100,0,1
123766,-83.3333333333333,4,1,0,20,0,0
124334,-83.3333333333333,4,1,0,50,0,0
124405,-10,4,1,0,20,0,0
126048,-10,4,1,0,30,0,0
128334,-100,4,1,0,60,0,0
128619,-125,4,1,0,40,0,0
136903,-125.12144,4,1,0,40,0,0
136974,-116.78594,4,1,0,40,0,0
137046,-108.89994,4,1,0,40,0,0
137117,-101.6451,4,1,0,40,0,0
137189,-94.781494,4,1,0,40,0,0
137260,-88.467224,4,1,0,40,0,0
137332,-82.49347,4,1,0,40,0,0
137403,-76.9978,4,1,0,40,0,0
137476,-62.5493199232427,4,1,0,100,0,0
137548,-10,4,1,0,50,0,0
138619,-66.6666666666667,4,1,0,100,0,0
138762,-111.111111111111,4,1,0,60,0,0
141760,-111.111115,4,1,0,60,0,0
141832,-98.18075,4,1,0,60,0,0
141903,-86.90434,4,1,0,60,0,0
141974,-76.92308,4,1,0,60,0,0
142048,-62.5,4,1,0,100,0,0
142119,-10,4,1,0,50,0,0
143191,-66.6666666666667,4,1,0,100,0,0
143333,-100,4,1,0,70,0,0
143475,-99.52741,4,1,0,70,0,0
143618,-99.05374,4,1,0,70,0,0
143761,-98.58233,4,1,0,70,0,0
143904,-98.11315,4,1,0,70,0,0
144047,-97.64622,4,1,0,70,0,0
144190,-97.18151,4,1,0,70,0,0
144333,-96.71901,4,1,0,70,0,0
144475,-96.26192,4,1,0,70,0,0
144618,-95.803795,4,1,0,70,0,0
144761,-95.34785,4,1,0,70,0,0
144904,-94.89408,4,1,0,70,0,0
145047,-94.44246,4,1,0,70,0,0
145190,-93.993,4,1,0,70,0,0
145333,-93.54566,4,1,0,70,0,0
145475,-93.10358,4,1,0,70,0,0
145618,-92.660484,4,1,0,70,0,0
145761,-92.2195,4,1,0,70,0,0
145904,-91.78061,4,1,0,70,0,0
146047,-91.34381,4,1,0,70,0,0
146190,-90.90909,4,1,0,70,0,0
146333,-90.90909,4,1,0,70,0,0
146404,-82.019585,4,1,0,70,0,0
146475,-73.999344,4,1,0,70,0,0
146547,-66.666664,4,1,0,70,0,0
146619,-55.5555555555556,4,1,0,100,0,0
146691,-10,4,1,0,60,0,0
147762,-10,4,1,0,50,0,0
148905,-10,4,1,0,40,0,0
150048,-10,4,1,0,30,0,0
151191,-10,4,1,0,20,0,0
154619,-62.5,4,1,0,100,0,0
154762,-66.6666666666667,4,1,0,100,0,0
154905,-71.4285714285714,4,1,0,100,0,0
155190,-66.666664,4,1,0,100,0,0
155261,-68.03521,4,1,0,100,0,0
155333,-69.45173,4,1,0,100,0,0
155404,-70.87745,4,1,0,100,0,0
155475,-72.33243,4,1,0,100,0,0
155547,-73.83842,4,1,0,100,0,0
155618,-75.35418,4,1,0,100,0,0
155690,-76.92308,4,1,0,100,0,0
155762,-62.5000020312501,4,1,0,100,0,0
156047,-100.00001,4,1,0,80,0,0
156333,-99.34421,4,1,0,80,0,0
156618,-98.69501,4,1,0,80,0,0
156761,-98.370865,4,1,0,80,0,0
157047,-97.725746,4,1,0,80,0,0
157190,-97.404785,4,1,0,80,0,0
157333,-97.084885,4,1,0,80,0,0
157475,-96.76826,4,1,0,80,0,0
157761,-96.13366,4,1,0,80,0,0
157904,-95.81791,4,1,0,80,0,0
158047,-95.50323,4,1,0,80,0,0
158190,-95.18957,4,1,0,80,0,0
158333,-94.87693,4,1,0,80,0,0
158618,-94.25691,4,1,0,80,0,0
158904,-93.63879,4,1,0,80,0,0
159047,-93.331245,4,1,0,80,0,0
159333,-92.719185,4,1,0,80,0,0
159475,-92.416794,4,1,0,80,0,0
159618,-92.113266,4,1,0,80,0,0
159761,-91.810745,4,1,0,80,0,0
160047,-91.20866,4,1,0,80,0,0
160190,-90.909096,4,1,0,80,0,0
160333,-66.6666694044446,4,1,0,90,0,0
160475,-100.00001,4,1,0,90,0,0
160547,-99.24932,4,1,0,90,0,0
160618,-98.51456,4,1,0,90,0,0
160690,-97.77501,4,1,0,90,0,0
160761,-97.05117,4,1,0,90,0,0
160833,-96.3226,4,1,0,90,0,0
160904,-95.60953,4,1,0,90,0,0
160975,-94.90172,4,1,0,90,0,0
161047,-94.189285,4,1,0,90,0,0
161118,-93.49199,4,1,0,90,0,0
161190,-92.79016,4,1,0,90,0,0
161261,-92.1032,4,1,0,90,0,0
161333,-91.4118,4,1,0,90,0,0
161404,-90.73507,4,1,0,90,0,0
161475,-90.06333,4,1,0,90,0,0
161547,-89.38723,4,1,0,90,0,0
161618,-88.725494,4,1,0,90,0,0
161690,-88.05944,4,1,0,90,0,0
161761,-87.40753,4,1,0,90,0,0
161833,-86.75136,4,1,0,90,0,0
161904,-86.10912,4,1,0,90,0,0
161975,-85.47166,4,1,0,90,0,0
162047,-84.83001,4,1,0,90,0,0
162118,-84.202,4,1,0,90,0,0
162190,-83.56991,4,1,0,90,0,0
162261,-82.951225,4,1,0,90,0,0
162333,-82.328514,4,1,0,90,0,0
162404,-81.71903,4,1,0,90,0,0
162475,-81.11406,4,1,0,90,0,0
162547,-80.50513,4,1,0,90,0,0
162618,-79.90915,4,1,0,90,0,0
162690,-79.30927,4,1,0,90,0,0
162761,-78.72214,4,1,0,90,0,0
162833,-78.13116,4,1,0,90,0,0
162904,-77.55276,4,1,0,90,0,0
162975,-76.978615,4,1,0,90,0,0
163047,-76.40075,4,1,0,90,0,0
163118,-75.835144,4,1,0,90,0,0
163190,-75.265854,4,1,0,90,0,0
163261,-74.70864,4,1,0,90,0,0
163333,-74.14781,4,1,0,90,0,0
163404,-73.598885,4,1,0,90,0,0
163475,-73.05402,4,1,0,90,0,0
163547,-72.50561,4,1,0,90,0,0
163618,-71.968834,4,1,0,90,0,0
163690,-71.42857,4,1,0,90,0,0
163762,-62.5,4,1,0,90,0,0
164334,-111.111111111111,4,1,0,60,0,0
164905,-55.5555555555556,4,1,0,100,0,0
165475,-66.666664,4,1,0,100,0,0
165523,-69.947075,4,1,0,100,0,0
165571,-73.38891,4,1,0,100,0,0
165618,-76.92308,4,1,0,100,0,0
165761,-90.909096,4,1,0,100,0,0
165833,-83.824165,4,1,0,100,0,0
165904,-77.378555,4,1,0,100,0,0
165975,-71.42857,4,1,0,100,0,0
166048,-62.49999890625,4,1,0,100,0,0
166190,-62.5,4,1,0,100,0,0
166237,-63.94147,4,1,0,100,0,0
166285,-65.44793,4,1,0,100,0,0
166333,-66.989876,4,1,0,100,0,0
166404,-69.337524,4,1,0,100,0,0
166475,-71.767456,4,1,0,100,0,0
166523,-73.45829,4,1,0,100,0,0
166571,-75.18896,4,1,0,100,0,0
166618,-76.92308,4,1,0,100,0,0
166761,-83.33333,4,1,0,100,0,0
166809,-79.13109,4,1,0,100,0,0
166856,-75.22178,4,1,0,100,0,0
166904,-71.42857,4,1,0,100,0,0
167188,-58.79168,4,1,0,100,0,0
167259,-61.074554,4,1,0,100,0,0
167331,-63.48012,4,1,0,100,0,0
167402,-65.94505,4,1,0,100,0,0
167473,-68.505684,4,1,0,100,0,0
167545,-71.20395,4,1,0,100,0,0
167616,-73.96879,4,1,0,100,0,0
167688,-76.882225,4,1,0,100,0,0
167761,-62.47303,4,1,0,100,0,0
167809,-63.730213,4,1,0,100,0,0
167856,-64.98572,4,1,0,100,0,0
167904,-66.29347,4,1,0,100,0,0
167952,-67.62753,4,1,0,100,0,0
167999,-68.959816,4,1,0,100,0,0
168047,-70.347534,4,1,0,100,0,0
168118,-72.45157,4,1,0,100,0,0
168190,-74.64951,4,1,0,100,0,0
168261,-76.882225,4,1,0,100,0,0
168333,-62.473028661943,4,1,0,100,0,0
168476,-76.9230769230769,4,1,0,100,0,0
168512,-79.3650793650794,4,1,0,100,0,0
168761,-100,4,1,0,100,0,0
168833,-96.30244,4,1,0,100,0,0
168904,-92.790146,4,1,0,100,0,0
168975,-89.40595,4,1,0,100,0,0
169047,-86.10011,4,1,0,100,0,0
169094,-84.00836,4,1,0,100,0,0
169142,-81.924545,4,1,0,100,0,0
169190,-79.89242,4,1,0,100,0,0
169261,-76.97862,4,1,0,100,0,0
169333,-74.132286,4,1,0,100,0,0
169404,-71.42857,4,1,0,100,0,0
169476,-58.8235284429066,4,1,0,100,0,0
169762,-76.9230752662722,4,1,0,100,0,0
169798,-79.3650793650794,4,1,0,100,0,0
170047,-94.339615,4,1,0,100,0,0
170094,-91.38621,4,1,0,100,0,0
170142,-88.46538,4,1,0,100,0,0
170190,-85.637886,4,1,0,100,0,0
170261,-81.62043,4,1,0,100,0,0
170333,-77.7388,4,1,0,100,0,0
170380,-75.30509,4,1,0,100,0,0
170428,-72.89824,4,1,0,100,0,0
170475,-70.61607,4,1,0,100,0,0
170547,-67.25779,4,1,0,100,0,0
170618,-60.2409602322542,4,1,0,100,0,0
170744,-62.5,4,1,0,100,0,0
170791,-63.94147,4,1,0,100,0,0
170839,-65.44793,4,1,0,100,0,0
170887,-66.989876,4,1,0,100,0,0
170958,-69.337524,4,1,0,100,0,0
171029,-71.767456,4,1,0,100,0,0
171077,-73.45829,4,1,0,100,0,0
171125,-75.18896,4,1,0,100,0,0
171172,-76.92308,4,1,0,100,0,0
171315,-83.33333,4,1,0,100,0,0
171363,-79.13109,4,1,0,100,0,0
171410,-75.22178,4,1,0,100,0,0
171458,-71.42857,4,1,0,100,0,0
171761,-62.5,4,1,0,100,0,0
171856,-64.231674,4,1,0,100,0,0
171952,-66.03031,4,1,0,100,0,0
172047,-67.85979,4,1,0,100,0,0
172142,-69.73996,4,1,0,100,0,0
172237,-71.672226,4,1,0,100,0,0
172333,-73.679214,4,1,0,100,0,0
172547,-78.357735,4,1,0,100,0,0
172761,-83.333336,4,1,0,100,0,0
172905,-58.8235307404845,4,1,0,100,0,0
173047,-83.333336,4,1,0,100,0,0
173094,-79.48532,4,1,0,100,0,0
173142,-75.738754,4,1,0,100,0,0
173190,-72.168785,4,1,0,100,0,0
173237,-68.8363,4,1,0,100,0,0
173285,-65.59169,4,1,0,100,0,0
173333,-62.5,4,1,0,100,0,0
173476,-66.6666666666667,4,1,0,100,0,0
173512,-68.4931506849315,4,1,0,100,0,0
173691,-71.4285714285714,4,1,0,100,0,0
173727,-73.5294117647059,4,1,0,100,0,0
173905,-76.9230769230769,4,1,0,100,0,0
173941,-79.3650793650794,4,1,0,100,0,0
174048,-55.5555555555556,4,1,0,100,0,0
174601,-66.666664,4,1,0,100,0,0
174649,-69.947075,4,1,0,100,0,0
174697,-73.38891,4,1,0,100,0,0
174744,-76.92308,4,1,0,100,0,0
174887,-90.909096,4,1,0,100,0,0
174959,-83.824165,4,1,0,100,0,0
175030,-77.378555,4,1,0,100,0,0
175101,-71.42857,4,1,0,100,0,0
175174,-62.49999890625,4,1,0,100,0,0
175316,-62.5,4,1,0,100,0,0
175363,-63.94147,4,1,0,100,0,0
175411,-65.44793,4,1,0,100,0,0
175459,-66.989876,4,1,0,100,0,0
175530,-69.337524,4,1,0,100,0,0
175601,-71.767456,4,1,0,100,0,0
175649,-73.45829,4,1,0,100,0,0
175697,-75.18896,4,1,0,100,0,0
175744,-76.92308,4,1,0,100,0,0
175887,-83.33333,4,1,0,100,0,0
175935,-79.13109,4,1,0,100,0,0
175982,-75.22178,4,1,0,100,0,0
176030,-71.42857,4,1,0,100,0,0
176316,-58.79168,4,1,0,100,0,0
176387,-61.074554,4,1,0,100,0,0
176459,-63.48012,4,1,0,100,0,0
176530,-65.94505,4,1,0,100,0,0
176601,-68.505684,4,1,0,100,0,0
176673,-71.20395,4,1,0,100,0,0
176744,-73.96879,4,1,0,100,0,0
176816,-76.882225,4,1,0,100,0,0
176889,-62.47303,4,1,0,100,0,0
176937,-63.730213,4,1,0,100,0,0
176984,-64.98572,4,1,0,100,0,0
177032,-66.29347,4,1,0,100,0,0
177080,-67.62753,4,1,0,100,0,0
177127,-68.959816,4,1,0,100,0,0
177175,-70.347534,4,1,0,100,0,0
177246,-72.45157,4,1,0,100,0,0
177318,-74.64951,4,1,0,100,0,0
177389,-76.882225,4,1,0,100,0,0
177461,-62.473028661943,4,1,0,100,0,0
177904,-111.025894,4,1,0,100,0,0
177975,-105.53024,4,1,0,100,0,0
178047,-100.23492,4,1,0,100,0,0
178118,-95.273415,4,1,0,100,0,0
178190,-90.49276,4,1,0,100,0,0
178261,-86.01349,4,1,0,100,0,0
178333,-81.69748,4,1,0,100,0,0
178404,-77.65354,4,1,0,100,0,0
178475,-73.80979,4,1,0,100,0,0
178547,-70.106155,4,1,0,100,0,0
178618,-58.7996371144664,4,1,0,100,0,0
178887,-76.9230752662722,4,1,0,100,0,0
178923,-79.3650793650794,4,1,0,100,0,0
179173,-94.339615,4,1,0,100,0,0
179220,-91.38621,4,1,0,100,0,0
179268,-88.46538,4,1,0,100,0,0
179316,-85.637886,4,1,0,100,0,0
179387,-81.62043,4,1,0,100,0,0
179459,-77.7388,4,1,0,100,0,0
179506,-75.30509,4,1,0,100,0,0
179554,-72.89824,4,1,0,100,0,0
179601,-70.61607,4,1,0,100,0,0
179673,-67.25779,4,1,0,100,0,0
179744,-60.2409602322542,4,1,0,100,0,0
179887,-62.5,4,1,0,100,0,0
179934,-63.94147,4,1,0,100,0,0
179982,-65.44793,4,1,0,100,0,0
180030,-66.989876,4,1,0,100,0,0
180101,-69.337524,4,1,0,100,0,0
180172,-71.767456,4,1,0,100,0,0
180220,-73.45829,4,1,0,100,0,0
180268,-75.18896,4,1,0,100,0,0
180315,-76.92308,4,1,0,100,0,0
180458,-83.33333,4,1,0,100,0,0
180506,-79.13109,4,1,0,100,0,0
180553,-75.22178,4,1,0,100,0,0
180601,-71.42857,4,1,0,100,0,0
180887,-62.5,4,1,0,100,0,0
180982,-64.231674,4,1,0,100,0,0
181078,-66.03031,4,1,0,100,0,0
181173,-67.85979,4,1,0,100,0,0
181268,-69.73996,4,1,0,100,0,0
181363,-71.672226,4,1,0,100,0,0
181459,-73.679214,4,1,0,100,0,0
181673,-78.357735,4,1,0,100,0,0
181887,-83.333336,4,1,0,100,0,0
182031,-58.8235307404845,4,1,0,100,0,0
182619,-100.00000384,4,1,0,100,0,0
183174,-55.5555555555556,4,1,0,100,0,0
183744,-66.666664,4,1,0,100,0,0
183792,-69.947075,4,1,0,100,0,0
183840,-73.38891,4,1,0,100,0,0
183887,-76.92308,4,1,0,100,0,0
184030,-90.909096,4,1,0,100,0,0
184102,-83.824165,4,1,0,100,0,0
184173,-77.378555,4,1,0,100,0,0
184244,-71.42857,4,1,0,100,0,0
184317,-62.49999890625,4,1,0,100,0,0
184459,-62.5,4,1,0,100,0,0
184506,-63.94147,4,1,0,100,0,0
184554,-65.44793,4,1,0,100,0,0
184602,-66.989876,4,1,0,100,0,0
184673,-69.337524,4,1,0,100,0,0
184744,-71.767456,4,1,0,100,0,0
184792,-73.45829,4,1,0,100,0,0
184840,-75.18896,4,1,0,100,0,0
184887,-76.92308,4,1,0,100,0,0
185045,-83.72574,4,1,0,100,0,0
185092,-74.97458,4,1,0,100,0,0
185141,-66.82345,4,1,0,100,0,0
185189,-55.55556,4,1,0,100,0,0
185261,-56.999405,4,1,0,100,0,0
185333,-58.480774,4,1,0,100,0,0
185404,-59.979267,4,1,0,100,0,0
185475,-61.516155,4,1,0,100,0,0
185547,-63.11491,4,1,0,100,0,0
185618,-64.73215,4,1,0,100,0,0
185690,-66.41449,4,1,0,100,0,0
185761,-68.11627,4,1,0,100,0,0
185833,-69.88656,4,1,0,100,0,0
185904,-71.67731,4,1,0,100,0,0
185975,-73.51395,4,1,0,100,0,0
186047,-75.424515,4,1,0,100,0,0
186118,-77.35717,4,1,0,100,0,0
186190,-79.36762,4,1,0,100,0,0
186261,-81.401306,4,1,0,100,0,0
186333,-83.51686,4,1,0,100,0,0
186380,-84.92743,4,1,0,100,0,0
186428,-86.392586,4,1,0,100,0,0
186475,-87.851715,4,1,0,100,0,0
186523,-89.367325,4,1,0,100,0,0
186571,-90.90909,4,1,0,100,0,0
186619,-58.8235294117647,4,1,0,100,0,0
186762,-66.6666666666667,4,1,0,100,0,0
186798,-68.4931506849315,4,1,0,100,0,0
186905,-71.4285714285714,4,1,0,100,0,0
186941,-73.5294117647059,4,1,0,100,0,0
187191,-76.9230769230769,4,1,0,100,0,0
187226,-79.3650793650794,4,1,0,100,0,0
187762,-58.8235294117647,4,1,0,100,0,0
188048,-76.9230769230769,4,1,0,100,0,0
188084,-79.3650793650794,4,1,0,100,0,0
188316,-94.339615,4,1,0,100,0,0
188363,-91.38621,4,1,0,100,0,0
188411,-88.46538,4,1,0,100,0,0
188459,-85.637886,4,1,0,100,0,0
188530,-81.62043,4,1,0,100,0,0
188602,-77.7388,4,1,0,100,0,0
188649,-75.30509,4,1,0,100,0,0
188697,-72.89824,4,1,0,100,0,0
188744,-70.61607,4,1,0,100,0,0
188816,-67.25779,4,1,0,100,0,0
188887,-60.2409602322542,4,1,0,100,0,0
189030,-62.5,4,1,0,100,0,0
189077,-63.94147,4,1,0,100,0,0
189125,-65.44793,4,1,0,100,0,0
189173,-66.989876,4,1,0,100,0,0
189244,-69.337524,4,1,0,100,0,0
189315,-71.767456,4,1,0,100,0,0
189363,-73.45829,4,1,0,100,0,0
189411,-75.18896,4,1,0,100,0,0
189458,-76.92308,4,1,0,100,0,0
189601,-83.33333,4,1,0,100,0,0
189649,-79.13109,4,1,0,100,0,0
189696,-75.22178,4,1,0,100,0,0
189744,-71.42857,4,1,0,100,0,0
190030,-62.5,4,1,0,100,0,0
190125,-64.231674,4,1,0,100,0,0
190221,-66.03031,4,1,0,100,0,0
190316,-67.85979,4,1,0,100,0,0
190411,-69.73996,4,1,0,100,0,0
190506,-71.672226,4,1,0,100,0,0
190602,-73.679214,4,1,0,100,0,0
190816,-78.357735,4,1,0,100,0,0
191030,-83.333336,4,1,0,100,0,0
191174,-58.8235307404845,4,1,0,100,0,0
191316,-83.333336,4,1,0,100,0,0
191363,-79.48532,4,1,0,100,0,0
191411,-75.738754,4,1,0,100,0,0
191459,-72.168785,4,1,0,100,0,0
191506,-68.8363,4,1,0,100,0,0
191554,-65.59169,4,1,0,100,0,0
191602,-62.5,4,1,0,100,0,0
191745,-66.6666666666667,4,1,0,100,0,0
191781,-68.4931506849315,4,1,0,100,0,0
191960,-71.4285714285714,4,1,0,100,0,0
191996,-73.5294117647059,4,1,0,100,0,0
192174,-76.9230769230769,4,1,0,100,0,0
192210,-79.3650793650794,4,1,0,100,0,0
192317,-55.5555555555556,4,1,0,100,0,0
192887,-66.666664,4,1,0,100,0,0
192935,-69.947075,4,1,0,100,0,0
192983,-73.38891,4,1,0,100,0,0
193030,-76.92308,4,1,0,100,0,0
193173,-90.909096,4,1,0,100,0,0
193245,-83.824165,4,1,0,100,0,0
193316,-77.378555,4,1,0,100,0,0
193387,-71.42857,4,1,0,100,0,0
193460,-62.49999890625,4,1,0,100,0,0
193602,-62.5,4,1,0,100,0,0
193649,-63.94147,4,1,0,100,0,0
193697,-65.44793,4,1,0,100,0,0
193745,-66.989876,4,1,0,100,0,0
193816,-69.337524,4,1,0,100,0,0
193887,-71.767456,4,1,0,100,0,0
193935,-73.45829,4,1,0,100,0,0
193983,-75.18896,4,1,0,100,0,0
194030,-76.92308,4,1,0,100,0,0
194173,-83.33333,4,1,0,100,0,0
194221,-79.13109,4,1,0,100,0,0
194268,-75.22178,4,1,0,100,0,0
194316,-71.42857,4,1,0,100,0,0
194601,-58.79168,4,1,0,100,0,0
194672,-61.074554,4,1,0,100,0,0
194744,-63.48012,4,1,0,100,0,0
194815,-65.94505,4,1,0,100,0,0
194886,-68.505684,4,1,0,100,0,0
194958,-71.20395,4,1,0,100,0,0
195029,-73.96879,4,1,0,100,0,0
195101,-76.882225,4,1,0,100,0,0
195174,-62.47303,4,1,0,100,0,0
195222,-63.730213,4,1,0,100,0,0
195269,-64.98572,4,1,0,100,0,0
195317,-66.29347,4,1,0,100,0,0
195365,-67.62753,4,1,0,100,0,0
195412,-68.959816,4,1,0,100,0,0
195460,-70.347534,4,1,0,100,0,0
195531,-72.45157,4,1,0,100,0,0
195603,-74.64951,4,1,0,100,0,0
195674,-76.882225,4,1,0,100,0,0
195746,-62.473028661943,4,1,0,100,0,0
195905,-71.4285714285714,4,1,0,100,0,0
195941,-73.5294117647059,4,1,0,100,0,0
196173,-111.025894,4,1,0,100,0,0
196244,-105.53024,4,1,0,100,0,0
196316,-100.23492,4,1,0,100,0,0
196387,-95.273415,4,1,0,100,0,0
196459,-90.49276,4,1,0,100,0,0
196530,-86.01349,4,1,0,100,0,0
196602,-81.69748,4,1,0,100,0,0
196673,-77.65354,4,1,0,100,0,0
196744,-73.80979,4,1,0,100,0,0
196816,-70.106155,4,1,0,100,0,0
196887,-58.7996371144664,4,1,0,100,0,0
197191,-76.9230769230769,4,1,0,100,0,0
197226,-79.3650793650794,4,1,0,100,0,0
197459,-94.339615,4,1,0,100,0,0
197506,-91.38621,4,1,0,100,0,0
197554,-88.46538,4,1,0,100,0,0
197602,-85.637886,4,1,0,100,0,0
197673,-81.62043,4,1,0,100,0,0
197745,-77.7388,4,1,0,100,0,0
197792,-75.30509,4,1,0,100,0,0
197840,-72.89824,4,1,0,100,0,0
197887,-70.61607,4,1,0,100,0,0
197959,-67.25779,4,1,0,100,0,0
198030,-60.2409602322542,4,1,0,100,0,0
198173,-62.5,4,1,0,100,0,0
198220,-63.94147,4,1,0,100,0,0
198268,-65.44793,4,1,0,100,0,0
198316,-66.989876,4,1,0,100,0,0
198387,-69.337524,4,1,0,100,0,0
198458,-71.767456,4,1,0,100,0,0
198506,-73.45829,4,1,0,100,0,0
198554,-75.18896,4,1,0,100,0,0
198601,-76.92308,4,1,0,100,0,0
198744,-83.33333,4,1,0,100,0,0
198792,-79.13109,4,1,0,100,0,0
198839,-75.22178,4,1,0,100,0,0
198887,-71.42857,4,1,0,100,0,0
199173,-62.5,4,1,0,100,0,0
199268,-64.231674,4,1,0,100,0,0
199364,-66.03031,4,1,0,100,0,0
199459,-67.85979,4,1,0,100,0,0
199554,-69.73996,4,1,0,100,0,0
199649,-71.672226,4,1,0,100,0,0
199745,-73.679214,4,1,0,100,0,0
199959,-78.357735,4,1,0,100,0,0
200173,-83.333336,4,1,0,100,0,0
200317,-58.8235307404845,4,1,0,100,0,0
200405,-10,4,1,0,20,0,0
201476,-62.5,4,1,0,100,0,0
201512,-125,4,1,0,40,0,0
202695,-142.857142857143,4,1,0,40,0,0
206052,-83.3333333333334,4,1,0,70,0,0
206070,-83.3333333333334,4,1,0,40,0,0
207195,-125,4,1,0,40,0,0
208332,-142.85715,4,1,0,50,0,0
209475,-119.52286,4,1,0,50,0,0
210046,-109.33504,4,1,0,50,0,0
210332,-104.5634,4,1,0,50,0,0
210475,-102.25624,4,1,0,50,0,0
210617,-100,4,1,0,80,0,0
210904,-99.34209,4,1,0,80,0,0
211046,-99.018166,4,1,0,80,0,0
211332,-98.36897,4,1,0,80,0,0
211475,-98.045975,4,1,0,80,0,0
211618,-97.72404,4,1,0,80,0,0
211761,-97.40317,4,1,0,80,0,0
211904,-97.083336,4,1,0,80,0,0
212189,-96.44905,4,1,0,80,0,0
212332,-96.132355,4,1,0,80,0,0
212475,-95.816696,4,1,0,80,0,0
212618,-95.50208,4,1,0,80,0,0
212761,-95.18849,4,1,0,80,0,0
212904,-94.87594,4,1,0,80,0,0
213189,-94.25608,4,1,0,80,0,0
213332,-93.94659,4,1,0,80,0,0
213618,-93.33065,4,1,0,80,0,0
213761,-93.02419,4,1,0,80,0,0
213904,-92.718735,4,1,0,80,0,0
214046,-92.41642,4,1,0,80,0,0
214189,-92.11297,4,1,0,80,0,0
214332,-91.81051,4,1,0,80,0,0
214475,-91.50905,4,1,0,80,0,0
214761,-90.90909,4,1,0,80,0,0
215046,-90.90909,4,1,0,90,0,0
215189,-90.15239,4,1,0,90,0,0
215332,-89.401985,4,1,0,90,0,0
215475,-88.65783,4,1,0,90,0,0
215618,-87.91987,4,1,0,90,0,0
215761,-87.18805,4,1,0,90,0,0
215904,-86.46232,4,1,0,90,0,0
216046,-85.74764,4,1,0,90,0,0
216118,-85.387535,4,1,0,90,0,0
216189,-85.03391,4,1,0,90,0,0
216261,-84.67679,4,1,0,90,0,0
216332,-62.5,4,1,0,100,0,0
216475,-83.6242,4,1,0,90,0,0
216618,-82.92815,4,1,0,90,0,0
216761,-82.23787,4,1,0,90,0,0
216904,-81.55334,4,1,0,90,0,0
217046,-80.87925,4,1,0,90,0,0
217189,-80.20603,4,1,0,90,0,0
217332,-79.538414,4,1,0,90,0,0
217404,-79.204384,4,1,0,90,0,0
217475,-66.6666666666667,4,1,0,100,0,0
217618,-78.21981,4,1,0,90,0,0
217761,-77.56874,4,1,0,90,0,0
217904,-76.92308,4,1,0,90,0,0
218190,-81.3008130081301,4,1,0,90,0,0
218476,-86.2068965517241,4,1,0,90,0,0
218617,-95.2381,4,1,0,90,0,0
218688,-91.425934,4,1,0,90,0,0
218760,-87.715866,4,1,0,90,0,0
218831,-84.20481,4,1,0,90,0,0
218903,-80.78779,4,1,0,90,0,0
218974,-77.55404,4,1,0,90,0,0
219045,-74.44973,4,1,0,90,0,0
219117,-71.42857,4,1,0,90,0,0
219187,-62.499996,4,1,0,90,0,0
219259,-65.14352,4,1,0,90,0,0
219330,-67.85979,4,1,0,90,0,0
219402,-70.73,4,1,0,90,0,0
219473,-73.679214,4,1,0,90,0,0
219544,-76.751396,4,1,0,90,0,0
219616,-79.997696,4,1,0,90,0,0
219687,-83.333336,4,1,0,90,0,0
219766,-66.6666666666667,4,1,0,100,0,1
219905,-83.3333333333333,4,1,0,100,0,1
228189,-83.333336,4,1,0,100,0,1
228261,-82.99148,4,1,0,100,0,1
228332,-82.65574,4,1,0,100,0,1
228404,-82.316666,4,1,0,100,0,1
228475,-81.98364,4,1,0,100,0,1
228546,-81.651985,4,1,0,100,0,1
228618,-81.31703,4,1,0,100,0,1
228689,-80.98806,4,1,0,100,0,1
228761,-80.65582,4,1,0,100,0,1
228832,-80.329544,4,1,0,100,0,1
228904,-80,4,1,0,100,0,1
237761,-71.42857,4,1,0,100,0,1
237832,-75.176704,4,1,0,100,0,1
237904,-79.178535,4,1,0,100,0,1
237975,-83.333336,4,1,0,100,0,1
238052,-76.9230769230769,4,1,0,100,0,0
241475,-76.92308,4,1,0,100,0,0
241618,-80.6451612903226,4,1,0,100,0,0
241761,-84.7457627118644,4,1,0,100,0,0
241904,-89.2857142857143,4,1,0,100,0,0
242046,-71.42857,4,1,0,100,0,0
242118,-73.03185,4,1,0,100,0,0
242189,-74.6481,4,1,0,100,0,0
242261,-76.32365,4,1,0,100,0,0
242332,-78.01274,4,1,0,100,0,0
242404,-79.76381,4,1,0,100,0,0
242475,-81.529045,4,1,0,100,0,0
242546,-83.3333360000001,4,1,0,100,0,0
242619,-76.9230791952663,4,1,0,100,0,0
246047,-76.92308,4,1,0,100,0,0
246190,-80.6451612903226,4,1,0,100,0,0
246333,-84.7457627118644,4,1,0,100,0,0
246476,-89.2857142857143,4,1,0,100,0,0
246618,-71.42857,4,1,0,100,0,0
246690,-73.03185,4,1,0,100,0,0
246761,-74.6481,4,1,0,100,0,0
246833,-76.32365,4,1,0,100,0,0
246904,-78.01274,4,1,0,100,0,0
246976,-79.76381,4,1,0,100,0,0
247047,-81.529045,4,1,0,100,0,0
247118,-83.3333360000001,4,1,0,100,0,0
247195,-76.9230791952663,4,1,0,100,0,1
256047,-66.666664,4,1,0,100,0,1
256118,-68.9655172413793,4,1,0,100,0,1
256189,-71.4285714285714,4,1,0,100,0,1
256260,-74.0740740740741,4,1,0,100,0,1
256338,-83.3333333333333,4,1,0,20,0,0
256905,-83.3333333333333,4,1,0,50,0,0
256976,-10,4,1,0,30,0,0
258052,-10,4,1,0,20,0,0

[HitObjects]
289,166,338,5,4,0:0:0:0:
265,262,1480,1,8,0:0:0:0:
327,148,2052,1,8,0:0:0:0:
327,148,2623,1,0,0:0:0:0:
327,148,3766,1,0,0:0:0:0:
327,148,4909,1,8,0:0:0:0:
327,148,6052,1,8,0:0:0:0:
327,148,6623,1,0,0:0:0:0:
327,148,7195,1,8,0:0:0:0:
327,148,8338,1,8,0:0:0:0:
377,129,9480,1,4,0:0:0:0:
406,218,9909,1,8,0:0:0:0:
406,218,10338,1,0,0:0:0:0:
406,218,10480,1,0,0:0:0:0:
258,191,10623,1,8,0:0:0:0:
319,172,10766,1,0,0:0:0:0:
319,172,10909,1,8,0:0:0:0:
319,172,11052,1,8,0:0:0:0:
319,172,11338,1,0,0:0:0:0:
319,172,11480,1,8,0:0:0:0:
319,172,11623,1,8,0:0:0:0:
319,172,11766,1,0,0:0:0:0:
319,172,12052,1,0,0:0:0:0:
319,172,12195,1,8,0:0:0:0:
176,128,12480,1,8,0:0:0:0:
176,128,12623,1,0,0:0:0:0:
176,128,12766,1,0,0:0:0:0:
176,128,12909,1,8,0:0:0:0:
194,111,13195,1,8,0:0:0:0:
194,111,13338,1,0,0:0:0:0:
194,111,13480,1,8,0:0:0:0:
194,111,13623,1,0,0:0:0:0:
194,111,13766,1,8,0:0:0:0:
194,111,14052,1,4,0:0:0:0:
249,155,14480,1,8,0:0:0:0:
249,155,14909,1,0,0:0:0:0:
249,155,15052,1,8,0:0:0:0:
331,93,15195,1,0,0:0:0:0:
331,93,15338,1,0,0:0:0:0:
331,93,15480,1,8,0:0:0:0:
331,93,15623,1,0,0:0:0:0:
331,93,15766,1,8,0:0:0:0:
331,93,16052,1,8,0:0:0:0:
331,93,16195,1,8,0:0:0:0:
331,93,16338,1,8,0:0:0:0:
228,79,16623,1,0,0:0:0:0:
228,79,16766,1,8,0:0:0:0:
228,79,17052,1,0,0:0:0:0:
228,79,17195,1,8,0:0:0:0:
228,79,17338,1,8,0:0:0:0:
228,79,17480,1,8,0:0:0:0:
228,79,17766,1,0,0:0:0:0:
228,79,18052,1,8,0:0:0:0:
228,79,18195,1,8,0:0:0:0:
228,79,18338,1,0,0:0:0:0:
228,79,18480,1,8,0:0:0:0:
228,79,18623,1,4,0:0:0:0:
328,196,18766,1,8,0:0:0:0:
328,196,18909,1,8,0:0:0:0:
328,196,19052,1,0,0:0:0:0:
328,196,19123,1,8,0:0:0:0:
328,196,19195,1,0,0:0:0:0:
277,188,19266,1,8,0:0:0:0:
277,188,19338,1,0,0:0:0:0:
262,88,19480,1,8,0:0:0:0:
262,88,19552,1,0,0:0:0:0:
262,88,19623,1,0,0:0:0:0:
262,88,19695,1,0,0:0:0:0:
262,88,19766,1,12,0:0:0:0:
491,276,19909,1,0,0:0:0:0:
491,276,20052,1,8,0:0:0:0:
378,246,20195,1,0,0:0:0:0:
201,60,20338,1,8,0:0:0:0:
201,60,20409,1,8,0:0:0:0:
223,56,20480,1,0,0:0:0:0:
223,56,20552,1,0,0:0:0:0:
223,56,20623,1,8,0:0:0:0:
223,56,20766,1,8,0:0:0:0:
223,56,20838,1,8,0:0:0:0:
223,56,20909,1,4,0:0:0:0:
354,215,21052,1,8,0:0:0:0:
354,215,21123,1,0,0:0:0:0:
354,215,21195,1,8,0:0:0:0:
354,215,21266,1,8,0:0:0:0:
354,215,21338,1,0,0:0:0:0:
354,215,21409,1,8,0:0:0:0:
354,215,21480,1,0,0:0:0:0:
354,215,21552,1,0,0:0:0:0:
317,122,21623,1,8,0:0:0:0:
317,122,21695,1,0,0:0:0:0:
317,122,21766,1,8,0:0:0:0:
317,122,21838,1,8,0:0:0:0:
317,122,21909,1,0,0:0:0:0:
317,122,21980,1,0,0:0:0:0:
317,122,22052,1,8,0:0:0:0:
317,122,22123,1,8,0:0:0:0:
317,122,22195,1,0,0:0:0:0:
317,122,22266,1,8,0:0:0:0:
317,122,22338,1,0,0:0:0:0:
317,122,22409,1,0,0:0:0:0:
317,122,22480,1,8,0:0:0:0:
317,122,22552,1,8,0:0:0:0:
252,54,22623,1,0,0:0:0:0:
252,54,22695,1,0,0:0:0:0:
252,54,22766,1,8,0:0:0:0:
252,54,22838,1,8,0:0:0:0:
252,54,22909,1,0,0:0:0:0:
252,54,22980,1,0,0:0:0:0:
252,54,23052,1,8,0:0:0:0:
252,54,23123,1,8,0:0:0:0:
252,54,23195,1,4,0:0:0:0:
414,106,23766,1,8,0:0:0:0:
225,102,23814,1,8,0:0:0:0:
304,92,23861,1,8,0:0:0:0:
414,106,23909,1,0,0:0:0:0:
199,82,23980,1,8,0:0:0:0:
337,135,24052,1,0,0:0:0:0:
337,135,24099,1,0,0:0:0:0:
337,135,24147,1,0,0:0:0:0:
337,135,24195,1,8,0:0:0:0:
330,119,24266,1,0,0:0:0:0:
208,75,24338,1,8,0:0:0:0:
208,75,24385,1,0,0:0:0:0:
223,69,24433,1,0,0:0:0:0:
223,69,24480,1,8,0:0:0:0:
286,104,24552,1,0,0:0:0:0:
286,104,24623,1,0,0:0:0:0:
286,104,24695,1,8,0:0:0:0:
286,104,24766,1,8,0:0:0:0:
286,104,24838,1,0,0:0:0:0:
286,104,24909,1,8,0:0:0:0:
314,137,24957,1,0,0:0:0:0:
314,137,25004,1,0,0:0:0:0:
275,131,25052,1,8,0:0:0:0:
275,131,25099,1,0,0:0:0:0:
275,131,25147,1,0,0:0:0:0:
275,131,25195,1,8,0:0:0:0:
316,123,25266,1,0,0:0:0:0:
316,123,25338,1,8,0:0:0:0:
316,123,25409,1,8,0:0:0:0:
212,100,25480,1,4,0:0:0:0:
399,189,26052,1,0,0:0:0:0:
399,189,26099,1,8,0:0:0:0:
399,189,26147,1,8,0:0:0:0:
237,43,26195,1,0,0:0:0:0:
399,189,26266,1,8,0:0:0:0:
221,134,26338,1,0,0:0:0:0:
221,134,26385,1,0,0:0:0:0:
221,134,26433,1,0,0:0:0:0:
221,134,26480,1,8,0:0:0:0:
215,79,26528,1,8,0:0:0:0:
273,62,26576,1,8,0:0:0:0:
215,79,26623,1,0,0:0:0:0:
215,79,26695,1,8,0:0:0:0:
281,108,26766,1,0,0:0:0:0:
339,65,26838,1,8,0:0:0:0:
339,65,26909,1,0,0:0:0:0:
465,209,26980,1,8,0:0:0:0:
173,131,27052,1,0,0:0:0:0:
173,131,27123,1,0,0:0:0:0:
173,131,27195,1,8,0:0:0:0:
303,181,27242,1,0,0:0:0:0:
303,181,27290,1,0,0:0:0:0:
303,181,27338,1,8,0:0:0:0:
206,42,27409,1,8,0:0:0:0:
430,84,27480,1,0,0:0:0:0:
430,84,27552,1,0,0:0:0:0:
430,84,27623,1,8,0:0:0:0:
430,84,27695,1,8,0:0:0:0:
430,84,27766,1,4,0:0:0:0:
309,260,28338,1,8,0:0:0:0:
394,113,28385,1,8,0:0:0:0:
262,121,28433,1,8,0:0:0:0:
394,113,28480,1,0,0:0:0:0:
296,86,28552,1,8,0:0:0:0:
323,118,28623,1,0,0:0:0:0:
323,118,28671,1,0,0:0:0:0:
254,73,28718,1,0,0:0:0:0:
254,73,28766,1,8,0:0:0:0:
271,117,28838,1,0,0:0:0:0:
271,117,28909,1,8,0:0:0:0:
254,111,28957,1,0,0:0:0:0:
254,111,29004,1,0,0:0:0:0:
254,111,29052,1,8,0:0:0:0:
211,122,29123,1,0,0:0:0:0:
211,122,29195,1,0,0:0:0:0:
211,122,29266,1,8,0:0:0:0:
211,122,29338,1,8,0:0:0:0:
211,122,29409,1,0,0:0:0:0:
211,122,29480,1,8,0:0:0:0:
296,86,29528,1,8,0:0:0:0:
296,86,29576,1,8,0:0:0:0:
296,86,29623,1,8,0:0:0:0:
296,86,29671,1,8,0:0:0:0:
296,86,29718,1,8,0:0:0:0:
211,122,29766,1,0,0:0:0:0:
211,122,29838,1,0,0:0:0:0:
211,122,29909,1,8,0:0:0:0:
211,122,29980,1,8,0:0:0:0:
321,137,30052,1,4,0:0:0:0:
414,106,30623,1,8,0:0:0:0:
334,89,30671,1,8,0:0:0:0:
304,92,30718,1,8,0:0:0:0:
414,106,30766,1,0,0:0:0:0:
199,82,30838,1,8,0:0:0:0:
337,135,30909,1,0,0:0:0:0:
337,135,30957,1,0,0:0:0:0:
337,135,31004,1,0,0:0:0:0:
337,135,31052,1,8,0:0:0:0:
330,119,31123,1,0,0:0:0:0:
208,75,31195,1,8,0:0:0:0:
208,75,31242,1,8,0:0:0:0:
223,69,31290,1,8,0:0:0:0:
223,69,31338,1,0,0:0:0:0:
286,104,31409,1,8,0:0:0:0:
286,104,31480,1,0,0:0:0:0:
286,104,31552,1,8,0:0:0:0:
286,104,31623,1,8,0:0:0:0:
286,104,31695,1,0,0:0:0:0:
286,104,31766,1,8,0:0:0:0:
314,137,31814,1,8,0:0:0:0:
314,137,31861,1,8,0:0:0:0:
275,131,31909,1,0,0:0:0:0:
275,131,31957,1,0,0:0:0:0:
275,131,32004,1,0,0:0:0:0:
275,131,32052,1,8,0:0:0:0:
316,123,32123,1,0,0:0:0:0:
316,123,32195,1,8,0:0:0:0:
316,123,32266,1,8,0:0:0:0:
212,100,32338,1,4,0:0:0:0:
207,89,32552,1,4,0:0:0:0:
276,41,32766,1,4,0:0:0:0:
276,41,32909,1,12,0:0:0:0:
268,234,33195,1,0,0:0:0:0:
237,107,33266,1,0,0:0:0:0:
237,107,33338,1,8,0:0:0:0:
245,102,33385,1,8,0:0:0:0:
245,102,33433,1,8,0:0:0:0:
245,102,33480,1,0,0:0:0:0:
246,37,33528,1,0,0:0:0:0:
246,37,33576,1,0,0:0:0:0:
170,38,33623,1,8,0:0:0:0:
246,37,33695,1,8,0:0:0:0:
246,37,33766,1,0,0:0:0:0:
246,37,33909,1,0,0:0:0:0:
246,37,33980,1,0,0:0:0:0:
246,37,34052,1,8,0:0:0:0:
268,81,34099,1,8,0:0:0:0:
268,81,34147,1,8,0:0:0:0:
268,81,34195,1,8,0:0:0:0:
268,81,34242,1,8,0:0:0:0:
268,81,34290,1,8,0:0:0:0:
341,60,34338,1,0,0:0:0:0:
432,209,34409,1,0,0:0:0:0:
432,209,34480,1,8,0:0:0:0:
432,209,34552,1,8,0:0:0:0:
432,209,34623,1,4,0:0:0:0:
409,272,34838,1,8,0:0:0:0:
409,272,34909,1,0,0:0:0:0:
247,208,34980,1,0,0:0:0:0:
247,208,35052,1,8,0:0:0:0:
247,208,35123,1,0,0:0:0:0:
296,89,35195,1,8,0:0:0:0:
296,89,35266,1,0,0:0:0:0:
292,72,35338,1,8,0:0:0:0:
292,72,35385,1,0,0:0:0:0:
292,72,35433,1,0,0:0:0:0:
270,79,35480,1,8,0:0:0:0:
295,153,35552,1,0,0:0:0:0:
205,122,35623,1,8,0:0:0:0:
205,122,35671,1,8,0:0:0:0:
205,122,35718,1,8,0:0:0:0:
238,42,35766,1,0,0:0:0:0:
356,50,35838,1,0,0:0:0:0:
356,50,35909,1,8,0:0:0:0:
356,50,35980,1,8,0:0:0:0:
303,74,36052,1,0,0:0:0:0:
303,74,36195,1,0,0:0:0:0:
303,74,36266,1,0,0:0:0:0:
198,80,36338,1,8,0:0:0:0:
375,113,36385,1,0,0:0:0:0:
375,113,36433,1,0,0:0:0:0:
375,113,36480,1,8,0:0:0:0:
375,113,36528,1,0,0:0:0:0:
225,91,36576,1,0,0:0:0:0:
225,91,36623,1,8,0:0:0:0:
310,91,36695,1,0,0:0:0:0:
268,93,36766,1,8,0:0:0:0:
310,91,36838,1,8,0:0:0:0:
310,91,36909,1,4,0:0:0:0:
431,166,37195,1,8,0:0:0:0:
257,64,37242,1,8,0:0:0:0:
431,166,37290,1,8,0:0:0:0:
431,166,37338,1,0,0:0:0:0:
474,99,37480,1,8,0:0:0:0:
333,139,37516,1,8,0:0:0:0:
259,133,37623,1,0,0:0:0:0:
259,133,37659,1,0,0:0:0:0:
259,133,37766,1,8,0:0:0:0:
278,124,37814,1,0,0:0:0:0:
278,124,37861,1,0,0:0:0:0:
278,124,37909,1,8,0:0:0:0:
244,111,37980,1,8,0:0:0:0:
231,42,38052,1,0,0:0:0:0:
231,42,38195,1,8,0:0:0:0:
272,83,38230,1,8,0:0:0:0:
272,83,38338,1,8,0:0:0:0:
172,60,38480,1,0,0:0:0:0:
298,69,38552,1,0,0:0:0:0:
298,69,38623,1,8,0:0:0:0:
324,64,38659,1,8,0:0:0:0:
298,69,38766,1,0,0:0:0:0:
298,69,38909,1,8,0:0:0:0:
230,135,38957,1,8,0:0:0:0:
230,135,39004,1,8,0:0:0:0:
230,135,39052,1,8,0:0:0:0:
230,135,39099,1,8,0:0:0:0:
230,135,39147,1,8,0:0:0:0:
230,135,39195,1,4,0:0:0:0:
402,252,39409,1,4,0:0:0:0:
402,252,39623,1,4,0:0:0:0:
402,252,39766,1,12,0:0:0:0:
294,202,39957,1,4,0:0:0:0:
294,202,40052,1,4,0:0:0:0:
294,202,40147,1,12,0:0:0:0:
294,202,40242,1,12,0:0:0:0:
188,158,40338,1,4,0:0:0:0:
323,129,40623,1,8,0:0:0:0:
323,129,40766,1,0,0:0:0:0:
323,129,40838,1,0,0:0:0:0:
141,127,40909,1,8,0:0:0:0:
141,127,40957,1,8,0:0:0:0:
141,127,41004,1,8,0:0:0:0:
141,127,41052,1,0,0:0:0:0:
141,127,41099,1,0,0:0:0:0:
141,127,41147,1,0,0:0:0:0:
141,127,41195,1,8,0:0:0:0:
218,146,41266,1,8,0:0:0:0:
218,146,41338,1,8,0:0:0:0:
218,146,41409,1,8,0:0:0:0:
218,146,41480,1,4,0:0:0:0:
333,182,41623,1,8,0:0:0:0:
333,182,41695,1,8,0:0:0:0:
168,135,41766,1,0,0:0:0:0:
168,135,41909,1,8,0:0:0:0:
152,133,42052,1,0,0:0:0:0:
152,133,42195,1,8,0:0:0:0:
152,133,42266,1,0,0:0:0:0:
152,133,42338,1,8,0:0:0:0:
117,129,42480,1,8,0:0:0:0:
117,129,42623,1,0,0:0:0:0:
154,111,42766,1,0,0:0:0:0:
117,129,42838,1,0,0:0:0:0:
154,111,42909,1,8,0:0:0:0:
154,111,43052,1,8,0:0:0:0:
154,111,43195,1,0,0:0:0:0:
130,114,43338,1,8,0:0:0:0:
130,114,43409,1,8,0:0:0:0:
130,114,43480,1,0,0:0:0:0:
130,114,43552,1,0,0:0:0:0:
130,114,43623,1,8,0:0:0:0:
130,114,43766,1,0,0:0:0:0:
333,182,43909,1,0,0:0:0:0:
333,182,43981,1,0,0:0:0:0:
168,135,44052,1,8,0:0:0:0:
168,135,44195,1,8,0:0:0:0:
152,133,44338,1,0,0:0:0:0:
152,133,44481,1,8,0:0:0:0:
152,133,44552,1,0,0:0:0:0:
152,133,44624,1,8,0:0:0:0:
117,129,44766,1,8,0:0:0:0:
117,129,44909,1,0,0:0:0:0:
154,111,45052,1,8,0:0:0:0:
117,129,45124,1,0,0:0:0:0:
154,111,45195,1,0,0:0:0:0:
154,111,45338,1,8,0:0:0:0:
154,111,45481,1,0,0:0:0:0:
130,114,45624,1,0,0:0:0:0:
130,114,45695,1,8,0:0:0:0:
130,114,45766,1,0,0:0:0:0:
130,114,45838,1,0,0:0:0:0:
130,114,45909,1,8,0:0:0:0:
130,114,46052,1,4,0:0:0:0:
333,182,46195,1,8,0:0:0:0:
333,182,46267,1,8,0:0:0:0:
168,135,46338,1,0,0:0:0:0:
168,135,46481,1,8,0:0:0:0:
152,133,46624,1,0,0:0:0:0:
152,133,46767,1,8,0:0:0:0:
152,133,46838,1,8,0:0:0:0:
152,133,46910,1,8,0:0:0:0:
117,129,47052,1,8,0:0:0:0:
117,129,47195,1,0,0:0:0:0:
154,111,47338,1,0,0:0:0:0:
117,129,47410,1,8,0:0:0:0:
154,111,47481,1,8,0:0:0:0:
154,111,47624,1,8,0:0:0:0:
154,111,47767,1,0,0:0:0:0:
130,114,47910,1,8,0:0:0:0:
130,114,47981,1,0,0:0:0:0:
130,114,48052,1,0,0:0:0:0:
130,114,48124,1,0,0:0:0:0:
130,114,48195,1,8,0:0:0:0:
130,114,48338,1,4,0:0:0:0:
333,182,48480,1,8,0:0:0:0:
333,182,48552,1,0,0:0:0:0:
168,135,48623,1,0,0:0:0:0:
168,135,48766,1,8,0:0:0:0:
152,133,48909,1,0,0:0:0:0:
152,133,49052,1,0,0:0:0:0:
152,133,49123,1,0,0:0:0:0:
152,133,49195,1,8,0:0:0:0:
117,129,49337,1,8,0:0:0:0:
117,129,49480,1,4,0:0:0:0:
154,111,49623,1,0,0:0:0:0:
117,129,49695,1,8,0:0:0:0:
154,111,49766,1,8,0:0:0:0:
154,111,49909,1,8,0:0:0:0:
154,111,50052,1,4,0:0:0:0:
130,114,50195,1,8,0:0:0:0:
130,114,50266,1,0,0:0:0:0:
130,114,50338,1,8,0:0:0:0:
130,114,50409,1,0,0:0:0:0:
130,114,50480,1,8,0:0:0:0:
130,114,50552,1,8,0:0:0:0:
130,114,50623,1,4,0:0:0:0:
333,182,50766,1,8,0:0:0:0:
333,182,50838,1,8,0:0:0:0:
168,135,50909,1,0,0:0:0:0:
168,135,51052,1,8,0:0:0:0:
152,133,51195,1,0,0:0:0:0:
152,133,51338,1,8,0:0:0:0:
152,133,51409,1,0,0:0:0:0:
152,133,51481,1,8,0:0:0:0:
357,135,51552,1,0,0:0:0:0:
117,129,51623,1,8,0:0:0:0:
354,129,51695,1,8,0:0:0:0:
117,129,51766,1,0,0:0:0:0:
154,111,51909,1,0,0:0:0:0:
117,129,51981,1,0,0:0:0:0:
154,111,52052,1,8,0:0:0:0:
154,111,52195,1,8,0:0:0:0:
232,64,52338,1,0,0:0:0:0:
232,64,52409,1,0,0:0:0:0:
130,114,52481,1,8,0:0:0:0:
130,114,52552,1,8,0:0:0:0:
130,114,52623,1,0,0:0:0:0:
130,114,52695,1,0,0:0:0:0:
130,114,52766,1,8,0:0:0:0:
130,114,52909,1,0,0:0:0:0:
333,182,53052,1,8,0:0:0:0:
333,182,53124,1,0,0:0:0:0:
168,135,53195,1,0,0:0:0:0:
168,135,53338,1,8,0:0:0:0:
152,133,53481,1,0,0:0:0:0:
152,133,53624,1,0,0:0:0:0:
152,133,53695,1,8,0:0:0:0:
152,133,53767,1,8,0:0:0:0:
293,77,53838,1,0,0:0:0:0:
117,129,53909,1,8,0:0:0:0:
392,166,53980,1,8,0:0:0:0:
117,129,54052,1,0,0:0:0:0:
154,111,54195,1,0,0:0:0:0:
117,129,54267,1,0,0:0:0:0:
154,111,54338,1,8,0:0:0:0:
154,111,54481,1,8,0:0:0:0:
154,111,54624,1,0,0:0:0:0:
226,69,54695,1,0,0:0:0:0:
130,114,54767,1,8,0:0:0:0:
130,114,54838,1,8,0:0:0:0:
130,114,54909,1,0,0:0:0:0:
130,114,54981,1,8,0:0:0:0:
130,114,55052,1,0,0:0:0:0:
130,114,55195,1,4,0:0:0:0:
333,182,55338,1,8,0:0:0:0:
333,182,55410,1,8,0:0:0:0:
168,135,55481,1,0,0:0:0:0:
168,135,55624,1,8,0:0:0:0:
152,133,55767,1,0,0:0:0:0:
152,133,55910,1,8,0:0:0:0:
152,133,55981,1,8,0:0:0:0:
152,133,56053,1,0,0:0:0:0:
221,18,56123,1,0,0:0:0:0:
117,129,56195,1,8,0:0:0:0:
470,163,56266,1,8,0:0:0:0:
117,129,56338,1,0,0:0:0:0:
154,111,56481,1,8,0:0:0:0:
117,129,56553,1,8,0:0:0:0:
154,111,56624,1,0,0:0:0:0:
154,111,56767,1,8,0:0:0:0:
154,111,56910,1,0,0:0:0:0:
276,62,56980,1,0,0:0:0:0:
130,114,57053,1,8,0:0:0:0:
130,114,57124,1,0,0:0:0:0:
130,114,57195,1,8,0:0:0:0:
130,114,57267,1,8,0:0:0:0:
130,114,57338,1,0,0:0:0:0:
130,114,57480,1,4,0:0:0:0:
333,182,57623,1,8,0:0:0:0:
333,182,57695,1,8,0:0:0:0:
168,135,57766,1,0,0:0:0:0:
267,55,57838,1,0,0:0:0:0:
168,135,57909,1,8,0:0:0:0:
152,133,58052,1,4,0:0:0:0:
152,133,58195,1,8,0:0:0:0:
152,133,58266,1,0,0:0:0:0:
152,133,58338,1,0,0:0:0:0:
267,55,58409,1,0,0:0:0:0:
117,129,58480,1,8,0:0:0:0:
117,129,58623,1,4,0:0:0:0:
154,111,58766,1,0,0:0:0:0:
117,129,58838,1,0,0:0:0:0:
154,111,58909,1,8,0:0:0:0:
287,58,58980,1,0,0:0:0:0:
154,111,59052,1,8,0:0:0:0:
154,111,59195,1,0,0:0:0:0:
352,238,59266,1,0,0:0:0:0:
352,238,59338,1,8,0:0:0:0:
352,238,59409,1,0,0:0:0:0:
257,211,59480,1,8,0:0:0:0:
257,211,59552,1,8,0:0:0:0:
257,211,59623,1,8,0:0:0:0:
257,211,59695,1,8,0:0:0:0:
301,140,59766,1,0,0:0:0:0:
301,140,59838,1,0,0:0:0:0:
185,120,59909,1,8,0:0:0:0:
185,120,59980,1,0,0:0:0:0:
185,120,60052,1,0,0:0:0:0:
125,106,60123,1,8,0:0:0:0:
125,106,60195,1,0,0:0:0:0:
125,106,60266,1,0,0:0:0:0:
125,106,60338,1,8,0:0:0:0:
125,106,60409,1,0,0:0:0:0:
125,106,60480,1,0,0:0:0:0:
125,106,60552,1,8,0:0:0:0:
125,106,60623,1,0,0:0:0:0:
125,106,60695,1,0,0:0:0:0:
125,106,60766,1,8,0:0:0:0:
125,106,60838,1,0,0:0:0:0:
125,106,60909,1,12,0:0:0:0:
285,91,61123,1,12,0:0:0:0:
285,91,61338,1,12,0:0:0:0:
285,91,61552,1,12,0:0:0:0:
285,91,61766,1,12,0:0:0:0:
285,91,61909,1,0,0:0:0:0:
285,91,61980,1,0,0:0:0:0:
285,91,62052,1,12,0:0:0:0:
285,91,62338,1,0,0:0:0:0:
367,251,62480,1,12,0:0:0:0:
383,111,62766,1,0,0:0:0:0:
274,55,62909,1,12,0:0:0:0:
283,20,63195,1,0,0:0:0:0:
283,20,63338,1,8,0:0:0:0:
292,58,63385,1,0,0:0:0:0:
292,58,63433,1,0,0:0:0:0:
292,58,63480,1,8,0:0:0:0:
322,78,63552,1,0,0:0:0:0:
183,47,63623,1,12,0:0:0:0:
343,60,63766,1,8,0:0:0:0:
343,60,63838,1,8,0:0:0:0:
343,60,63909,1,0,0:0:0:0:
343,60,63980,1,0,0:0:0:0:
343,60,64052,1,0,0:0:0:0:
343,60,64195,1,8,0:0:0:0:
230,44,64266,1,8,0:0:0:0:
343,60,64338,5,0,0:0:0:0:
230,44,64480,1,0,0:0:0:0:
230,44,64623,1,0,0:0:0:0:
230,44,64695,1,8,0:0:0:0:
125,41,64766,1,0,0:0:0:0:
132,43,64909,1,8,0:0:0:0:
132,43,65052,1,8,0:0:0:0:
132,43,65123,1,8,0:0:0:0:
132,43,65195,1,0,0:0:0:0:
205,32,65338,1,8,0:0:0:0:
205,32,65409,1,0,0:0:0:0:
232,271,65480,5,12,0:0:0:0:
232,271,65695,1,12,0:0:0:0:
232,271,65909,1,12,0:0:0:0:
232,271,66123,1,12,0:0:0:0:
232,271,66338,1,12,0:0:0:0:
232,271,66480,1,0,0:0:0:0:
232,271,66552,1,0,0:0:0:0:
232,271,66623,1,12,0:0:0:0:
226,200,66909,1,0,0:0:0:0:
226,200,67052,1,12,0:0:0:0:
226,200,67338,1,0,0:0:0:0:
226,200,67480,1,12,0:0:0:0:
283,20,67766,1,0,0:0:0:0:
283,20,67909,1,8,0:0:0:0:
292,58,67957,1,0,0:0:0:0:
292,58,68004,1,0,0:0:0:0:
292,58,68052,1,8,0:0:0:0:
322,78,68123,1,0,0:0:0:0:
183,47,68195,1,8,0:0:0:0:
343,60,68338,1,8,0:0:0:0:
343,60,68385,1,8,0:0:0:0:
215,49,68433,1,8,0:0:0:0:
343,60,68480,1,0,0:0:0:0:
343,60,68552,1,8,0:0:0:0:
343,60,68623,1,0,0:0:0:0:
301,111,68695,1,0,0:0:0:0:
343,60,68766,1,8,0:0:0:0:
230,44,68838,1,8,0:0:0:0:
232,329,68909,1,4,0:0:0:0:
344,127,71195,1,8,0:0:0:0:
344,127,73480,1,0,0:0:0:0:
344,127,75766,1,8,0:0:0:0:
344,127,77480,1,8,0:0:0:0:
344,127,77766,1,0,0:0:0:0:
344,127,77909,1,0,0:0:0:0:
344,127,78052,1,12,0:0:0:0:
170,162,78338,1,8,0:0:0:0:
170,162,78480,1,0,0:0:0:0:
170,162,78766,1,0,0:0:0:0:
170,162,78909,1,8,0:0:0:0:
170,162,79052,1,0,0:0:0:0:
170,162,79195,1,8,0:0:0:0:
478,297,79338,1,8,0:0:0:0:
210,254,79623,1,0,0:0:0:0:
328,140,79766,1,8,0:0:0:0:
328,140,79909,1,8,0:0:0:0:
328,140,80052,1,8,0:0:0:0:
328,140,80195,1,0,0:0:0:0:
328,140,80338,1,8,0:0:0:0:
328,140,80623,1,0,0:0:0:0:
328,140,80766,1,8,0:0:0:0:
328,140,81052,1,0,0:0:0:0:
328,140,81195,1,8,0:0:0:0:
179,107,81338,1,0,0:0:0:0:
179,107,81480,1,8,0:0:0:0:
179,107,81623,1,8,0:0:0:0:
179,107,81766,1,0,0:0:0:0:
179,107,81909,1,8,0:0:0:0:
179,107,82195,1,8,0:0:0:0:
179,107,82480,1,0,0:0:0:0:
179,107,82623,1,8,0:0:0:0:
179,107,82766,1,0,0:0:0:0:
179,107,82909,1,8,0:0:0:0:
179,107,83052,1,8,0:0:0:0:
179,107,83195,1,0,0:0:0:0:
179,107,83338,1,8,0:0:0:0:
179,107,83480,1,0,0:0:0:0:
155,298,83552,1,8,0:0:0:0:
179,107,83623,1,0,0:0:0:0:
270,229,83695,1,0,0:0:0:0:
270,229,83766,1,12,0:0:0:0:
270,229,83909,1,0,0:0:0:0:
270,229,84052,1,8,0:0:0:0:
270,229,84195,1,8,0:0:0:0:
270,229,84338,1,0,0:0:0:0:
296,237,84480,1,0,0:0:0:0:
296,237,84623,1,8,0:0:0:0:
296,237,84766,1,8,0:0:0:0:
296,237,84838,1,8,0:0:0:0:
296,237,84909,1,4,0:0:0:0:
296,237,85052,1,8,0:0:0:0:
296,237,85195,1,8,0:0:0:0:
296,237,85338,1,0,0:0:0:0:
190,194,85623,1,8,0:0:0:0:
190,194,85909,1,0,0:0:0:0:
326,220,86052,1,8,0:0:0:0:
326,220,86123,1,8,0:0:0:0:
326,220,86195,1,0,0:0:0:0:
326,220,86266,1,0,0:0:0:0:
326,220,86338,1,8,0:0:0:0:
181,167,86409,1,0,0:0:0:0:
181,167,86480,1,8,0:0:0:0:
181,167,86552,1,8,0:0:0:0:
181,167,86623,1,0,0:0:0:0:
181,167,86695,1,0,0:0:0:0:
181,167,86766,1,8,0:0:0:0:
181,167,86838,1,8,0:0:0:0:
181,167,86909,1,0,0:0:0:0:
181,167,86980,1,0,0:0:0:0:
181,167,87052,1,8,0:0:0:0:
181,167,87123,1,8,0:0:0:0:
181,167,87195,1,4,0:0:0:0:
410,189,87338,1,8,0:0:0:0:
291,157,87409,1,8,0:0:0:0:
291,157,87480,1,0,0:0:0:0:
262,132,87623,1,8,0:0:0:0:
262,132,87766,1,0,0:0:0:0:
262,132,87838,1,0,0:0:0:0:
262,132,87909,1,8,0:0:0:0:
262,132,87980,1,8,0:0:0:0:
262,132,88052,1,0,0:0:0:0:
262,132,88195,1,8,0:0:0:0:
262,132,88338,1,0,0:0:0:0:
227,44,88409,1,0,0:0:0:0:
124,100,88480,1,8,0:0:0:0:
263,182,88552,1,0,0:0:0:0:
263,182,88623,1,8,0:0:0:0:
263,182,88695,1,8,0:0:0:0:
263,182,88766,1,0,0:0:0:0:
263,182,88909,1,8,0:0:0:0:
263,182,88980,1,0,0:0:0:0:
263,182,89052,1,8,0:0:0:0:
270,48,89123,1,8,0:0:0:0:
173,145,89195,1,0,0:0:0:0:
173,145,89338,1,8,0:0:0:0:
173,145,89480,1,0,0:0:0:0:
468,244,89623,1,8,0:0:0:0:
468,244,89695,1,8,0:0:0:0:
268,194,89766,1,0,0:0:0:0:
268,194,89909,1,8,0:0:0:0:
268,194,90052,1,0,0:0:0:0:
268,194,90123,1,0,0:0:0:0:
268,194,90195,1,8,0:0:0:0:
268,194,90266,1,0,0:0:0:0:
268,194,90338,1,8,0:0:0:0:
268,194,90480,1,0,0:0:0:0:
195,177,90623,1,8,0:0:0:0:
195,177,90695,1,8,0:0:0:0:
195,177,90766,1,0,0:0:0:0:
195,177,90838,1,0,0:0:0:0:
195,177,90909,1,8,0:0:0:0:
195,177,90980,1,0,0:0:0:0:
195,177,91052,1,8,0:0:0:0:
186,87,91123,1,8,0:0:0:0:
186,87,91195,1,0,0:0:0:0:
186,87,91266,1,0,0:0:0:0:
186,87,91338,1,8,0:0:0:0:
407,68,91409,1,8,0:0:0:0:
191,76,91480,1,0,0:0:0:0:
191,79,91623,1,0,0:0:0:0:
191,79,91695,1,8,0:0:0:0:
191,82,91766,1,0,0:0:0:0:
410,189,91909,1,0,0:0:0:0:
291,157,91980,1,0,0:0:0:0:
291,157,92052,1,8,0:0:0:0:
262,132,92195,1,8,0:0:0:0:
262,132,92338,1,0,0:0:0:0:
262,132,92409,1,8,0:0:0:0:
262,132,92480,1,8,0:0:0:0:
262,132,92552,1,8,0:0:0:0:
262,132,92623,1,0,0:0:0:0:
262,132,92766,1,8,0:0:0:0:
262,132,92909,1,0,0:0:0:0:
227,44,92980,1,8,0:0:0:0:
124,100,93052,1,0,0:0:0:0:
263,182,93123,1,0,0:0:0:0:
263,182,93195,1,8,0:0:0:0:
263,182,93266,1,8,0:0:0:0:
263,182,93338,1,0,0:0:0:0:
263,182,93480,1,8,0:0:0:0:
263,182,93552,1,0,0:0:0:0:
263,182,93623,1,8,0:0:0:0:
270,48,93695,1,0,0:0:0:0:
173,145,93766,1,8,0:0:0:0:
173,145,93909,1,0,0:0:0:0:
173,145,94052,1,8,0:0:0:0:
311,85,94123,1,8,0:0:0:0:
468,244,94195,1,0,0:0:0:0:
268,194,94338,1,8,0:0:0:0:
268,194,94480,1,8,0:0:0:0:
268,194,94623,1,0,0:0:0:0:
268,194,94695,1,0,0:0:0:0:
268,194,94766,1,8,0:0:0:0:
268,194,94838,1,8,0:0:0:0:
268,194,94909,1,0,0:0:0:0:
268,194,95052,1,0,0:0:0:0:
195,177,95195,1,8,0:0:0:0:
195,177,95266,1,8,0:0:0:0:
195,177,95338,1,0,0:0:0:0:
195,177,95409,1,0,0:0:0:0:
195,177,95480,1,8,0:0:0:0:
195,177,95623,1,8,0:0:0:0:
186,87,95695,1,8,0:0:0:0:
186,87,95766,1,0,0:0:0:0:
186,87,95838,1,8,0:0:0:0:
186,87,95909,1,0,0:0:0:0:
191,76,95980,1,0,0:0:0:0:
191,76,96052,1,8,0:0:0:0:
255,66,96123,1,0,0:0:0:0:
191,79,96195,1,8,0:0:0:0:
191,79,96266,1,8,0:0:0:0:
191,82,96338,1,4,0:0:0:0:
410,189,96480,1,8,0:0:0:0:
291,157,96552,1,0,0:0:0:0:
291,157,96623,1,8,0:0:0:0:
262,132,96766,1,8,0:0:0:0:
262,132,96909,1,0,0:0:0:0:
262,132,96980,1,0,0:0:0:0:
262,132,97052,1,8,0:0:0:0:
262,132,97123,1,0,0:0:0:0:
262,132,97195,1,8,0:0:0:0:
262,132,97338,1,8,0:0:0:0:
262,132,97480,1,0,0:0:0:0:
227,44,97552,1,8,0:0:0:0:
124,100,97623,1,8,0:0:0:0:
263,182,97695,1,0,0:0:0:0:
263,182,97766,1,8,0:0:0:0:
263,182,97838,1,8,0:0:0:0:
263,182,97909,1,0,0:0:0:0:
263,182,98052,1,0,0:0:0:0:
263,182,98123,1,8,0:0:0:0:
263,182,98195,1,0,0:0:0:0:
270,48,98266,1,0,0:0:0:0:
173,145,98338,1,8,0:0:0:0:
173,145,98480,1,0,0:0:0:0:
173,145,98623,1,0,0:0:0:0:
356,91,98695,1,0,0:0:0:0:
468,244,98766,1,8,0:0:0:0:
468,244,98838,1,0,0:0:0:0:
268,194,98909,1,8,0:0:0:0:
268,194,99052,1,0,0:0:0:0:
268,194,99195,1,8,0:0:0:0:
268,194,99266,1,0,0:0:0:0:
268,194,99338,1,0,0:0:0:0:
268,194,99409,1,8,0:0:0:0:
268,194,99480,1,8,0:0:0:0:
236,26,99552,1,8,0:0:0:0:
268,194,99623,1,0,0:0:0:0:
195,177,99766,1,8,0:0:0:0:
195,177,99838,1,0,0:0:0:0:
195,177,99909,1,8,0:0:0:0:
195,177,99980,1,0,0:0:0:0:
195,177,100052,1,8,0:0:0:0:
195,177,100123,1,8,0:0:0:0:
195,177,100195,1,0,0:0:0:0:
186,87,100266,1,0,0:0:0:0:
186,87,100338,1,0,0:0:0:0:
186,87,100409,1,0,0:0:0:0:
186,87,100480,1,8,0:0:0:0:
191,76,100552,1,0,0:0:0:0:
191,76,100623,1,8,0:0:0:0:
191,79,100766,1,0,0:0:0:0:
191,79,100838,1,8,0:0:0:0:
191,82,100909,1,0,0:0:0:0:
410,189,101052,1,8,0:0:0:0:
291,157,101123,1,8,0:0:0:0:
291,157,101195,1,0,0:0:0:0:
262,132,101338,1,8,0:0:0:0:
262,132,101480,1,0,0:0:0:0:
262,132,101552,1,0,0:0:0:0:
262,132,101623,1,0,0:0:0:0:
262,132,101695,1,0,0:0:0:0:
262,132,101766,1,8,0:0:0:0:
262,132,101909,1,8,0:0:0:0:
262,132,102052,1,0,0:0:0:0:
124,100,102195,1,0,0:0:0:0:
243,54,102266,1,8,0:0:0:0:
263,182,102338,1,8,0:0:0:0:
263,182,102480,1,0,0:0:0:0:
263,182,102623,1,8,0:0:0:0:
308,41,102695,1,8,0:0:0:0:
263,182,102766,1,8,0:0:0:0:
270,48,102838,1,0,0:0:0:0:
173,145,102909,1,8,0:0:0:0:
173,145,103052,1,0,0:0:0:0:
173,145,103195,1,0,0:0:0:0:
311,85,103266,1,0,0:0:0:0:
468,244,103338,1,8,0:0:0:0:
318,65,103409,1,0,0:0:0:0:
268,194,103480,1,8,0:0:0:0:
268,194,103623,1,8,0:0:0:0:
268,194,103766,1,0,0:0:0:0:
268,194,103909,1,8,0:0:0:0:
268,194,103980,1,8,0:0:0:0:
268,194,104052,1,0,0:0:0:0:
268,194,104195,1,8,0:0:0:0:
208,66,104266,1,8,0:0:0:0:
195,177,104338,1,0,0:0:0:0:
232,22,104409,1,8,0:0:0:0:
195,177,104480,1,0,0:0:0:0:
195,177,104552,1,0,0:0:0:0:
195,177,104623,1,8,0:0:0:0:
185,37,104695,1,0,0:0:0:0:
185,37,104766,1,8,0:0:0:0:
239,39,104838,1,8,0:0:0:0:
239,39,104909,1,0,0:0:0:0:
239,39,104980,1,0,0:0:0:0:
239,39,105052,1,8,0:0:0:0:
239,39,105123,1,0,0:0:0:0:
239,39,105195,1,8,0:0:0:0:
273,39,105266,1,8,0:0:0:0:
273,39,105338,1,8,0:0:0:0:
273,39,105409,1,8,0:0:0:0:
273,39,105480,1,4,0:0:0:0:
196,206,105623,1,8,0:0:0:0:
196,206,105766,1,8,0:0:0:0:
196,206,105909,1,4,0:0:0:0:
368,258,106052,1,8,0:0:0:0:
295,230,106195,1,8,0:0:0:0:
295,230,106338,1,4,0:0:0:0:
295,230,106480,1,8,0:0:0:0:
295,230,106623,1,8,0:0:0:0:
211,43,106766,1,4,0:0:0:0:
211,43,106909,1,8,0:0:0:0:
223,64,107052,1,8,0:0:0:0:
223,64,107195,1,4,0:0:0:0:
353,111,107338,1,8,0:0:0:0:
172,45,107409,1,8,0:0:0:0:
353,111,107480,1,4,0:0:0:0:
275,113,107623,1,8,0:0:0:0:
275,113,107695,1,8,0:0:0:0:
275,113,107766,1,4,0:0:0:0:
196,206,107909,1,8,0:0:0:0:
196,206,108052,1,8,0:0:0:0:
196,206,108195,1,4,0:0:0:0:
368,258,108338,1,8,0:0:0:0:
295,230,108480,1,8,0:0:0:0:
295,230,108623,1,4,0:0:0:0:
295,230,108766,1,8,0:0:0:0:
295,230,108909,1,4,0:0:0:0:
332,141,109052,1,8,0:0:0:0:
211,43,109195,1,8,0:0:0:0:
309,68,109338,1,0,0:0:0:0:
395,81,109480,1,8,0:0:0:0:
354,88,109552,1,8,0:0:0:0:
353,111,109623,1,0,0:0:0:0:
172,45,109695,1,0,0:0:0:0:
353,111,109766,1,8,0:0:0:0:
294,57,109838,1,8,0:0:0:0:
275,113,109909,1,8,0:0:0:0:
275,113,109980,1,8,0:0:0:0:
275,113,110052,1,4,0:0:0:0:
196,206,110195,1,8,0:0:0:0:
196,206,110338,1,8,0:0:0:0:
196,206,110480,1,4,0:0:0:0:
368,258,110623,1,8,0:0:0:0:
295,230,110766,1,8,0:0:0:0:
295,230,110909,1,4,0:0:0:0:
295,230,111052,1,8,0:0:0:0:
295,230,111195,1,8,0:0:0:0:
211,43,111338,1,4,0:0:0:0:
211,43,111480,1,8,0:0:0:0:
223,64,111623,1,8,0:0:0:0:
223,64,111766,1,4,0:0:0:0:
353,111,111909,1,8,0:0:0:0:
172,45,111980,1,8,0:0:0:0:
353,111,112052,1,4,0:0:0:0:
275,113,112195,1,8,0:0:0:0:
275,113,112266,1,8,0:0:0:0:
275,113,112338,1,4,0:0:0:0:
196,206,112480,1,8,0:0:0:0:
196,206,112623,1,8,0:0:0:0:
196,206,112766,1,4,0:0:0:0:
368,258,112909,1,8,0:0:0:0:
295,230,113052,1,8,0:0:0:0:
295,230,113195,1,4,0:0:0:0:
295,230,113338,1,8,0:0:0:0:
295,230,113480,1,4,0:0:0:0:
332,141,113623,1,0,0:0:0:0:
211,43,113766,1,8,0:0:0:0:
309,68,113909,1,0,0:0:0:0:
210,128,114052,1,8,0:0:0:0:
210,128,114123,1,0,0:0:0:0:
210,128,114195,1,8,0:0:0:0:
210,128,114266,1,8,0:0:0:0:
210,128,114338,1,0,0:0:0:0:
259,20,114409,1,0,0:0:0:0:
259,20,114480,1,8,0:0:0:0:
259,20,114552,1,8,0:0:0:0:
273,39,114623,1,4,0:0:0:0:
196,206,114766,1,8,0:0:0:0:
267,133,114838,1,0,0:0:0:0:
196,206,114909,1,8,0:0:0:0:
196,206,115052,1,8,0:0:0:0:
235,104,115195,1,0,0:0:0:0:
323,188,115266,1,0,0:0:0:0:
295,230,115338,1,8,0:0:0:0:
295,230,115481,1,0,0:0:0:0:
295,230,115623,1,8,0:0:0:0:
323,188,115695,1,0,0:0:0:0:
295,230,115766,1,0,0:0:0:0:
211,43,115909,1,8,0:0:0:0:
211,43,116052,1,8,0:0:0:0:
205,25,116123,1,8,0:0:0:0:
223,64,116195,1,8,0:0:0:0:
223,64,116338,1,0,0:0:0:0:
353,111,116481,1,8,0:0:0:0:
172,45,116552,1,8,0:0:0:0:
353,111,116623,1,0,0:0:0:0:
454,198,116695,1,0,0:0:0:0:
275,113,116766,1,8,0:0:0:0:
275,113,116838,1,8,0:0:0:0:
275,113,116909,1,0,0:0:0:0:
196,206,117052,1,8,0:0:0:0:
372,81,117123,1,0,0:0:0:0:
196,206,117195,1,8,0:0:0:0:
196,206,117338,1,8,0:0:0:0:
236,102,117480,1,0,0:0:0:0:
207,57,117552,1,8,0:0:0:0:
295,230,117623,1,8,0:0:0:0:
295,230,117766,1,0,0:0:0:0:
295,230,117909,1,8,0:0:0:0:
295,230,118052,1,0,0:0:0:0:
156,76,118123,1,0,0:0:0:0:
332,141,118195,1,8,0:0:0:0:
156,76,118266,1,0,0:0:0:0:
211,43,118338,1,8,0:0:0:0:
309,68,118481,1,0,0:0:0:0:
395,81,118623,1,0,0:0:0:0:
354,88,118695,1,8,0:0:0:0:
353,111,118766,1,0,0:0:0:0:
172,45,118838,1,0,0:0:0:0:
353,111,118909,1,8,0:0:0:0:
294,57,118981,1,8,0:0:0:0:
275,113,119052,1,0,0:0:0:0:
275,113,119123,1,8,0:0:0:0:
275,113,119195,1,0,0:0:0:0:
196,206,119338,1,8,0:0:0:0:
267,133,119410,1,0,0:0:0:0:
196,206,119481,1,8,0:0:0:0:
196,206,119624,1,8,0:0:0:0:
235,104,119767,1,0,0:0:0:0:
323,188,119838,1,0,0:0:0:0:
295,230,119910,1,8,0:0:0:0:
295,230,120053,1,8,0:0:0:0:
295,230,120195,1,0,0:0:0:0:
323,188,120267,1,8,0:0:0:0:
295,230,120338,1,0,0:0:0:0:
211,43,120481,1,8,0:0:0:0:
211,43,120624,1,8,0:0:0:0:
205,25,120695,1,8,0:0:0:0:
223,64,120767,1,0,0:0:0:0:
223,64,120910,1,8,0:0:0:0:
353,111,121053,1,0,0:0:0:0:
172,45,121123,1,0,0:0:0:0:
353,111,121195,1,8,0:0:0:0:
454,198,121267,1,0,0:0:0:0:
275,113,121338,1,8,0:0:0:0:
275,113,121410,1,8,0:0:0:0:
275,113,121481,1,0,0:0:0:0:
196,206,121624,1,8,0:0:0:0:
372,81,121695,1,0,0:0:0:0:
196,206,121767,1,8,0:0:0:0:
196,206,121910,1,8,0:0:0:0:
236,102,122052,1,0,0:0:0:0:
207,57,122124,1,8,0:0:0:0:
295,230,122195,1,8,0:0:0:0:
295,230,122338,1,0,0:0:0:0:
295,230,122481,1,8,0:0:0:0:
295,230,122624,1,0,0:0:0:0:
156,76,122695,1,0,0:0:0:0:
332,141,122767,1,8,0:0:0:0:
156,76,122838,1,8,0:0:0:0:
211,43,122910,1,8,0:0:0:0:
309,68,123053,1,8,0:0:0:0:
395,81,123195,1,0,0:0:0:0:
354,88,123267,1,0,0:0:0:0:
353,111,123338,1,8,0:0:0:0:
172,45,123410,1,0,0:0:0:0:
353,111,123481,1,8,0:0:0:0:
294,57,123553,1,8,0:0:0:0:
275,113,123624,1,0,0:0:0:0:
275,113,123695,1,0,0:0:0:0:
159,202,124338,5,8,0:0:0:0:
256,192,124409,12,8,125980,0:0:0:0:
256,192,126052,12,0,128266,0:0:0:0:
263,71,128338,5,4,0:0:0:0:
397,158,128623,1,0,0:0:0:0:
397,158,128766,1,8,0:0:0:0:
340,224,128909,1,0,0:0:0:0:
274,104,129052,1,0,0:0:0:0:
274,104,129195,1,8,0:0:0:0:
340,224,129338,1,0,0:0:0:0:
274,104,129480,1,0,0:0:0:0:
274,104,129623,1,8,0:0:0:0:
274,104,129766,1,0,0:0:0:0:
168,93,129909,1,8,0:0:0:0:
168,93,130052,1,8,0:0:0:0:
168,93,130195,1,0,0:0:0:0:
168,93,130338,1,8,0:0:0:0:
168,93,130480,1,8,0:0:0:0:
168,93,130623,1,8,0:0:0:0:
168,93,130766,1,0,0:0:0:0:
168,93,130909,1,0,0:0:0:0:
168,93,131052,1,8,0:0:0:0:
168,93,131195,1,0,0:0:0:0:
168,93,131338,1,8,0:0:0:0:
168,93,131480,1,8,0:0:0:0:
280,113,131623,1,0,0:0:0:0:
236,91,131766,1,0,0:0:0:0:
246,89,131909,1,8,0:0:0:0:
246,89,132052,1,0,0:0:0:0:
246,89,132195,1,8,0:0:0:0:
226,72,132338,1,8,0:0:0:0:
161,62,132480,1,0,0:0:0:0:
248,69,132623,1,8,0:0:0:0:
316,218,132766,1,8,0:0:0:0:
316,218,132909,1,0,0:0:0:0:
316,218,133052,1,0,0:0:0:0:
316,218,133195,1,0,0:0:0:0:
316,218,133338,1,8,0:0:0:0:
316,218,133480,1,0,0:0:0:0:
241,193,133623,1,0,0:0:0:0:
241,193,133766,1,8,0:0:0:0:
241,193,133909,1,0,0:0:0:0:
220,135,134052,1,0,0:0:0:0:
220,135,134195,1,8,0:0:0:0:
321,72,134338,1,0,0:0:0:0:
321,72,134480,1,8,0:0:0:0:
266,105,134623,1,8,0:0:0:0:
266,105,134766,1,0,0:0:0:0:
266,105,134909,1,0,0:0:0:0:
266,105,135052,1,8,0:0:0:0:
266,105,135195,1,8,0:0:0:0:
266,105,135338,1,0,0:0:0:0:
266,105,135480,1,8,0:0:0:0:
266,105,135623,1,8,0:0:0:0:
266,105,135766,1,0,0:0:0:0:
266,105,135909,1,8,0:0:0:0:
266,105,136052,1,8,0:0:0:0:
266,105,136195,1,0,0:0:0:0:
266,105,136338,1,0,0:0:0:0:
108,66,136480,1,8,0:0:0:0:
108,66,136623,1,0,0:0:0:0:
108,66,136766,1,8,0:0:0:0:
108,66,136909,1,0,0:0:0:0:
229,89,136980,1,0,0:0:0:0:
108,66,137052,1,0,0:0:0:0:
229,89,137123,1,0,0:0:0:0:
229,89,137195,1,8,0:0:0:0:
229,89,137266,1,8,0:0:0:0:
229,89,137338,1,8,0:0:0:0:
229,89,137409,1,8,0:0:0:0:
258,34,137480,1,4,0:0:0:0:
256,192,137552,12,8,138552,0:0:0:0:
280,110,138623,5,12,0:0:0:0:
280,110,138766,1,0,0:0:0:0:
280,110,138909,1,8,0:0:0:0:
280,110,139052,1,8,0:0:0:0:
280,110,139195,1,0,0:0:0:0:
280,110,139338,1,0,0:0:0:0:
280,110,139480,1,8,0:0:0:0:
280,110,139623,1,0,0:0:0:0:
280,110,139766,1,8,0:0:0:0:
280,110,139909,1,8,0:0:0:0:
280,110,140052,1,0,0:0:0:0:
280,110,140195,1,8,0:0:0:0:
280,110,140338,1,0,0:0:0:0:
280,110,140480,1,0,0:0:0:0:
280,110,140623,1,8,0:0:0:0:
280,110,140766,1,0,0:0:0:0:
280,110,140909,1,8,0:0:0:0:
280,110,141052,1,8,0:0:0:0:
280,110,141195,1,0,0:0:0:0:
280,110,141338,1,8,0:0:0:0:
280,110,141480,1,0,0:0:0:0:
280,110,141623,1,0,0:0:0:0:
280,110,141766,1,8,0:0:0:0:
308,120,141838,1,8,0:0:0:0:
280,110,141909,1,8,0:0:0:0:
308,120,141980,1,8,0:0:0:0:
201,89,142052,1,4,0:0:0:0:
256,192,142123,12,4,143123,0:0:0:0:
254,93,143195,5,12,0:0:0:0:
267,138,143338,1,8,0:0:0:0:
267,138,143480,1,0,0:0:0:0:
267,138,143623,1,0,0:0:0:0:
267,138,143766,1,8,0:0:0:0:
267,138,143909,1,0,0:0:0:0:
267,138,144052,1,0,0:0:0:0:
267,138,144195,1,8,0:0:0:0:
267,138,144338,1,8,0:0:0:0:
267,138,144480,1,8,0:0:0:0:
267,138,144623,1,0,0:0:0:0:
267,138,144766,1,8,0:0:0:0:
267,138,144909,1,0,0:0:0:0:
267,138,145052,1,8,0:0:0:0:
267,138,145195,1,8,0:0:0:0:
267,138,145338,1,0,0:0:0:0:
267,138,145480,1,0,0:0:0:0:
267,138,145623,1,8,0:0:0:0:
267,138,145766,1,0,0:0:0:0:
267,138,145909,1,8,0:0:0:0:
267,138,146052,1,8,0:0:0:0:
267,138,146195,1,0,0:0:0:0:
274,97,146338,1,8,0:0:0:0:
274,97,146409,1,8,0:0:0:0:
274,97,146480,1,8,0:0:0:0:
274,97,146552,1,8,0:0:0:0:
274,97,146623,1,4,0:0:0:0:
256,192,146695,12,0,154338,0:0:0:0:
235,64,154623,5,12,0:0:0:0:
235,64,154766,1,4,0:0:0:0:
235,64,154909,1,12,0:0:0:0:
419,245,155195,1,8,0:0:0:0:
419,245,155266,1,8,0:0:0:0:
419,245,155338,1,8,0:0:0:0:
419,245,155409,1,8,0:0:0:0:
196,196,155480,1,0,0:0:0:0:
196,196,155552,1,0,0:0:0:0:
196,196,155623,1,0,0:0:0:0:
196,196,155695,1,0,0:0:0:0:
196,196,155766,1,12,0:0:0:0:
380,266,156052,1,0,0:0:0:0:
380,266,156338,1,8,0:0:0:0:
380,266,156623,1,0,0:0:0:0:
337,256,156766,1,8,0:0:0:0:
337,256,157052,1,8,0:0:0:0:
337,256,157195,1,0,0:0:0:0:
337,256,157338,1,0,0:0:0:0:
337,256,157480,1,8,0:0:0:0:
277,242,157766,1,8,0:0:0:0:
277,242,157909,1,8,0:0:0:0:
277,242,158052,1,0,0:0:0:0:
277,242,158195,1,0,0:0:0:0:
115,191,158338,1,8,0:0:0:0:
115,191,158623,1,8,0:0:0:0:
115,191,158909,1,0,0:0:0:0:
115,191,159052,1,8,0:0:0:0:
83,162,159338,1,8,0:0:0:0:
83,162,159480,1,0,0:0:0:0:
83,162,159623,1,0,0:0:0:0:
83,162,159766,1,8,0:0:0:0:
83,162,160052,1,8,0:0:0:0:
83,162,160195,1,8,0:0:0:0:
288,168,160338,1,4,0:0:0:0:
288,168,160480,1,8,0:0:0:0:
288,168,160552,1,8,0:0:0:0:
288,168,160623,1,0,0:0:0:0:
288,168,160695,1,0,0:0:0:0:
288,168,160766,1,8,0:0:0:0:
288,168,160838,1,0,0:0:0:0:
255,171,160909,1,8,0:0:0:0:
255,171,160980,1,8,0:0:0:0:
361,105,161052,1,0,0:0:0:0:
361,105,161123,1,0,0:0:0:0:
243,100,161195,1,8,0:0:0:0:
243,100,161266,1,8,0:0:0:0:
243,100,161338,1,8,0:0:0:0:
243,100,161409,1,8,0:0:0:0:
243,100,161480,1,0,0:0:0:0:
243,100,161552,1,0,0:0:0:0:
243,100,161623,1,8,0:0:0:0:
160,84,161695,1,8,0:0:0:0:
184,82,161766,1,0,0:0:0:0:
184,82,161838,1,8,0:0:0:0:
184,82,161909,1,0,0:0:0:0:
184,82,161980,1,0,0:0:0:0:
184,82,162052,1,8,0:0:0:0:
184,82,162123,1,8,0:0:0:0:
184,82,162195,1,8,0:0:0:0:
184,82,162266,1,8,0:0:0:0:
146,83,162338,1,0,0:0:0:0:
146,83,162409,1,0,0:0:0:0:
146,83,162480,1,8,0:0:0:0:
146,83,162552,1,8,0:0:0:0:
146,83,162623,1,0,0:0:0:0:
146,83,162695,1,0,0:0:0:0:
146,83,162766,1,8,0:0:0:0:
254,72,162838,1,0,0:0:0:0:
254,72,162909,1,8,0:0:0:0:
254,72,162980,1,8,0:0:0:0:
254,72,163052,1,0,0:0:0:0:
179,75,163123,1,8,0:0:0:0:
179,75,163195,1,0,0:0:0:0:
179,75,163266,1,0,0:0:0:0:
179,75,163338,1,0,0:0:0:0:
179,75,163409,1,0,0:0:0:0:
179,75,163480,1,8,0:0:0:0:
179,75,163552,1,8,0:0:0:0:
179,75,163623,1,8,0:0:0:0:
179,75,163695,1,8,0:0:0:0:
179,75,163766,1,4,0:0:0:0:
310,251,164338,1,8,0:0:0:0:
310,251,164909,1,4,0:0:0:0:
479,188,165480,1,8,0:0:0:0:
479,188,165528,1,8,0:0:0:0:
479,188,165576,1,8,0:0:0:0:
336,179,165623,1,8,0:0:0:0:
378,344,165766,1,0,0:0:0:0:
426,317,165838,1,0,0:0:0:0:
316,104,165909,1,0,0:0:0:0:
316,104,165980,1,0,0:0:0:0:
316,104,166052,1,12,0:0:0:0:
330,155,166195,1,8,0:0:0:0:
330,155,166242,1,8,0:0:0:0:
330,155,166290,1,8,0:0:0:0:
210,82,166338,1,0,0:0:0:0:
210,82,166409,1,8,0:0:0:0:
210,82,166480,1,0,0:0:0:0:
210,82,166528,1,0,0:0:0:0:
210,82,166576,1,0,0:0:0:0:
210,82,166623,1,8,0:0:0:0:
252,78,166766,1,0,0:0:0:0:
252,78,166814,1,8,0:0:0:0:
252,78,166861,1,8,0:0:0:0:
252,78,166909,1,0,0:0:0:0:
261,51,167195,1,0,0:0:0:0:
261,51,167266,1,0,0:0:0:0:
261,51,167338,1,0,0:0:0:0:
261,51,167409,1,0,0:0:0:0:
261,51,167480,1,0,0:0:0:0:
261,51,167552,1,0,0:0:0:0:
261,51,167623,1,0,0:0:0:0:
261,51,167695,1,0,0:0:0:0:
261,51,167766,1,8,0:0:0:0:
305,118,167814,1,8,0:0:0:0:
305,118,167861,1,8,0:0:0:0:
305,118,167909,1,8,0:0:0:0:
305,118,167957,1,8,0:0:0:0:
305,118,168004,1,8,0:0:0:0:
285,111,168052,1,0,0:0:0:0:
339,178,168123,1,8,0:0:0:0:
339,178,168195,1,0,0:0:0:0:
339,178,168266,1,0,0:0:0:0:
339,178,168338,1,12,0:0:0:0:
480,123,168480,1,0,0:0:0:0:
480,123,168516,1,0,0:0:0:0:
432,127,168766,1,8,0:0:0:0:
432,127,168838,1,8,0:0:0:0:
432,127,168909,1,0,0:0:0:0:
432,127,168980,1,0,0:0:0:0:
432,127,169052,1,8,0:0:0:0:
432,127,169099,1,0,0:0:0:0:
290,71,169147,1,0,0:0:0:0:
432,127,169195,1,8,0:0:0:0:
432,127,169266,1,0,0:0:0:0:
432,127,169338,1,8,0:0:0:0:
279,98,169409,1,8,0:0:0:0:
432,127,169480,1,4,0:0:0:0:
334,99,169766,1,8,0:0:0:0:
241,95,169802,1,8,0:0:0:0:
367,102,170052,1,0,0:0:0:0:
367,102,170099,1,0,0:0:0:0:
367,102,170147,1,0,0:0:0:0:
367,102,170195,1,8,0:0:0:0:
367,102,170266,1,0,0:0:0:0:
367,102,170338,1,8,0:0:0:0:
322,75,170385,1,8,0:0:0:0:
322,75,170433,1,8,0:0:0:0:
322,75,170480,1,0,0:0:0:0:
322,75,170552,1,0,0:0:0:0:
264,59,170623,1,12,0:0:0:0:
330,155,170766,1,8,0:0:0:0:
330,155,170814,1,0,0:0:0:0:
330,155,170861,1,0,0:0:0:0:
210,82,170909,1,8,0:0:0:0:
210,82,170980,1,0,0:0:0:0:
210,82,171052,1,8,0:0:0:0:
210,82,171099,1,0,0:0:0:0:
210,82,171147,1,0,0:0:0:0:
210,82,171195,1,8,0:0:0:0:
252,78,171338,1,0,0:0:0:0:
252,78,171385,1,0,0:0:0:0:
252,78,171433,1,0,0:0:0:0:
252,78,171480,1,8,0:0:0:0:
207,102,171766,1,0,0:0:0:0:
351,84,171861,1,8,0:0:0:0:
351,84,171957,1,8,0:0:0:0:
351,84,172052,1,0,0:0:0:0:
351,84,172147,1,8,0:0:0:0:
351,84,172242,1,8,0:0:0:0:
351,84,172338,1,0,0:0:0:0:
229,64,172552,1,8,0:0:0:0:
229,64,172766,1,0,0:0:0:0:
229,64,172909,1,12,0:0:0:0:
316,106,173052,1,0,0:0:0:0:
316,106,173099,1,0,0:0:0:0:
232,86,173147,1,0,0:0:0:0:
302,105,173195,1,8,0:0:0:0:
324,73,173242,1,8,0:0:0:0:
324,73,173290,1,8,0:0:0:0:
324,73,173338,1,0,0:0:0:0:
288,96,173480,1,8,0:0:0:0:
397,109,173516,1,8,0:0:0:0:
356,19,173695,1,0,0:0:0:0:
356,19,173730,1,0,0:0:0:0:
218,33,173909,1,8,0:0:0:0:
218,33,173945,1,8,0:0:0:0:
254,137,174052,1,4,0:0:0:0:
479,188,174623,1,8,0:0:0:0:
479,188,174671,1,8,0:0:0:0:
479,188,174718,1,8,0:0:0:0:
336,179,174766,1,8,0:0:0:0:
378,344,174909,1,0,0:0:0:0:
426,317,174980,1,0,0:0:0:0:
316,104,175052,1,0,0:0:0:0:
316,104,175123,1,0,0:0:0:0:
316,104,175195,1,12,0:0:0:0:
330,155,175338,1,8,0:0:0:0:
330,155,175385,1,8,0:0:0:0:
330,155,175433,1,8,0:0:0:0:
210,82,175480,1,0,0:0:0:0:
210,82,175552,1,8,0:0:0:0:
210,82,175623,1,0,0:0:0:0:
210,82,175671,1,0,0:0:0:0:
210,82,175718,1,0,0:0:0:0:
210,82,175766,1,8,0:0:0:0:
252,78,175909,1,8,0:0:0:0:
252,78,175957,1,0,0:0:0:0:
252,78,176004,1,0,0:0:0:0:
252,78,176052,1,8,0:0:0:0:
285,162,176338,1,0,0:0:0:0:
285,162,176409,1,8,0:0:0:0:
285,162,176480,1,8,0:0:0:0:
285,162,176552,1,8,0:0:0:0:
219,161,176623,1,0,0:0:0:0:
219,161,176695,1,8,0:0:0:0:
219,161,176766,1,8,0:0:0:0:
219,161,176838,1,8,0:0:0:0:
219,161,176909,1,0,0:0:0:0:
290,77,176957,1,0,0:0:0:0:
290,77,177004,1,0,0:0:0:0:
290,77,177052,1,8,0:0:0:0:
290,77,177099,1,8,0:0:0:0:
290,77,177147,1,8,0:0:0:0:
290,77,177195,1,0,0:0:0:0:
324,160,177266,1,0,0:0:0:0:
324,160,177338,1,0,0:0:0:0:
324,160,177409,1,0,0:0:0:0:
324,160,177480,1,12,0:0:0:0:
432,127,177909,1,8,0:0:0:0:
432,127,177980,1,8,0:0:0:0:
432,127,178052,1,0,0:0:0:0:
432,127,178123,1,0,0:0:0:0:
432,127,178195,1,8,0:0:0:0:
432,127,178266,1,8,0:0:0:0:
432,127,178338,1,0,0:0:0:0:
432,127,178409,1,0,0:0:0:0:
432,127,178480,1,8,0:0:0:0:
279,98,178552,1,8,0:0:0:0:
432,127,178623,1,4,0:0:0:0:
334,99,178909,1,8,0:0:0:0:
241,95,178945,1,8,0:0:0:0:
367,102,179195,1,0,0:0:0:0:
367,102,179242,1,0,0:0:0:0:
367,102,179290,1,0,0:0:0:0:
367,102,179338,1,8,0:0:0:0:
367,102,179409,1,0,0:0:0:0:
367,102,179480,1,8,0:0:0:0:
322,75,179528,1,8,0:0:0:0:
322,75,179576,1,8,0:0:0:0:
322,75,179623,1,0,0:0:0:0:
322,75,179695,1,0,0:0:0:0:
264,59,179766,1,12,0:0:0:0:
330,155,179909,1,8,0:0:0:0:
330,155,179957,1,0,0:0:0:0:
330,155,180004,1,0,0:0:0:0:
210,82,180052,1,8,0:0:0:0:
210,82,180123,1,0,0:0:0:0:
210,82,180195,1,8,0:0:0:0:
210,82,180242,1,0,0:0:0:0:
210,82,180290,1,0,0:0:0:0:
210,82,180338,1,8,0:0:0:0:
252,78,180480,1,0,0:0:0:0:
252,78,180528,1,0,0:0:0:0:
252,78,180576,1,0,0:0:0:0:
252,78,180623,1,8,0:0:0:0:
207,102,180909,1,0,0:0:0:0:
351,84,181004,1,0,0:0:0:0:
351,84,181099,1,8,0:0:0:0:
351,84,181195,1,0,0:0:0:0:
351,84,181290,1,0,0:0:0:0:
351,84,181385,1,8,0:0:0:0:
351,84,181480,1,0,0:0:0:0:
247,37,181695,1,8,0:0:0:0:
247,37,181909,1,0,0:0:0:0:
247,37,182052,1,12,0:0:0:0:
157,158,182623,1,0,0:0:0:0:
157,158,183195,1,4,0:0:0:0:
479,188,183766,1,0,0:0:0:0:
479,188,183814,1,0,0:0:0:0:
479,188,183861,1,0,0:0:0:0:
336,179,183909,1,8,0:0:0:0:
378,344,184052,1,0,0:0:0:0:
426,317,184123,1,0,0:0:0:0:
316,104,184195,1,0,0:0:0:0:
316,104,184266,1,0,0:0:0:0:
316,104,184338,1,12,0:0:0:0:
330,155,184480,1,8,0:0:0:0:
330,155,184528,1,8,0:0:0:0:
330,155,184576,1,8,0:0:0:0:
210,82,184623,1,0,0:0:0:0:
210,82,184695,1,8,0:0:0:0:
210,82,184766,1,0,0:0:0:0:
210,82,184814,1,0,0:0:0:0:
210,82,184861,1,0,0:0:0:0:
210,82,184909,1,8,0:0:0:0:
252,78,185195,1,8,0:0:0:0:
201,39,185266,1,0,0:0:0:0:
305,118,185338,1,0,0:0:0:0:
305,118,185409,1,8,0:0:0:0:
261,51,185480,1,0,0:0:0:0:
261,51,185552,1,0,0:0:0:0:
261,51,185623,1,8,0:0:0:0:
261,51,185695,1,8,0:0:0:0:
261,51,185766,1,0,0:0:0:0:
261,51,185838,1,0,0:0:0:0:
261,51,185909,1,0,0:0:0:0:
261,51,185980,1,0,0:0:0:0:
261,51,186052,1,8,0:0:0:0:
305,118,186123,1,8,0:0:0:0:
305,118,186195,1,8,0:0:0:0:
305,118,186266,1,8,0:0:0:0:
285,111,186338,1,0,0:0:0:0:
339,178,186385,1,0,0:0:0:0:
235,74,186433,1,0,0:0:0:0:
339,178,186480,1,8,0:0:0:0:
339,178,186552,1,0,0:0:0:0:
339,178,186623,1,12,0:0:0:0:
480,123,186766,1,0,0:0:0:0:
480,123,186802,1,0,0:0:0:0:
285,91,186909,1,8,0:0:0:0:
285,91,186945,1,8,0:0:0:0:
432,127,187195,1,8,0:0:0:0:
308,113,187230,1,8,0:0:0:0:
237,45,187409,1,0,0:0:0:0:
239,49,187445,1,0,0:0:0:0:
432,127,187480,1,8,0:0:0:0:
296,101,187623,1,0,0:0:0:0:
279,98,187659,1,0,0:0:0:0:
295,101,187695,1,8,0:0:0:0:
432,127,187766,1,4,0:0:0:0:
334,99,188052,1,8,0:0:0:0:
241,95,188088,1,8,0:0:0:0:
367,102,188338,1,0,0:0:0:0:
367,102,188385,1,0,0:0:0:0:
367,102,188433,1,0,0:0:0:0:
367,102,188480,1,8,0:0:0:0:
367,102,188552,1,0,0:0:0:0:
367,102,188623,1,8,0:0:0:0:
322,75,188671,1,8,0:0:0:0:
322,75,188718,1,8,0:0:0:0:
322,75,188766,1,0,0:0:0:0:
322,75,188838,1,0,0:0:0:0:
264,59,188909,1,12,0:0:0:0:
330,155,189052,1,8,0:0:0:0:
330,155,189099,1,0,0:0:0:0:
330,155,189147,1,0,0:0:0:0:
210,82,189195,1,8,0:0:0:0:
210,82,189266,1,0,0:0:0:0:
210,82,189338,1,8,0:0:0:0:
210,82,189385,1,0,0:0:0:0:
210,82,189433,1,0,0:0:0:0:
210,82,189480,1,8,0:0:0:0:
252,78,189623,1,0,0:0:0:0:
252,78,189671,1,0,0:0:0:0:
252,78,189718,1,0,0:0:0:0:
252,78,189766,1,8,0:0:0:0:
207,102,190052,1,0,0:0:0:0:
351,84,190147,1,8,0:0:0:0:
351,84,190242,1,8,0:0:0:0:
351,84,190338,1,0,0:0:0:0:
351,84,190433,1,8,0:0:0:0:
351,84,190528,1,8,0:0:0:0:
351,84,190623,1,0,0:0:0:0:
229,64,190838,1,8,0:0:0:0:
229,64,191052,1,0,0:0:0:0:
229,64,191195,1,12,0:0:0:0:
316,106,191338,1,0,0:0:0:0:
316,106,191385,1,0,0:0:0:0:
232,86,191433,1,0,0:0:0:0:
302,105,191480,1,8,0:0:0:0:
324,73,191528,1,8,0:0:0:0:
324,73,191576,1,8,0:0:0:0:
324,73,191623,1,0,0:0:0:0:
288,96,191766,1,8,0:0:0:0:
397,109,191802,1,8,0:0:0:0:
356,19,191980,1,0,0:0:0:0:
356,19,192016,1,0,0:0:0:0:
218,33,192195,1,8,0:0:0:0:
218,33,192230,1,8,0:0:0:0:
254,137,192338,1,4,0:0:0:0:
479,188,192909,1,8,0:0:0:0:
479,188,192957,1,8,0:0:0:0:
479,188,193004,1,8,0:0:0:0:
336,179,193052,1,8,0:0:0:0:
378,344,193195,1,0,0:0:0:0:
426,317,193266,1,0,0:0:0:0:
316,104,193338,1,0,0:0:0:0:
316,104,193409,1,0,0:0:0:0:
316,104,193480,1,12,0:0:0:0:
330,155,193623,1,8,0:0:0:0:
330,155,193671,1,8,0:0:0:0:
330,155,193718,1,8,0:0:0:0:
210,82,193766,1,0,0:0:0:0:
210,82,193838,1,8,0:0:0:0:
210,82,193909,1,0,0:0:0:0:
210,82,193957,1,0,0:0:0:0:
210,82,194004,1,0,0:0:0:0:
210,82,194052,1,8,0:0:0:0:
252,78,194195,1,8,0:0:0:0:
252,78,194242,1,0,0:0:0:0:
252,78,194290,1,0,0:0:0:0:
252,78,194338,1,8,0:0:0:0:
285,162,194623,1,0,0:0:0:0:
285,162,194695,1,8,0:0:0:0:
285,162,194766,1,0,0:0:0:0:
285,162,194838,1,8,0:0:0:0:
219,161,194909,1,0,0:0:0:0:
219,161,194980,1,8,0:0:0:0:
219,161,195052,1,0,0:0:0:0:
219,161,195123,1,8,0:0:0:0:
219,161,195195,1,0,0:0:0:0:
290,77,195242,1,0,0:0:0:0:
290,77,195290,1,0,0:0:0:0:
290,77,195338,1,8,0:0:0:0:
290,77,195385,1,8,0:0:0:0:
290,77,195433,1,8,0:0:0:0:
290,77,195480,1,0,0:0:0:0:
324,160,195552,1,0,0:0:0:0:
324,160,195623,1,0,0:0:0:0:
324,160,195695,1,0,0:0:0:0:
324,160,195766,1,12,0:0:0:0:
188,82,195909,1,0,0:0:0:0:
188,82,195945,1,0,0:0:0:0:
432,127,196195,1,8,0:0:0:0:
432,127,196266,1,8,0:0:0:0:
432,127,196338,1,0,0:0:0:0:
432,127,196409,1,8,0:0:0:0:
432,127,196480,1,0,0:0:0:0:
432,127,196552,1,0,0:0:0:0:
432,127,196623,1,8,0:0:0:0:
432,127,196695,1,0,0:0:0:0:
432,127,196766,1,8,0:0:0:0:
279,98,196838,1,8,0:0:0:0:
432,127,196909,1,4,0:0:0:0:
334,99,197195,1,8,0:0:0:0:
241,95,197230,1,8,0:0:0:0:
367,102,197480,1,8,0:0:0:0:
367,102,197528,1,8,0:0:0:0:
367,102,197576,1,8,0:0:0:0:
367,102,197623,1,0,0:0:0:0:
367,102,197695,1,0,0:0:0:0:
367,102,197766,1,8,0:0:0:0:
322,75,197814,1,0,0:0:0:0:
322,75,197861,1,0,0:0:0:0:
322,75,197909,1,8,0:0:0:0:
322,75,197980,1,0,0:0:0:0:
264,59,198052,1,12,0:0:0:0:
330,155,198195,1,8,0:0:0:0:
330,155,198242,1,0,0:0:0:0:
330,155,198290,1,0,0:0:0:0:
210,82,198338,1,8,0:0:0:0:
210,82,198409,1,0,0:0:0:0:
210,82,198480,1,8,0:0:0:0:
210,82,198528,1,0,0:0:0:0:
210,82,198576,1,0,0:0:0:0:
210,82,198623,1,8,0:0:0:0:
252,78,198766,1,0,0:0:0:0:
252,78,198814,1,0,0:0:0:0:
252,78,198861,1,0,0:0:0:0:
252,78,198909,1,8,0:0:0:0:
207,102,199195,5,0,0:0:0:0:
351,84,199290,1,8,0:0:0:0:
351,84,199385,1,0,0:0:0:0:
351,84,199480,1,8,0:0:0:0:
351,84,199576,1,0,0:0:0:0:
351,84,199671,1,8,0:0:0:0:
351,84,199766,1,0,0:0:0:0:
247,37,199980,1,8,0:0:0:0:
247,37,200195,1,0,0:0:0:0:
247,37,200338,1,12,0:0:0:0:
256,192,200409,12,0,201409,0:0:0:0:
232,329,201480,5,4,0:0:0:0:
248,229,202623,1,8,0:0:0:0:
344,127,203766,1,8,0:0:0:0:
344,127,206052,1,4,0:0:0:0:
455,188,207195,1,8,0:0:0:0:
247,263,208338,1,0,0:0:0:0:
344,127,210052,1,8,0:0:0:0:
252,231,210338,1,0,0:0:0:0:
252,231,210480,1,0,0:0:0:0:
344,127,210623,5,12,0:0:0:0:
170,162,210909,1,8,0:0:0:0:
170,162,211052,1,0,0:0:0:0:
170,162,211338,1,0,0:0:0:0:
170,162,211480,1,8,0:0:0:0:
170,162,211623,1,0,0:0:0:0:
170,162,211766,1,8,0:0:0:0:
478,297,211909,1,8,0:0:0:0:
210,254,212195,1,0,0:0:0:0:
328,140,212338,1,8,0:0:0:0:
328,140,212480,1,8,0:0:0:0:
328,140,212623,1,8,0:0:0:0:
328,140,212766,1,0,0:0:0:0:
328,140,212909,1,8,0:0:0:0:
328,140,213195,1,0,0:0:0:0:
328,140,213338,1,8,0:0:0:0:
328,140,213623,1,0,0:0:0:0:
328,140,213766,1,8,0:0:0:0:
179,107,213909,1,0,0:0:0:0:
179,107,214052,1,8,0:0:0:0:
179,107,214195,1,8,0:0:0:0:
179,107,214338,1,0,0:0:0:0:
179,107,214480,1,8,0:0:0:0:
179,107,214766,1,8,0:0:0:0:
179,107,215052,1,0,0:0:0:0:
179,107,215195,1,8,0:0:0:0:
179,107,215338,1,0,0:0:0:0:
179,107,215480,1,8,0:0:0:0:
179,107,215623,1,8,0:0:0:0:
179,107,215766,1,0,0:0:0:0:
179,107,215909,1,0,0:0:0:0:
179,107,216052,1,8,0:0:0:0:
472,209,216123,1,0,0:0:0:0:
179,107,216195,1,0,0:0:0:0:
270,229,216266,1,0,0:0:0:0:
270,229,216338,1,12,0:0:0:0:
270,229,216480,1,0,0:0:0:0:
270,229,216623,1,8,0:0:0:0:
270,229,216766,1,8,0:0:0:0:
270,229,216909,1,0,0:0:0:0:
296,237,217052,1,0,0:0:0:0:
296,237,217195,1,8,0:0:0:0:
296,237,217338,1,8,0:0:0:0:
296,237,217409,1,8,0:0:0:0:
296,237,217480,1,4,0:0:0:0:
296,237,217623,1,8,0:0:0:0:
296,237,217766,1,8,0:0:0:0:
296,237,217909,1,0,0:0:0:0:
190,194,218195,1,8,0:0:0:0:
190,194,218480,1,0,0:0:0:0:
326,220,218623,1,8,0:0:0:0:
326,220,218695,1,8,0:0:0:0:
326,220,218766,1,0,0:0:0:0:
326,220,218838,1,0,0:0:0:0:
326,220,218909,1,8,0:0:0:0:
181,167,218980,1,0,0:0:0:0:
181,167,219052,1,8,0:0:0:0:
181,167,219123,1,8,0:0:0:0:
181,167,219195,1,0,0:0:0:0:
181,167,219266,1,0,0:0:0:0:
181,167,219338,1,8,0:0:0:0:
181,167,219409,1,8,0:0:0:0:
181,167,219480,1,0,0:0:0:0:
181,167,219552,1,0,0:0:0:0:
181,167,219623,1,8,0:0:0:0:
181,167,219695,1,8,0:0:0:0:
181,167,219766,1,4,0:0:0:0:
410,189,219909,1,8,0:0:0:0:
291,157,219980,1,8,0:0:0:0:
291,157,220052,1,0,0:0:0:0:
262,132,220195,1,8,0:0:0:0:
262,132,220338,1,0,0:0:0:0:
262,132,220409,1,0,0:0:0:0:
262,132,220480,1,8,0:0:0:0:
262,132,220552,1,8,0:0:0:0:
262,132,220623,1,0,0:0:0:0:
262,132,220766,1,8,0:0:0:0:
262,132,220909,1,0,0:0:0:0:
227,44,220980,1,0,0:0:0:0:
124,100,221052,1,8,0:0:0:0:
263,182,221123,1,0,0:0:0:0:
263,182,221195,1,8,0:0:0:0:
263,182,221266,1,8,0:0:0:0:
263,182,221338,1,0,0:0:0:0:
263,182,221480,1,8,0:0:0:0:
263,182,221552,1,0,0:0:0:0:
263,182,221623,1,8,0:0:0:0:
270,48,221695,1,8,0:0:0:0:
173,145,221766,1,0,0:0:0:0:
173,145,221909,1,8,0:0:0:0:
173,145,222052,1,0,0:0:0:0:
468,244,222195,1,8,0:0:0:0:
468,244,222266,1,8,0:0:0:0:
268,194,222338,1,0,0:0:0:0:
268,194,222480,1,8,0:0:0:0:
268,194,222623,1,0,0:0:0:0:
268,194,222695,1,0,0:0:0:0:
268,194,222766,1,8,0:0:0:0:
268,194,222838,1,0,0:0:0:0:
268,194,222909,1,8,0:0:0:0:
268,194,223052,1,0,0:0:0:0:
195,177,223195,1,8,0:0:0:0:
195,177,223266,1,8,0:0:0:0:
195,177,223338,1,0,0:0:0:0:
195,177,223409,1,0,0:0:0:0:
195,177,223480,1,8,0:0:0:0:
195,177,223552,1,0,0:0:0:0:
195,177,223623,1,8,0:0:0:0:
186,87,223695,1,8,0:0:0:0:
186,87,223766,1,0,0:0:0:0:
186,87,223838,1,0,0:0:0:0:
186,87,223909,1,8,0:0:0:0:
191,76,223980,1,8,0:0:0:0:
191,76,224052,1,0,0:0:0:0:
191,79,224195,1,0,0:0:0:0:
191,79,224266,1,8,0:0:0:0:
191,82,224338,1,0,0:0:0:0:
410,189,224480,1,0,0:0:0:0:
291,157,224552,1,0,0:0:0:0:
291,157,224623,1,8,0:0:0:0:
262,132,224766,1,8,0:0:0:0:
262,132,224909,1,0,0:0:0:0:
262,132,224980,1,8,0:0:0:0:
262,132,225052,1,8,0:0:0:0:
262,132,225123,1,8,0:0:0:0:
262,132,225195,1,0,0:0:0:0:
262,132,225338,1,8,0:0:0:0:
262,132,225480,1,0,0:0:0:0:
227,44,225552,1,8,0:0:0:0:
124,100,225623,1,0,0:0:0:0:
263,182,225695,1,0,0:0:0:0:
263,182,225766,1,8,0:0:0:0:
263,182,225838,1,8,0:0:0:0:
263,182,225909,1,0,0:0:0:0:
263,182,226052,1,8,0:0:0:0:
263,182,226123,1,0,0:0:0:0:
263,182,226195,1,8,0:0:0:0:
270,48,226266,1,0,0:0:0:0:
173,145,226338,1,8,0:0:0:0:
173,145,226480,1,0,0:0:0:0:
173,145,226623,1,8,0:0:0:0:
311,85,226695,1,8,0:0:0:0:
468,244,226766,1,0,0:0:0:0:
268,194,226909,1,8,0:0:0:0:
268,194,227052,1,8,0:0:0:0:
268,194,227195,1,0,0:0:0:0:
268,194,227266,1,0,0:0:0:0:
268,194,227338,1,8,0:0:0:0:
268,194,227409,1,8,0:0:0:0:
268,194,227480,1,0,0:0:0:0:
268,194,227623,1,0,0:0:0:0:
195,177,227766,1,8,0:0:0:0:
195,177,227838,1,8,0:0:0:0:
195,177,227909,1,0,0:0:0:0:
195,177,227980,1,0,0:0:0:0:
195,177,228052,1,8,0:0:0:0:
195,177,228195,1,8,0:0:0:0:
186,87,228266,1,8,0:0:0:0:
186,87,228338,1,0,0:0:0:0:
186,87,228409,1,8,0:0:0:0:
186,87,228480,1,0,0:0:0:0:
191,76,228552,1,0,0:0:0:0:
191,76,228623,1,8,0:0:0:0:
255,66,228695,1,0,0:0:0:0:
191,79,228766,1,8,0:0:0:0:
191,79,228838,1,8,0:0:0:0:
191,82,228909,1,4,0:0:0:0:
410,189,229052,1,8,0:0:0:0:
291,157,229123,1,0,0:0:0:0:
291,157,229195,1,8,0:0:0:0:
262,132,229338,1,8,0:0:0:0:
262,132,229480,1,0,0:0:0:0:
262,132,229552,1,0,0:0:0:0:
262,132,229623,1,8,0:0:0:0:
262,132,229695,1,0,0:0:0:0:
262,132,229766,1,8,0:0:0:0:
262,132,229909,1,8,0:0:0:0:
262,132,230052,1,0,0:0:0:0:
227,44,230123,1,8,0:0:0:0:
124,100,230195,1,8,0:0:0:0:
263,182,230266,1,0,0:0:0:0:
263,182,230338,1,8,0:0:0:0:
263,182,230409,1,8,0:0:0:0:
263,182,230480,1,0,0:0:0:0:
263,182,230623,1,0,0:0:0:0:
263,182,230695,1,8,0:0:0:0:
263,182,230766,1,0,0:0:0:0:
270,48,230838,1,0,0:0:0:0:
173,145,230909,1,8,0:0:0:0:
173,145,231052,1,0,0:0:0:0:
173,145,231195,1,0,0:0:0:0:
356,91,231266,1,0,0:0:0:0:
468,244,231338,1,8,0:0:0:0:
468,244,231409,1,0,0:0:0:0:
268,194,231480,1,8,0:0:0:0:
268,194,231623,1,0,0:0:0:0:
268,194,231766,1,8,0:0:0:0:
268,194,231838,1,0,0:0:0:0:
268,194,231909,1,0,0:0:0:0:
268,194,231980,1,8,0:0:0:0:
268,194,232052,1,8,0:0:0:0:
236,26,232123,1,8,0:0:0:0:
268,194,232195,1,0,0:0:0:0:
195,177,232338,1,8,0:0:0:0:
195,177,232409,1,0,0:0:0:0:
195,177,232480,1,8,0:0:0:0:
195,177,232552,1,0,0:0:0:0:
195,177,232623,1,8,0:0:0:0:
195,177,232695,1,8,0:0:0:0:
195,177,232766,1,0,0:0:0:0:
186,87,232838,1,0,0:0:0:0:
186,87,232909,1,0,0:0:0:0:
186,87,232980,1,0,0:0:0:0:
186,87,233052,1,8,0:0:0:0:
191,76,233123,1,0,0:0:0:0:
191,76,233195,1,8,0:0:0:0:
191,79,233338,1,0,0:0:0:0:
191,79,233409,1,8,0:0:0:0:
191,82,233480,1,0,0:0:0:0:
410,189,233623,1,8,0:0:0:0:
291,157,233695,1,8,0:0:0:0:
291,157,233766,1,0,0:0:0:0:
262,132,233909,1,8,0:0:0:0:
262,132,234052,1,0,0:0:0:0:
262,132,234123,1,0,0:0:0:0:
262,132,234195,1,0,0:0:0:0:
262,132,234266,1,0,0:0:0:0:
262,132,234338,1,8,0:0:0:0:
262,132,234480,1,8,0:0:0:0:
262,132,234623,1,0,0:0:0:0:
124,100,234766,1,0,0:0:0:0:
243,54,234838,1,8,0:0:0:0:
263,182,234909,1,8,0:0:0:0:
263,182,235052,1,0,0:0:0:0:
263,182,235195,1,8,0:0:0:0:
308,41,235266,1,8,0:0:0:0:
263,182,235338,1,8,0:0:0:0:
270,48,235409,1,0,0:0:0:0:
173,145,235480,1,8,0:0:0:0:
173,145,235623,1,0,0:0:0:0:
173,145,235766,1,0,0:0:0:0:
311,85,235838,1,0,0:0:0:0:
468,244,235909,1,8,0:0:0:0:
318,65,235980,1,0,0:0:0:0:
268,194,236052,1,8,0:0:0:0:
268,194,236195,1,8,0:0:0:0:
268,194,236338,1,0,0:0:0:0:
268,194,236480,1,8,0:0:0:0:
268,194,236552,1,8,0:0:0:0:
268,194,236623,1,0,0:0:0:0:
268,194,236766,1,8,0:0:0:0:
208,66,236838,1,8,0:0:0:0:
195,177,236909,1,0,0:0:0:0:
232,22,236980,1,8,0:0:0:0:
195,177,237052,1,0,0:0:0:0:
195,177,237123,1,0,0:0:0:0:
195,177,237195,1,8,0:0:0:0:
185,37,237266,1,0,0:0:0:0:
185,37,237338,1,8,0:0:0:0:
239,39,237409,1,8,0:0:0:0:
239,39,237480,1,0,0:0:0:0:
239,39,237552,1,0,0:0:0:0:
239,39,237623,1,8,0:0:0:0:
239,39,237695,1,0,0:0:0:0:
239,39,237766,1,8,0:0:0:0:
273,39,237838,1,8,0:0:0:0:
273,39,237909,1,8,0:0:0:0:
273,39,237980,1,8,0:0:0:0:
273,39,238052,1,4,0:0:0:0:
196,206,238195,1,8,0:0:0:0:
196,206,238338,1,8,0:0:0:0:
196,206,238480,1,4,0:0:0:0:
368,258,238623,1,8,0:0:0:0:
295,230,238766,1,8,0:0:0:0:
295,230,238909,1,4,0:0:0:0:
295,230,239052,1,8,0:0:0:0:
295,230,239195,1,8,0:0:0:0:
211,43,239338,1,4,0:0:0:0:
211,43,239480,1,8,0:0:0:0:
223,64,239623,1,8,0:0:0:0:
223,64,239766,1,4,0:0:0:0:
353,111,239909,1,8,0:0:0:0:
172,45,239980,1,8,0:0:0:0:
353,111,240052,1,4,0:0:0:0:
275,113,240195,1,8,0:0:0:0:
275,113,240266,1,8,0:0:0:0:
275,113,240338,1,4,0:0:0:0:
196,206,240480,1,8,0:0:0:0:
196,206,240623,1,8,0:0:0:0:
196,206,240766,1,4,0:0:0:0:
368,258,240909,1,8,0:0:0:0:
295,230,241052,1,8,0:0:0:0:
295,230,241195,1,4,0:0:0:0:
295,230,241338,1,8,0:0:0:0:
295,230,241480,1,4,0:0:0:0:
332,141,241623,1,0,0:0:0:0:
211,43,241766,1,8,0:0:0:0:
309,68,241909,1,0,0:0:0:0:
395,81,242052,1,8,0:0:0:0:
354,88,242123,1,8,0:0:0:0:
353,111,242195,1,0,0:0:0:0:
172,45,242266,1,0,0:0:0:0:
353,111,242338,1,8,0:0:0:0:
294,57,242409,1,8,0:0:0:0:
275,113,242480,1,8,0:0:0:0:
275,113,242552,1,8,0:0:0:0:
275,113,242623,1,4,0:0:0:0:
196,206,242766,1,8,0:0:0:0:
196,206,242909,1,8,0:0:0:0:
196,206,243052,1,4,0:0:0:0:
368,258,243195,1,8,0:0:0:0:
295,230,243338,1,8,0:0:0:0:
295,230,243480,1,4,0:0:0:0:
295,230,243623,1,8,0:0:0:0:
295,230,243766,1,8,0:0:0:0:
211,43,243909,1,4,0:0:0:0:
211,43,244052,1,8,0:0:0:0:
223,64,244195,1,8,0:0:0:0:
223,64,244338,1,4,0:0:0:0:
353,111,244480,1,8,0:0:0:0:
172,45,244552,1,8,0:0:0:0:
353,111,244623,1,4,0:0:0:0:
275,113,244766,1,8,0:0:0:0:
275,113,244838,1,8,0:0:0:0:
275,113,244909,1,4,0:0:0:0:
196,206,245052,1,8,0:0:0:0:
196,206,245195,1,8,0:0:0:0:
196,206,245338,1,4,0:0:0:0:
368,258,245480,1,8,0:0:0:0:
295,230,245623,1,8,0:0:0:0:
295,230,245766,1,4,0:0:0:0:
295,230,245909,1,8,0:0:0:0:
295,230,246052,1,4,0:0:0:0:
332,141,246195,1,8,0:0:0:0:
211,43,246338,1,8,0:0:0:0:
309,68,246480,1,0,0:0:0:0:
210,128,246623,1,8,0:0:0:0:
210,128,246695,1,0,0:0:0:0:
210,128,246766,1,8,0:0:0:0:
210,128,246838,1,8,0:0:0:0:
210,128,246909,1,0,0:0:0:0:
259,20,246980,1,0,0:0:0:0:
259,20,247052,1,8,0:0:0:0:
259,20,247123,1,8,0:0:0:0:
259,20,247195,1,4,0:0:0:0:
196,206,247338,1,8,0:0:0:0:
267,133,247410,1,0,0:0:0:0:
196,206,247481,1,8,0:0:0:0:
196,206,247624,1,8,0:0:0:0:
235,104,247767,1,0,0:0:0:0:
323,188,247838,1,0,0:0:0:0:
295,230,247910,1,8,0:0:0:0:
295,230,248053,1,0,0:0:0:0:
295,230,248195,1,8,0:0:0:0:
323,188,248267,1,0,0:0:0:0:
295,230,248338,1,0,0:0:0:0:
211,43,248481,1,8,0:0:0:0:
211,43,248624,1,8,0:0:0:0:
205,25,248695,1,8,0:0:0:0:
223,64,248767,1,8,0:0:0:0:
223,64,248910,1,0,0:0:0:0:
353,111,249053,1,8,0:0:0:0:
172,45,249124,1,8,0:0:0:0:
353,111,249195,1,0,0:0:0:0:
454,198,249267,1,0,0:0:0:0:
275,113,249338,1,8,0:0:0:0:
275,113,249410,1,8,0:0:0:0:
275,113,249481,1,0,0:0:0:0:
196,206,249624,1,8,0:0:0:0:
372,81,249695,1,0,0:0:0:0:
196,206,249767,1,8,0:0:0:0:
196,206,249910,1,8,0:0:0:0:
236,102,250052,1,0,0:0:0:0:
207,57,250124,1,8,0:0:0:0:
295,230,250195,1,8,0:0:0:0:
295,230,250338,1,0,0:0:0:0:
295,230,250481,1,8,0:0:0:0:
295,230,250624,1,0,0:0:0:0:
156,76,250695,1,0,0:0:0:0:
332,141,250767,1,8,0:0:0:0:
156,76,250838,1,0,0:0:0:0:
211,43,250910,1,8,0:0:0:0:
309,68,251053,1,0,0:0:0:0:
395,81,251195,1,8,0:0:0:0:
354,88,251267,1,8,0:0:0:0:
353,111,251338,1,0,0:0:0:0:
172,45,251410,1,0,0:0:0:0:
353,111,251481,1,8,0:0:0:0:
294,57,251553,1,8,0:0:0:0:
275,113,251624,1,8,0:0:0:0:
275,113,251695,1,8,0:0:0:0:
275,113,251767,1,0,0:0:0:0:
196,206,251910,1,8,0:0:0:0:
267,133,251980,1,0,0:0:0:0:
196,206,252053,1,8,0:0:0:0:
196,206,252196,1,8,0:0:0:0:
235,104,252339,1,0,0:0:0:0:
323,188,252410,1,0,0:0:0:0:
295,230,252480,1,8,0:0:0:0:
295,230,252623,1,8,0:0:0:0:
295,230,252767,1,0,0:0:0:0:
323,188,252839,1,8,0:0:0:0:
295,230,252910,1,0,0:0:0:0:
211,43,253053,1,8,0:0:0:0:
211,43,253196,1,8,0:0:0:0:
205,25,253267,1,8,0:0:0:0:
223,64,253339,1,0,0:0:0:0:
223,64,253480,1,8,0:0:0:0:
353,111,253623,1,0,0:0:0:0:
172,45,253695,1,0,0:0:0:0:
353,111,253767,1,8,0:0:0:0:
454,198,253839,1,0,0:0:0:0:
275,113,253910,1,8,0:0:0:0:
275,113,253980,1,8,0:0:0:0:
275,113,254052,1,0,0:0:0:0:
196,206,254196,1,8,0:0:0:0:
372,81,254267,1,0,0:0:0:0:
196,206,254339,1,8,0:0:0:0:
196,206,254480,1,8,0:0:0:0:
236,102,254624,1,0,0:0:0:0:
207,57,254696,1,8,0:0:0:0:
295,230,254767,1,8,0:0:0:0:
295,230,254910,1,0,0:0:0:0:
295,230,255053,1,8,0:0:0:0:
295,230,255196,1,0,0:0:0:0:
156,76,255267,1,0,0:0:0:0:
332,141,255339,1,8,0:0:0:0:
156,76,255410,1,8,0:0:0:0:
211,43,255480,1,8,0:0:0:0:
309,68,255623,1,8,0:0:0:0:
395,81,255766,5,0,0:0:0:0:
354,88,255838,1,0,0:0:0:0:
353,111,255909,1,8,0:0:0:0:
172,45,255980,1,0,0:0:0:0:
353,111,256052,1,8,0:0:0:0:
294,57,256123,1,8,0:0:0:0:
275,113,256195,1,0,0:0:0:0:
275,113,256266,1,0,0:0:0:0:
347,262,256909,5,8,0:0:0:0:
256,192,256980,12,8,259766,0:0:0:0:
