osu file format v14

[General]
AudioFilename: audio.mp3
AudioLeadIn: 0
PreviewTime: -1
Countdown: 1
SampleSet: None
StackLeniency: 0.7
Mode: 0
LetterboxInBreaks: 0
WidescreenStoryboard: 0

[Editor]
DistanceSpacing: 1.2
BeatDivisor: 4
GridSize: 4
TimelineZoom: 1

[Metadata]
Title:ChiruChiru
TitleUnicode:ChiruChiru
Artist:JubyPhonic
ArtistUnicode:JubyPhonic
Creator:Kura_Kiyuko
Version:Hard
Source:
Tags:
BeatmapID:2006688
BeatmapSetID:958411

[Difficulty]
HPDrainRate:6
CircleSize:4.5
OverallDifficulty:6
ApproachRate:6
SliderMultiplier:1.39999990463257
SliderTickRate:1

[Events]
//Background and Video events
0,0,"maxresdefault (9).jpg",0,0
Video,0,"Chiruchiru - REPLY - (English Cover)【JubyPhonic】ちるちる「返事」.avi"
//Break Periods
//Storyboard Layer 0 (Background)
//Storyboard Layer 1 (Fail)
//Storyboard Layer 2 (Pass)
//Storyboard Layer 3 (Foreground)
//Storyboard Sound Samples

[TimingPoints]
7776.5,468.75,4,1,0,100,1,0

[Colours]
Combo1 : 128,0,128
Combo2 : 255,0,128
Combo3 : 128,0,255
Combo4 : 255,196,255

[HitObjects]
340,260,7542,6,0,P|376:268|424:260,1,69.9999952316285
380,184,8010,1,0,0:0:0:0:
296,172,8245,1,0,0:0:0:0:
248,104,8479,2,0,P|288:88|332:104,1,69.9999952316285
396,116,8948,1,0,0:0:0:0:
456,176,9182,1,0,0:0:0:0:
456,260,9417,2,0,P|436:292|388:304,1,69.9999952316285
376,228,9885,1,0,0:0:0:0:
332,156,10120,2,0,P|300:172|288:208,1,69.9999952316285
316,280,10589,1,0,0:0:0:0:
260,344,10823,2,0,P|232:316|240:260,1,69.9999952316285
244,204,11292,5,0,0:0:0:0:
168,164,11526,1,0,0:0:0:0:
208,92,11760,1,0,0:0:0:0:
148,36,11995,2,0,P|184:12|236:24,1,69.9999952316285
284,52,12464,1,0,0:0:0:0:
356,12,12698,1,0,0:0:0:0:
416,104,12932,2,0,P|448:120|468:168,1,69.9999952316285
416,104,13401,2,0,P|380:88|336:120,1,69.9999952316285
416,104,13870,2,0,P|396:148|416:192,1,69.9999952316285
416,104,14339,2,0,P|452:116|492:92,1,69.9999952316285
416,104,14807,6,0,P|436:60|408:24,3,69.9999952316285
344,52,15745,1,0,0:0:0:0:
260,44,15979,1,0,0:0:0:0:
180,76,16214,2,0,P|196:108|248:128,1,69.9999952316285
304,156,16682,1,0,0:0:0:0:
352,224,16917,1,0,0:0:0:0:
280,264,17151,1,0,0:0:0:0:
216,316,17385,2,0,P|188:284|200:236,3,69.9999952316285
180,176,18323,2,0,P|216:140|200:96,1,69.9999952316285
132,108,18792,5,0,0:0:0:0:
76,44,19026,1,0,0:0:0:0:
32,116,19260,2,0,P|20:148|36:188,1,69.9999952316285
92,240,19729,1,0,0:0:0:0:
148,176,19964,2,0,P|188:148|220:160,2,69.9999952316285
216,228,20667,2,0,P|244:240|308:224,1,69.9999952316285
276,156,21135,1,0,0:0:0:0:
308,80,21370,1,0,0:0:0:0:
360,148,21604,1,0,0:0:0:0:
376,232,21839,2,0,P|416:248|472:236,1,69.9999952316285
376,232,22307,6,0,P|412:216|436:184,1,69.9999952316285
376,232,22776,2,0,P|404:260|416:296,1,69.9999952316285
332,300,23245,1,0,0:0:0:0:
276,236,23479,1,0,0:0:0:0:
224,168,23714,2,0,P|260:148|296:160,1,69.9999952316285
236,88,24182,1,0,0:0:0:0:
168,136,24417,1,0,0:0:0:0:
84,124,24651,2,0,P|80:160|120:184,2,69.9999952316285
28,64,25354,1,0,0:0:0:0:
108,36,25589,2,0,P|144:28|200:32,1,69.9999952316285
252,64,26057,5,0,0:0:0:0:
200,128,26292,1,0,0:0:0:0:
284,140,26526,1,0,0:0:0:0:
252,64,26760,1,0,0:0:0:0:
284,140,26995,2,0,P|316:156|330:192,1,69.9999952316285
288,260,27464,2,0,P|320:276|372:260,1,69.9999952316285
412,212,27932,1,0,0:0:0:0:
368,140,28167,1,0,0:0:0:0:
300,92,28401,2,0,P|280:144|284:176,1,69.9999952316285
300,92,28870,2,0,P|296:144|320:172,1,69.9999952316285
300,92,29339,2,0,P|312:128|336:156,2,69.9999952316285
220,64,30042,5,0,0:0:0:0:
152,112,30276,1,0,0:0:0:0:
120,192,30510,2,0,P|156:204|204:184,1,69.9999952316285
260,160,30979,1,0,0:0:0:0:
208,92,31214,2,0,P|244:72|288:80,1,69.9999952316285
348,112,31682,1,0,0:0:0:0:
336,196,31917,1,0,0:0:0:0:
412,228,32151,2,0,P|404:260|424:300,1,69.9999952316285
336,312,32620,1,0,0:0:0:0:
268,264,32854,2,0,P|256:220|272:188,1,69.9999952316285
224,124,33323,2,0,P|200:144|188:200,1,69.9999952316285
172,264,33792,5,0,0:0:0:0:
100,220,34026,1,0,0:0:0:0:
148,152,34260,1,0,0:0:0:0:
116,72,34495,2,0,P|156:48|200:64,2,69.9999952316285
64,140,35198,1,0,0:0:0:0:
96,216,35432,1,0,0:0:0:0:
148,152,35667,2,0,P|184:132|236:148,1,69.9999952316285
200,216,36135,1,0,0:0:0:0:
280,188,36370,1,0,0:0:0:0:
296,104,36604,2,0,P|320:72|360:60,2,69.9999952316285
372,140,37307,5,0,0:0:0:0:
464,280,37776,5,0,0:0:0:0:
304,332,38245,1,0,0:0:0:0:
224,360,38479,2,0,P|208:320|224:288,1,69.9999952316285
264,228,38948,5,0,0:0:0:0:
212,164,39182,2,0,P|248:144|292:152,1,69.9999952316285
264,80,39885,6,0,L|344:80,2,69.9999952316285
264,80,40589,2,0,L|264:176,2,69.9999952316285
264,80,41526,5,0,0:0:0:0:
148,200,41995,2,0,L|208:264,1,69.9999952316285
224,188,42464,1,0,0:0:0:0:
292,236,42698,1,0,0:0:0:0:
148,200,42932,6,0,L|92:256,1,69.9999952316285
64,88,43635,6,0,P|100:68|140:76,2,69.9999952316285
120,152,44339,1,0,0:0:0:0:
200,120,44573,1,0,0:0:0:0:
196,36,44807,1,0,0:0:0:0:
272,68,45042,6,0,P|308:52|356:72,1,69.9999952316285
352,224,45745,2,0,L|352:300,1,69.9999952316285
356,228,46214,2,0,L|275:227,2,69.9999952316285
356,228,46917,2,0,L|356:152,1,69.9999952316285
356,228,47385,2,0,L|432:228,1,69.9999952316285
440,144,47854,5,0,0:0:0:0:
380,88,48089,1,0,0:0:0:0:
312,136,48323,1,0,0:0:0:0:
244,88,48557,6,0,P|224:124|236:168,2,69.9999952316285
76,112,49495,1,0,0:0:0:0:
56,192,49729,1,0,0:0:0:0:
44,232,49846,1,0,0:0:0:0:
60,272,49964,1,0,0:0:0:0:
136,304,50198,1,0,0:0:0:0:
125,241,50432,2,0,P|157:217|201:229,1,69.9999952316285
232,288,50901,1,0,0:0:0:0:
268,212,51135,2,0,P|308:240|324:272,1,69.9999952316285
268,212,51604,2,0,P|228:184|212:152,1,69.9999952316285
360,76,52307,5,0,0:0:0:0:
196,36,52776,5,0,0:0:0:0:
40,96,53245,1,0,0:0:0:0:
52,220,53596,1,0,0:0:0:0:
88,240,53714,1,0,0:0:0:0:
132,168,53948,2,0,P|160:144|216:144,1,69.9999952316285
132,168,54417,2,0,P|160:192|156:248,1,69.9999952316285
132,168,54885,2,0,P|104:192|48:192,1,69.9999952316285
132,168,55354,2,0,P|104:144|108:88,3,69.9999952316285
260,68,56526,5,0,0:0:0:0:
428,68,56995,1,0,0:0:0:0:
332,152,57346,1,0,0:0:0:0:
376,152,57464,1,0,0:0:0:0:
456,168,57698,2,0,P|476:196|468:248,2,69.9999952316285
384,212,58401,1,0,0:0:0:0:
304,232,58635,6,0,P|316:256|360:284,2,69.9999952316285
384,212,59339,1,0,0:0:0:0:
340,140,59573,1,0,0:0:0:0:
304,232,59807,6,0,P|280:204|288:152,1,69.9999952316285
196,192,60276,1,0,0:0:0:0:
80,72,60745,1,0,0:0:0:0:
24,184,61096,1,0,0:0:0:0:
52,216,61214,1,0,0:0:0:0:
68,300,61448,1,0,0:0:0:0:
128,244,61682,1,0,0:0:0:0:
180,308,61917,1,0,0:0:0:0:
208,228,62151,6,0,P|248:208|300:228,2,69.9999952316285
260,292,62854,1,0,0:0:0:0:
336,252,63089,1,0,0:0:0:0:
328,168,63323,1,0,0:0:0:0:
292,92,63557,2,0,P|328:80|356:52,1,69.9999952316285
432,80,64026,5,0,0:0:0:0:
464,244,64495,2,0,B|484:276|448:272|480:316,1,69.9999952316285
400,272,64964,1,0,0:0:0:0:
388,188,65198,1,0,0:0:0:0:
316,232,65432,1,0,0:0:0:0:
232,240,65667,2,0,B|264:220|220:176|260:172,1,69.9999952316285
232,240,66135,2,0,B|200:260|244:304|204:308,1,69.9999952316285
140,268,66604,1,0,0:0:0:0:
92,196,66839,1,0,0:0:0:0:
180,52,67307,6,0,P|220:32|264:48,1,69.9999952316285
224,124,67792,6,0,B|284:128|284:128|280:176|280:176|332:180,1,139.999990463257
104,204,69182,6,0,P|136:216|192:204,2,69.9999952316285
148,132,69885,1,0,0:0:0:0:
224,96,70120,1,0,0:0:0:0:
288,152,70354,1,0,0:0:0:0:
288,152,70589,2,0,L|340:212,2,69.9999952316285
224,96,71292,1,0,0:0:0:0:
148,132,71526,1,0,0:0:0:0:
80,84,71760,2,0,P|60:112|68:160,1,69.9999952316285
108,216,72229,1,0,0:0:0:0:
88,296,72464,2,0,P|124:304|164:284,1,69.9999952316285
196,220,72932,1,0,0:0:0:0:
256,280,73167,5,0,0:0:0:0:
288,204,73401,1,0,0:0:0:0:
248,128,73635,2,0,P|284:112|332:120,1,69.9999952316285
392,148,74104,1,0,0:0:0:0:
316,188,74339,1,0,0:0:0:0:
276,260,74573,2,0,P|308:268|368:252,1,69.9999952316285
316,188,75042,1,0,0:0:0:0:
240,152,75276,2,0,P|268:120|308:116,2,69.9999952316285
316,188,75979,1,0,0:0:0:0:
360,116,76214,1,0,0:0:0:0:
300,56,76448,1,0,0:0:0:0:
220,28,76682,6,0,P|212:60|260:96,1,69.9999952316285
152,120,77151,1,0,0:0:0:0:
100,52,77385,1,0,0:0:0:0:
32,100,77620,2,0,P|40:124|80:148,1,69.9999952316285
52,228,78089,1,0,0:0:0:0:
136,236,78323,2,0,L|212:236,2,69.9999952316285
176,160,79026,1,0,0:0:0:0:
92,136,79260,1,0,0:0:0:0:
156,80,79495,1,0,0:0:0:0:
132,160,79729,2,0,P|112:196|108:236,1,69.9999952316285
192,212,80198,5,0,0:0:0:0:
244,144,80432,1,0,0:0:0:0:
216,64,80667,2,0,P|256:52|296:60,1,69.9999952316285
332,124,81135,1,0,0:0:0:0:
300,200,81370,2,0,P|328:216|372:204,2,69.9999952316285
300,200,82073,2,0,P|272:184|228:196,1,69.9999952316285
200,268,82542,1,0,0:0:0:0:
164,192,82776,2,0,P|160:156|180:124,2,69.9999952316285
200,268,83479,1,0,0:0:0:0:
244,196,83714,1,0,0:0:0:0:
184,140,83948,2,0,P|224:120|264:128,1,69.9999952316285
328,152,84417,5,0,0:0:0:0:
392,96,84651,1,0,0:0:0:0:
312,72,84885,1,0,0:0:0:0:
328,156,85120,2,0,P|368:172|388:224,2,69.9999952316285
312,240,85823,1,0,0:0:0:0:
244,192,86057,1,0,0:0:0:0:
216,272,86292,2,0,P|188:280|148:256,1,69.9999952316285
144,180,86760,1,0,0:0:0:0:
96,112,86995,2,0,P|132:96|176:116,2,69.9999952316285
32,60,87698,1,0,0:0:0:0:
112,32,87932,5,0,0:0:0:0:
196,48,88167,5,0,0:0:0:0:
232,124,88401,2,0,P|272:136|320:112,1,69.9999952316285
268,52,88870,1,0,0:0:0:0:
368,120,89104,1,0,0:0:0:0:
360,36,89339,2,0,P|396:24|440:36,1,69.9999952316285
464,104,89807,1,0,0:0:0:0:
452,188,90042,2,0,P|476:212|488:260,2,69.9999952316285
392,248,90745,1,0,0:0:0:0:
348,176,90979,1,0,0:0:0:0:
316,252,91214,1,0,0:0:0:0:
236,276,91448,2,0,P|228:240|252:208,1,69.9999952316285
308,160,91917,5,0,0:0:0:0:
224,144,92151,1,0,0:0:0:0:
168,80,92385,2,0,P|200:64|240:72,2,69.9999952316285
104,132,93089,1,0,0:0:0:0:
104,216,93323,2,0,L|104:292,2,69.9999952316285
184,248,94026,1,0,0:0:0:0:
248,196,94260,1,0,0:0:0:0:
204,124,94495,1,0,0:0:0:0:
288,124,94729,2,0,L|364:124,2,69.9999952316285
288,40,95432,1,0,0:0:0:0:
208,20,95667,5,0,0:0:0:0:
136,60,95901,2,0,B|148:68|148:68|148:80|148:80|164:92,2,34.9999976158143
88,128,96370,1,0,0:0:0:0:
40,196,96604,2,0,B|64:216|64:216|96:184|96:184|120:204|120:204|84:252,1,139.999990463257
40,288,97307,5,0,0:0:0:0:
24,204,97542,1,0,0:0:0:0:
0,128,97776,2,0,P|40:112|92:128,1,69.9999952316285
92,196,98245,1,0,0:0:0:0:
132,124,98479,2,0,P|160:144|212:136,2,69.9999952316285
224,220,99182,5,8,0:0:0:0:
312,76,99651,5,0,0:0:0:0:
468,140,100120,1,0,0:0:0:0:
392,176,100354,2,0,P|420:196|416:256,2,69.9999952316285
332,232,101057,1,0,0:0:0:0:
284,164,101292,1,0,0:0:0:0:
120,136,101760,2,0,P|124:88|160:68,2,69.9999952316285
120,136,102464,2,0,P|116:184|80:204,2,69.9999952316285
288,160,103401,5,0,0:0:0:0:
212,312,103870,2,0,P|232:332|284:332,1,69.9999952316285
260,296,104221,1,0,0:0:0:0:
224,272,104339,1,0,0:0:0:0:
164,216,104573,2,0,P|204:196|252:208,2,69.9999952316285
292,104,105510,6,0,P|332:96|368:136,2,69.9999952316285
320,184,106214,1,0,0:0:0:0:
236,168,106448,1,0,0:0:0:0:
220,84,106682,1,0,0:0:0:0:
192,4,106917,2,0,P|148:12|132:52,1,69.9999952316285
80,96,107385,1,0,0:0:0:0:
92,180,107620,1,0,0:0:0:0:
44,296,107971,1,0,0:0:0:0:
76,324,108089,1,0,0:0:0:0:
132,264,108323,2,0,P|156:280|208:272,2,69.9999952316285
188,200,109026,1,0,0:0:0:0:
160,120,109260,6,0,B|168:112|168:112|184:128|184:128|188:108|160:120,5,34.9999976158143
216,96,109964,1,0,0:0:0:0:
296,116,110198,1,0,0:0:0:0:
300,200,110432,6,0,P|332:200|364:244,2,69.9999952316285
140,248,111370,1,0,0:0:0:0:
144,164,111604,1,0,0:0:0:0:
176,136,111721,1,0,0:0:0:0:
192,176,111839,1,0,0:0:0:0:
228,100,112073,1,0,0:0:0:0:
440,208,112307,2,0,L|440:260,1,34.9999976158143
440,208,112542,2,0,L|396:236,1,34.9999976158143
440,208,112776,2,0,L|392:184,1,34.9999976158143
440,208,113010,2,0,L|440:156,1,34.9999976158143
448,212,113245,2,0,L|476:184,1,34.9999976158143
448,212,113479,2,0,L|488:236,1,34.9999976158143
440,208,113714,2,0,L|440:256,2,34.9999976158143
356,204,114182,5,8,0:0:0:0:
292,48,114651,5,0,0:0:0:0:
124,36,115120,2,0,L|120:96,2,34.9999976158143
84,44,115471,1,0,0:0:0:0:
84,88,115589,1,0,0:0:0:0:
60,168,115823,1,0,0:0:0:0:
36,248,116057,2,0,P|52:256|92:248,2,34.9999976158143
116,220,116526,1,0,0:0:0:0:
180,164,116760,1,0,0:0:0:0:
192,248,116995,2,0,P|228:260|276:240,1,69.9999952316285
228,176,117464,1,0,0:0:0:0:
180,108,117698,2,0,P|216:88|268:104,1,69.9999952316285
408,64,118401,5,0,0:0:0:0:
488,212,118870,1,0,0:0:0:0:
364,196,119221,1,0,0:0:0:0:
336,228,119339,2,0,P|344:252|332:276,4,34.9999976158143
256,252,120042,1,0,0:0:0:0:
172,240,120276,6,0,P|184:196|224:188,2,69.9999952316285
196,320,120979,1,0,0:0:0:0:
116,300,121214,1,0,0:0:0:0:
96,220,121448,2,0,P|116:188|120:152,1,69.9999952316285
96,220,121917,2,0,P|76:252|72:288,2,69.9999952316285
112,136,122620,2,0,P|136:132|172:140,2,34.9999976158143
132,172,122971,1,0,0:0:0:0:
176,176,123089,1,0,0:0:0:0:
224,108,123323,1,0,0:0:0:0:
296,152,123557,1,0,0:0:0:0:
300,256,123792,2,0,P|336:264|376:260,1,69.9999952316285
348,180,124260,5,0,0:0:0:0:
264,160,124495,2,0,P|276:120|320:96,1,69.9999952316285
432,196,124964,2,0,P|436:168|424:140,3,34.9999976158143
392,168,125432,1,0,0:0:0:0:
308,176,125667,1,0,0:0:0:0:
312,260,125901,1,0,0:0:0:0:
148,300,126370,2,0,P|188:312|236:300,1,69.9999952316285
184,232,126839,2,0,L|188:188,2,34.9999976158143
152,156,127307,2,0,P|192:144|240:160,2,69.9999952316285
219,148,128010,2,0,P|179:160|131:144,1,69.9999952316285
188,80,128479,1,0,0:0:0:0:
256,32,128714,1,0,0:0:0:0:
380,144,129182,5,8,0:0:0:0:
376,312,129651,1,0,0:0:0:0:
208,316,130120,1,0,0:0:0:0:
128,168,130589,1,0,0:0:0:0:
156,88,130823,1,0,0:0:0:0:
236,64,131057,2,0,P|276:68|308:104,1,69.9999952316285
364,240,131760,1,0,0:0:0:0:
280,232,131995,2,0,P|288:276|320:316,1,69.9999952316285
468,292,132698,1,0,0:0:0:0:
460,208,132932,1,0,0:0:0:0:
392,160,133167,1,0,0:0:0:0:
460,208,133401,1,0,0:0:0:0:
308,276,133870,5,0,0:0:0:0:
140,256,134339,1,0,0:0:0:0:
76,200,134573,2,0,P|112:180|156:196,1,69.9999952316285
144,280,135042,1,0,0:0:0:0:
204,112,135510,1,0,0:0:0:0:
28,232,135745,1,0,0:0:0:0:
88,84,135979,1,0,0:0:0:0:
68,304,136448,1,0,0:0:0:0:
164,40,136682,1,0,0:0:0:0:
160,268,136917,1,0,0:0:0:0:
112,196,137151,1,0,0:0:0:0:
260,116,137620,1,0,0:0:0:0:
428,120,138089,5,0,0:0:0:0:
348,96,138323,2,0,P|344:140|384:160,1,69.9999952316285
300,216,138792,1,0,0:0:0:0:
148,148,139260,1,0,0:0:0:0:
164,64,139495,1,0,0:0:0:0:
80,80,139729,1,0,0:0:0:0:
4,232,140198,1,0,0:0:0:0:
56,300,140432,1,0,0:0:0:0:
124,248,140667,1,0,0:0:0:0:
72,184,140901,1,0,0:0:0:0:
213,95,141370,1,0,0:0:0:0:
372,48,141839,1,0,0:0:0:0:
408,124,142073,5,0,0:0:0:0:
436,204,142307,2,0,P|448:236|424:276,1,69.9999952316285
268,256,143010,1,0,0:0:0:0:
216,188,143245,1,0,0:0:0:0:
184,112,143479,1,0,0:0:0:0:
324,16,143948,5,0,0:0:0:0:
400,52,144182,1,0,0:0:0:0:
428,132,144417,2,0,P|444:168|424:208,1,69.9999952316285
356,176,144885,1,0,0:0:0:0:
304,244,145120,1,0,0:0:0:0:
332,324,145354,1,0,0:0:0:0:
248,324,145589,2,0,L|172:324,2,69.9999952316285
208,248,146292,1,0,0:0:0:0:
132,208,146526,2,0,B|176:184|176:184|208:208|208:208|232:180|276:204,1,139.999990463257
308,132,147229,1,0,0:0:0:0:
444,36,147698,5,0,0:0:0:0:
464,116,147932,2,0,P|492:144|484:196,1,69.9999952316285
412,172,148401,1,0,0:0:0:0:
332,200,148635,1,0,0:0:0:0:
248,196,148870,1,0,0:0:0:0:
192,256,149104,2,0,P|216:272|260:272,1,69.9999952316285
208,344,149573,1,0,0:0:0:0:
140,292,149807,2,0,P|128:244|140:200,1,69.9999952316285
108,56,150510,5,0,0:0:0:0:
184,196,150745,1,0,0:0:0:0:
244,48,150979,1,0,0:0:0:0:
256,216,151448,6,0,P|296:228|340:216,1,69.9999952316285
296,144,151917,1,0,0:0:0:0:
376,168,152151,1,0,0:0:0:0:
324,232,152385,2,0,P|340:260|396:272,2,69.9999952316285
264,292,153089,1,0,0:0:0:0:
184,316,153323,2,0,P|172:276|208:236,2,69.9999952316285
256,272,154026,1,0,0:0:0:0:
232,192,154260,1,0,0:0:0:0:
192,116,154495,2,0,P|232:104|268:116,1,69.9999952316285
428,100,155198,5,0,0:0:0:0:
452,180,155432,1,0,0:0:0:0:
396,244,155667,1,0,0:0:0:0:
340,180,155901,2,0,P|316:196|312:252,2,69.9999952316285
396,244,156604,1,0,0:0:0:0:
348,312,156839,1,0,0:0:0:0:
472,204,157073,2,0,P|488:236|480:276,1,69.9999952316285
404,240,157542,1,0,0:0:0:0:
256,160,158010,6,0,P|236:188|240:248,2,69.9999952316285
320,216,158714,1,0,0:0:0:0:
284,52,159182,1,0,0:0:0:0:
116,56,159651,5,0,0:0:0:0:
16,192,160120,1,0,0:0:0:0:
64,260,160354,2,0,B|80:252|80:252|68:244|68:244|76:264|76:264|88:256,2,34.9999976158143
112,188,160823,2,0,P|152:180|188:192,1,69.9999952316285
204,268,161292,1,0,0:0:0:0:
332,160,161760,6,0,L|332:240,2,69.9999952316285
332,160,162464,2,0,L|332:80,2,69.9999952316285
168,124,163401,5,0,0:0:0:0:
84,272,163870,1,0,0:0:0:0:
192,336,164221,1,0,0:0:0:0:
228,316,164339,1,0,0:0:0:0:
176,252,164573,2,0,P|208:224|244:240,2,69.9999952316285
236,96,165510,6,0,P|272:112|312:104,2,69.9999952316285
288,28,166214,1,0,0:0:0:0:
368,56,166448,1,0,0:0:0:0:
372,140,166682,1,0,0:0:0:0:
432,80,166917,2,0,P|460:112|452:160,1,69.9999952316285
424,300,167620,5,0,0:0:0:0:
300,312,167971,1,0,0:0:0:0:
272,280,168089,1,0,0:0:0:0:
212,224,168323,2,0,L|212:152,1,69.9999952316285
212,68,168792,2,0,L|212:152,1,69.9999952316285
296,152,169260,5,0,0:0:0:0:
212,148,169495,2,0,L|131:147,1,69.9999952316285
60,140,169964,1,0,0:0:0:0:
128,88,170198,1,0,0:0:0:0:
212,68,170432,2,0,L|292:68,1,69.9999952316285
368,72,170901,1,0,0:0:0:0:
464,212,171370,1,0,0:0:0:0:
392,256,171604,2,0,L|356:280,1,34.9999976158143
328,300,171839,1,0,0:0:0:0:
292,224,172073,1,0,0:0:0:0:
356,172,172307,1,0,0:0:0:0:
284,128,172542,2,0,L|284:92,3,34.9999976158143
284,128,173010,2,0,L|348:128,4,34.9999976158143
284,128,173596,2,0,L|284:180,2,34.9999976158143
284,128,173948,2,0,L|236:128,2,34.9999976158143
128,64,174651,5,8,0:0:0:0:
16,188,175120,1,0,0:0:0:0:
84,296,175471,1,0,0:0:0:0:
84,252,175589,1,0,0:0:0:0:
100,168,175823,2,0,P|136:148|192:164,1,69.9999952316285
160,232,176292,1,0,0:0:0:0:
176,300,176760,2,0,P|200:316|248:304,1,69.9999952316285
248,228,177229,1,0,0:0:0:0:
200,160,177464,1,0,0:0:0:0:
164,84,177698,2,0,P|204:72|248:84,1,69.9999952316285
400,96,178401,5,0,0:0:0:0:
400,264,178870,1,0,0:0:0:0:
296,332,179221,1,0,0:0:0:0:
268,300,179339,1,0,0:0:0:0:
280,216,179573,1,0,0:0:0:0:
244,140,179807,2,0,P|284:132|320:144,2,69.9999952316285
280,216,180510,1,0,0:0:0:0:
244,236,180628,1,0,0:0:0:0:
232,196,180745,1,0,0:0:0:0:
148,204,180979,1,0,0:0:0:0:
76,164,181214,1,0,0:0:0:0:
104,84,181448,1,0,0:0:0:0:
140,64,181565,1,0,0:0:0:0:
180,76,181682,1,0,0:0:0:0:
248,124,181917,6,0,P|280:140|336:120,1,69.9999952316285
444,28,182620,1,0,0:0:0:0:
464,108,182854,1,0,0:0:0:0:
480,148,182971,1,0,0:0:0:0:
468,188,183089,1,0,0:0:0:0:
424,260,183323,2,0,P|400:276|340:272,1,69.9999952316285
380,196,183792,1,0,0:0:0:0:
212,188,184260,6,0,P|232:148|268:132,1,69.9999952316285
300,204,184729,1,0,0:0:0:0:
268,232,184846,1,0,0:0:0:0:
224,232,184964,1,0,0:0:0:0:
144,204,185198,1,0,0:0:0:0:
64,232,185432,1,0,0:0:0:0:
92,152,185667,2,0,P|136:132|188:144,1,69.9999952316285
324,140,186370,5,0,0:0:0:0:
364,136,186487,1,0,0:0:0:0:
384,172,186604,1,0,0:0:0:0:
308,204,186839,2,0,P|308:244|288:280,1,69.9999952316285
232,216,187307,1,0,0:0:0:0:
156,252,187542,2,0,P|148:208|172:160,1,69.9999952316285
188,108,188010,1,0,0:0:0:0:
140,40,188245,1,0,0:0:0:0:
180,32,188362,1,0,0:0:0:0:
220,44,188479,1,0,0:0:0:0:
288,96,188714,1,0,0:0:0:0:
456,80,189182,5,8,0:0:0:0:
452,164,189417,2,0,P|464:196|460:236,1,69.9999952316285
300,188,190120,1,0,0:0:0:0:
240,128,190354,1,0,0:0:0:0:
260,92,190471,1,0,0:0:0:0:
216,92,190589,1,0,0:0:0:0:
144,52,190823,1,0,0:0:0:0:
64,80,191057,2,0,P|52:120|68:168,1,69.9999952316285
72,316,191760,2,0,P|104:324|144:312,1,69.9999952316285
104,240,192229,1,0,0:0:0:0:
132,212,192346,1,0,0:0:0:0:
160,180,192464,1,0,0:0:0:0:
256,44,192932,1,0,0:0:0:0:
