osu file format v14

[General]
AudioFilename: eveaudio.mp3
AudioLeadIn: 0
PreviewTime: -1
Countdown: 0
SampleSet: None
StackLeniency: 0.7
Mode: 0
LetterboxInBreaks: 0
WidescreenStoryboard: 1

[Editor]
DistanceSpacing: 1
BeatDivisor: 4
GridSize: 8
TimelineZoom: 1

[Metadata]
Title:As You Like It (English Cover)
TitleUnicode:As You Like It (English Cover)
Artist:JubyPhonic
ArtistUnicode:JubyPhonic
Creator:Kura_Kiyuko
Version:EVE Cover
Source:Eve (Youtube)
Tags:As You Like It (Eve) As You Like It (English Cover) JubyPhonic
BeatmapID:1881809
BeatmapSetID:741453

[Difficulty]
HPDrainRate:7.5
CircleSize:5.5
OverallDifficulty:7
ApproachRate:7.5
SliderMultiplier:1.4
SliderTickRate:1

[Events]
//Background and Video events
0,0,"as you like it.jpg",0,0
Video,0,"As You Like It (English Cover)【JubyPhonic】お気に召すまま (1).avi"
//Break Periods
2,151311,168327
2,173795,176090
//Storyboard Layer 0 (Background)
//Storyboard Layer 1 (Fail)
//Storyboard Layer 2 (Pass)
//Storyboard Layer 3 (Foreground)
//Storyboard Sound Samples

[TimingPoints]
15170,419.574037788663,4,1,0,100,1,0

[Colours]
Combo1 : 158,97,158
Combo2 : 0,0,0
Combo3 : 237,35,121
Combo4 : 0,128,128

[HitObjects]
130,82,28805,5,0,0:0:0:0:
196,103,29015,1,0,0:0:0:0:
229,164,29225,1,0,0:0:0:0:
161,182,29435,1,0,0:0:0:0:
212,229,29644,1,0,0:0:0:0:
279,210,29854,1,0,0:0:0:0:
345,231,30064,1,0,0:0:0:0:
484,213,30484,5,0,0:0:0:0:
381,127,30693,2,0,L|429:71,1,70
361,48,31113,1,0,0:0:0:0:
292,31,31323,1,0,0:0:0:0:
260,93,31533,1,0,0:0:0:0:
190,83,31742,2,0,B|117:185|112:205,1,140
188,198,32372,1,0,0:0:0:0:
244,238,32581,1,0,0:0:0:0:
379,274,33001,5,0,0:0:0:0:
390,156,33211,2,0,L|422:219,2,70
339,25,33840,1,0,0:0:0:0:
360,91,34050,1,0,0:0:0:0:
291,105,34260,1,0,0:0:0:0:
225,79,34470,1,0,0:0:0:0:
205,146,34679,1,0,0:0:0:0:
137,125,34889,1,0,0:0:0:0:
332,48,35519,5,0,0:0:0:0:
279,94,35728,1,0,0:0:0:0:
348,102,35938,2,0,L|332:158,1,35
311,159,36148,2,0,L|335:247,1,70
268,262,36567,1,0,0:0:0:0:
203,235,36777,1,0,0:0:0:0:
320,96,37197,5,0,0:0:0:0:
389,96,37407,1,0,0:0:0:0:
410,162,37616,1,0,0:0:0:0:
351,201,37826,1,0,0:0:0:0:
318,263,38036,2,0,L|255:256,2,35
239,197,38456,1,0,0:0:0:0:
324,86,38875,5,0,0:0:0:0:
393,89,39085,1,0,0:0:0:0:
362,151,39295,1,0,0:0:0:0:
344,289,39714,1,0,0:0:0:0:
283,253,39924,1,0,0:0:0:0:
277,183,40134,2,0,P|233:128|164:134,1,140
165,201,40763,1,0,0:0:0:0:
215,248,40973,1,0,0:0:0:0:
283,253,41183,1,0,0:0:0:0:
323,195,41393,1,0,0:0:0:0:
376,240,41602,1,0,0:0:0:0:
383,100,42022,1,0,0:0:0:0:
245,72,42441,5,0,0:0:0:0:
143,168,42861,1,0,0:0:0:0:
353,163,43490,2,0,L|393:203,8,35
389,102,44539,2,0,L|435:92,3,35
438,225,45169,1,0,0:0:0:0:
376,258,45378,1,0,0:0:0:0:
241,186,46847,6,0,L|284:185,5,35
276,80,47686,2,0,L|225:83,3,35
299,121,48211,2,0,L|324:214,1,70
364,173,48525,2,0,L|346:85,2,70
143,121,50204,5,0,0:0:0:0:
170,185,50413,2,0,L|137:197,1,35
159,224,50623,2,0,L|214:206,1,35
234,117,51043,1,0,0:0:0:0:
301,136,51253,2,0,L|396:85,2,105
263,76,52092,1,0,0:0:0:0:
133,128,52511,1,0,0:0:0:0:
80,174,52721,1,0,0:0:0:0:
147,192,52931,1,0,0:0:0:0:
203,151,53141,2,0,L|296:151,1,70
238,212,53560,1,0,0:0:0:0:
259,122,55448,5,0,0:0:0:0:
357,221,55868,1,0,0:0:0:0:
217,230,56287,1,0,0:0:0:0:
332,150,56707,1,0,0:0:0:0:
192,133,57127,2,0,B|290:207|289:206,2,105
121,134,57966,1,0,0:0:0:0:
228,43,58385,1,0,0:0:0:0:
327,141,58805,1,0,0:0:0:0:
190,170,59224,1,0,0:0:0:0:
293,76,59644,1,0,0:0:0:0:
272,178,60064,6,0,L|309:258,1,70
323,174,60483,2,0,L|351:230,1,35
380,262,60798,1,0,0:0:0:0:
422,206,61113,1,0,0:0:0:0:
448,140,61322,2,0,L|423:84,3,35
329,93,61952,1,0,0:0:0:0:
287,149,62161,1,0,0:0:0:0:
155,100,62581,5,0,0:0:0:0:
294,108,63001,1,0,0:0:0:0:
205,216,63420,1,0,0:0:0:0:
146,152,63840,2,0,L|279:153,2,105
70,153,64679,1,0,0:0:0:0:
273,31,65098,1,0,0:0:0:0:
337,155,65518,1,0,0:0:0:0:
269,277,65938,1,0,0:0:0:0:
406,249,66357,1,0,0:0:0:0:
283,181,66777,1,0,0:0:0:0:
396,99,67196,1,0,0:0:0:0:
191,54,67826,5,0,0:0:0:0:
183,123,68035,1,0,0:0:0:0:
251,109,68245,1,0,0:0:0:0:
236,177,68455,2,0,L|298:246,1,70
321,287,68875,2,0,L|327:340,2,35
430,316,69294,2,0,L|422:259,2,35
359,310,69714,2,0,L|284:312,1,70
253,312,70028,2,0,L|143:312,1,105
193,216,70763,6,0,L|197:275,3,35
260,224,71182,1,0,0:0:0:0:
322,255,71392,1,0,0:0:0:0:
333,185,71602,2,0,L|405:162,1,70
374,98,72021,1,0,0:0:0:0:
304,92,72231,2,0,L|257:68,2,35
273,155,72651,2,0,L|237:158,2,35
285,224,73070,2,0,L|284:302,1,70
353,282,73490,1,0,0:0:0:0:
284,293,73700,1,0,0:0:0:0:
170,210,74119,6,0,L|253:157,1,70
169,209,74539,1,0,0:0:0:0:
225,168,74749,1,0,0:0:0:0:
165,131,74958,2,0,L|69:140,1,70
53,194,75378,1,0,0:0:0:0:
34,126,75588,2,0,L|-15:122,2,35
88,80,76007,2,0,L|119:38,2,35
88,80,76427,1,0,0:0:0:0:
248,147,76742,1,0,0:0:0:0:
215,247,77056,1,0,0:0:0:0:
350,279,77476,5,0,0:0:0:0:
291,317,77686,1,0,0:0:0:0:
350,279,77895,2,0,L|427:299,1,70
415,226,78315,1,0,0:0:0:0:
471,185,78525,1,0,0:0:0:0:
405,160,78735,1,0,0:0:0:0:
370,98,78944,2,0,L|312:80,2,35
313,139,79364,2,0,L|356:161,2,35
257,182,79784,1,0,0:0:0:0:
307,274,80098,2,0,L|417:261,1,105
458,129,80833,5,0,0:0:0:0:
400,89,81042,2,0,L|471:138,1,70
460,199,81462,1,0,0:0:0:0:
417,254,81672,1,0,0:0:0:0:
368,203,81881,1,0,0:0:0:0:
312,245,82091,1,0,0:0:0:0:
245,224,82301,2,0,L|281:201,2,35
269,135,82721,2,0,L|306:171,2,35
297,89,83140,2,0,L|371:26,2,70
372,110,83770,1,0,0:0:0:0:
313,236,84189,6,0,L|390:224,1,70
447,251,84609,1,0,0:0:0:0:
395,297,84818,1,0,0:0:0:0:
358,356,85028,2,0,L|436:361,1,70
380,308,85448,1,0,0:0:0:0:
339,250,85658,2,0,L|384:215,2,35
271,230,86077,2,0,L|250:277,2,35
200,231,86497,2,0,L|230:300,1,70
157,291,86916,1,0,0:0:0:0:
120,231,87126,1,0,0:0:0:0:
160,97,87546,5,0,0:0:0:0:
218,136,87755,2,0,L|297:114,1,70
350,143,88175,1,0,0:0:0:0:
294,186,88385,1,0,0:0:0:0:
356,218,88595,1,0,0:0:0:0:
345,287,88804,1,0,0:0:0:0:
275,283,89014,2,0,L|263:340,2,35
212,251,89434,2,0,L|225:207,2,35
153,212,89853,1,0,0:0:0:0:
145,107,90168,1,0,0:0:0:0:
226,40,90483,1,0,0:0:0:0:
356,89,90902,5,0,0:0:0:0:
406,40,91112,1,0,0:0:0:0:
434,103,91322,1,0,0:0:0:0:
386,154,91532,1,0,0:0:0:0:
434,204,91741,1,0,0:0:0:0:
386,255,91951,2,0,L|326:307,1,70
262,299,92371,2,0,L|222:261,2,35
293,236,92790,1,0,0:0:0:0:
346,191,93000,1,0,0:0:0:0:
423,307,93420,5,0,0:0:0:0:
369,261,93630,2,0,L|257:172,1,140
323,144,94259,1,0,0:0:0:0:
323,144,94469,2,0,L|328:214,1,70
323,144,94888,1,0,0:0:0:0:
201,213,95308,1,0,0:0:0:0:
324,279,95727,1,0,0:0:0:0:
209,90,97615,6,0,L|265:94,1,35
257,93,97825,1,0,0:0:0:0:
276,160,98035,1,0,0:0:0:0:
325,209,98245,2,0,L|387:218,4,35
358,271,98874,1,0,0:0:0:0:
458,173,99294,5,0,0:0:0:0:
420,114,99504,1,0,0:0:0:0:
350,106,99713,1,0,0:0:0:0:
297,151,99923,2,0,L|262:151,7,35
160,178,100972,1,0,0:0:0:0:
218,238,101182,1,0,0:0:0:0:
279,271,101392,1,0,0:0:0:0:
258,156,101811,6,0,L|342:162,1,70
258,93,102231,1,0,0:0:0:0:
118,98,102650,5,0,0:0:0:0:
76,154,102860,2,0,L|134:160,2,35
10,129,103280,1,0,0:0:0:0:
57,260,103699,1,0,0:0:0:0:
265,284,104329,6,0,L|334:340,2,70
299,222,104958,2,0,L|382:226,1,70
420,177,105378,2,0,L|341:172,2,70
406,107,106007,2,0,L|326:111,1,70
283,63,106427,1,0,0:0:0:0:
213,69,106636,2,0,L|285:62,1,70
273,131,107056,1,0,0:0:0:0:
214,169,107266,1,0,0:0:0:0:
323,207,107685,5,0,0:0:0:0:
260,239,107895,1,0,0:0:0:0:
319,275,108104,2,0,L|404:302,1,70
409,230,108524,1,0,0:0:0:0:
464,273,108734,1,0,0:0:0:0:
345,166,108944,2,0,L|490:183,1,140
472,112,109573,1,0,0:0:0:0:
419,65,109783,1,0,0:0:0:0:
358,99,109993,2,0,L|286:98,1,70
208,139,110412,1,0,0:0:0:0:
95,169,110832,1,0,0:0:0:0:
17,250,112301,6,0,L|73:255,3,35
119,272,112825,1,0,0:0:0:0:
216,232,113140,1,0,0:0:0:0:
210,185,113349,2,0,L|196:38,1,140
265,58,113979,2,0,L|359:58,2,70
295,209,115657,6,0,L|358:212,4,35
251,225,116181,1,0,0:0:0:0:
269,316,116496,1,0,0:0:0:0:
333,288,116706,2,0,L|414:291,2,70
336,217,117335,1,0,0:0:0:0:
357,150,117545,1,0,0:0:0:0:
336,73,119014,6,0,L|396:75,8,35
281,117,120062,1,0,0:0:0:0:
302,183,120272,1,0,0:0:0:0:
245,224,120482,1,0,0:0:0:0:
304,261,120692,1,0,0:0:0:0:
362,223,120901,1,0,0:0:0:0:
168,141,121531,5,0,0:0:0:0:
228,176,121741,1,0,0:0:0:0:
267,118,121950,1,0,0:0:0:0:
324,157,122160,1,0,0:0:0:0:
366,101,122370,2,0,L|443:148,1,70
216,116,123209,5,0,0:0:0:0:
277,69,123419,1,0,0:0:0:0:
297,136,123629,1,0,0:0:0:0:
247,185,123839,1,0,0:0:0:0:
272,250,124049,1,0,0:0:0:0:
386,259,124258,2,0,L|416:309,2,35
346,197,124678,2,0,L|322:161,2,35
389,178,125098,2,0,L|421:212,2,35
359,114,125517,1,0,0:0:0:0:
402,132,125726,2,0,L|481:137,1,70
370,77,126146,5,0,0:0:0:0:
308,110,126356,1,0,0:0:0:0:
305,156,126566,2,0,L|393:180,1,70
338,223,126985,1,0,0:0:0:0:
268,226,127195,1,0,0:0:0:0:
204,198,127405,1,0,0:0:0:0:
139,226,127615,2,0,L|184:253,2,35
81,266,128035,2,0,L|55:243,2,35
123,285,128454,2,0,L|171:276,2,35
105,216,128874,1,0,0:0:0:0:
182,212,129083,1,0,0:0:0:0:
275,108,129503,6,0,L|350:117,1,70
300,171,129922,2,0,L|217:165,1,70
273,221,130342,2,0,L|348:218,1,70
384,161,130761,1,0,0:0:0:0:
435,208,130971,2,0,L|396:224,2,35
415,275,131391,2,0,L|481:307,1,70
393,324,131810,1,0,0:0:0:0:
297,256,132125,1,0,0:0:0:0:
357,184,132440,1,0,0:0:0:0:
346,44,132859,5,0,0:0:0:0:
290,86,133069,1,0,0:0:0:0:
280,155,133279,2,0,L|366:155,1,70
420,158,133698,1,0,0:0:0:0:
376,213,133908,1,0,0:0:0:0:
306,218,134118,1,0,0:0:0:0:
246,180,134328,2,0,L|269:148,2,35
213,242,134748,2,0,L|251:280,2,35
213,242,135167,2,0,L|294:236,2,70
143,251,135796,1,0,0:0:0:0:
54,142,136216,5,0,0:0:0:0:
102,91,136426,1,0,0:0:0:0:
171,87,136635,2,0,L|244:89,1,70
253,19,137055,1,0,0:0:0:0:
305,65,137265,1,0,0:0:0:0:
294,133,137475,1,0,0:0:0:0:
234,170,137684,2,0,L|237:241,1,70
295,278,138104,2,0,L|296:194,1,70
357,174,138523,1,0,0:0:0:0:
378,240,138733,2,0,L|431:248,2,35
335,260,139153,1,0,0:0:0:0:
307,122,139572,5,0,0:0:0:0:
376,116,139782,2,0,L|509:47,1,140
481,119,140412,1,0,0:0:0:0:
435,172,140621,1,0,0:0:0:0:
366,161,140831,1,0,0:0:0:0:
325,218,141041,2,0,L|373:223,2,35
306,261,141461,2,0,L|262:247,2,35
236,252,141881,2,0,L|221:301,2,35
234,191,142300,1,0,0:0:0:0:
166,98,142509,1,0,0:0:0:0:
213,229,142929,5,0,0:0:0:0:
269,270,143139,2,0,L|353:279,1,70
408,280,143558,1,0,0:0:0:0:
372,219,143768,1,0,0:0:0:0:
303,202,143978,1,0,0:0:0:0:
353,153,144188,1,0,0:0:0:0:
332,86,144398,2,0,L|416:91,1,70
443,147,144818,2,0,L|395:146,2,35
413,183,145237,1,0,0:0:0:0:
337,237,145552,1,0,0:0:0:0:
220,224,145866,1,0,0:0:0:0:
299,108,146286,5,0,0:0:0:0:
276,174,146495,1,0,0:0:0:0:
344,158,146705,1,0,0:0:0:0:
322,224,146915,1,0,0:0:0:0:
265,265,147125,1,0,0:0:0:0:
196,251,147335,2,0,L|268:265,1,70
212,311,147754,2,0,L|159:304,2,35
165,303,148174,1,0,0:0:0:0:
120,249,148383,1,0,0:0:0:0:
143,110,148803,5,0,0:0:0:0:
104,51,149013,1,0,0:0:0:0:
173,48,149223,1,0,0:0:0:0:
308,85,149642,1,0,0:0:0:0:
319,154,149852,2,0,L|405:158,1,70
387,227,150272,1,0,0:0:0:0:
250,258,150691,1,0,0:0:0:0:
155,155,151111,1,0,0:0:0:0:
253,97,169152,5,0,0:0:0:0:
322,103,169362,1,0,0:0:0:0:
331,57,169572,2,0,L|465:68,1,105
353,138,170201,1,0,0:0:0:0:
371,205,170411,1,0,0:0:0:0:
280,226,170726,1,0,0:0:0:0:
166,200,171040,1,0,0:0:0:0:
202,140,171250,1,0,0:0:0:0:
256,192,171565,12,0,173595,0:0:0:0:
210,78,176915,5,0,0:0:0:0:
279,82,177124,1,0,0:0:0:0:
237,138,177334,1,0,0:0:0:0:
302,162,177544,1,0,0:0:0:0:
390,86,177964,6,0,L|438:86,2,35
411,152,178383,2,0,L|346:153,2,35
361,202,178803,2,0,L|444:218,2,70
303,287,179432,1,0,0:0:0:0:
389,208,179852,6,0,L|482:216,1,70
452,282,180271,1,0,0:0:0:0:
394,322,180481,1,0,0:0:0:0:
324,321,180691,2,0,L|236:320,1,70
267,251,181110,1,0,0:0:0:0:
252,182,181320,2,0,L|306:184,2,35
184,162,181740,2,0,L|141:160,2,35
231,86,182160,6,0,L|319:89,2,70
275,137,182789,1,0,0:0:0:0:
94,184,182999,2,0,L|169:186,1,70
126,245,183418,1,0,0:0:0:0:
64,277,183628,1,0,0:0:0:0:
78,345,183838,2,0,L|-9:349,1,70
77,343,184258,1,0,0:0:0:0:
131,298,184677,6,0,L|189:284,2,35
210,341,185097,2,0,L|165:355,2,35
261,294,185516,1,0,0:0:0:0:
236,203,185831,1,0,0:0:0:0:
343,157,186145,1,0,0:0:0:0:
254,80,186565,1,0,0:0:0:0:
276,146,186775,1,0,0:0:0:0:
241,207,186984,2,0,L|324:201,1,70
329,269,187404,1,0,0:0:0:0:
383,225,187614,1,0,0:0:0:0:
378,155,187824,1,0,0:0:0:0:
324,110,188033,6,0,L|268:104,2,35
280,159,188453,2,0,L|326:158,2,35
280,159,188873,1,0,0:0:0:0:
218,247,189187,1,0,0:0:0:0:
323,297,189502,1,0,0:0:0:0:
357,185,189921,5,0,0:0:0:0:
377,251,190131,1,0,0:0:0:0:
441,223,190341,1,0,0:0:0:0:
453,154,190551,1,0,0:0:0:0:
391,120,190761,1,0,0:0:0:0:
395,189,190970,1,0,0:0:0:0:
334,154,191180,1,0,0:0:0:0:
269,127,191390,6,0,L|312:128,2,35
273,197,191809,2,0,L|219:198,2,35
271,243,192229,2,0,L|328:243,1,35
379,272,192544,1,0,0:0:0:0:
428,193,192858,1,0,0:0:0:0:
352,103,193278,6,0,L|426:97,1,70
460,155,193698,1,0,0:0:0:0:
392,171,193908,1,0,0:0:0:0:
343,221,194117,2,0,L|260:221,1,70
298,155,194537,1,0,0:0:0:0:
348,106,194747,2,0,L|393:114,2,35
394,159,195166,2,0,L|391:209,2,35
362,247,195586,2,0,L|456:249,2,70
394,329,196215,1,0,0:0:0:0:
360,217,196636,5,0,0:0:0:0:
443,166,196845,2,0,L|522:155,1,70
488,90,197265,1,0,0:0:0:0:
418,97,197475,1,0,0:0:0:0:
363,52,197685,1,0,0:0:0:0:
293,42,197894,1,0,0:0:0:0:
254,125,198103,2,0,L|299:122,2,35
244,194,198523,2,0,L|199:192,2,35
197,192,198942,1,0,0:0:0:0:
203,98,199257,5,0,0:0:0:0:
124,149,199572,1,0,0:0:0:0:
225,245,199992,1,0,0:0:0:0:
221,175,200202,1,0,0:0:0:0:
165,217,200412,1,0,0:0:0:0:
95,226,200622,1,0,0:0:0:0:
66,162,200831,1,0,0:0:0:0:
113,110,201041,2,0,L|192:102,1,70
249,123,201461,1,0,0:0:0:0:
291,256,201879,5,0,0:0:0:0:
352,223,202089,2,0,L|496:226,1,140
434,266,202718,2,0,L|295:265,1,140
245,214,203348,1,0,0:0:0:0:
257,145,203558,2,0,L|344:151,1,70
363,89,203977,1,0,0:0:0:0:
235,32,204397,1,0,0:0:0:0:
144,138,204817,1,0,0:0:0:0:
256,192,205131,12,0,207510,0:0:0:0:
