osu file format v14

[General]
AudioFilename: audio.mp3
AudioLeadIn: 0
PreviewTime: -1
Countdown: 1
SampleSet: Soft
StackLeniency: 0.7
Mode: 0
LetterboxInBreaks: 0
WidescreenStoryboard: 0

[Editor]
DistanceSpacing: 0.9
BeatDivisor: 12
GridSize: 4
TimelineZoom: 0.9999999

[Metadata]
Title:Additional Memory (English Cover)
TitleUnicode:Additional Memory (English Cover)
Artist:JubyPhonic
ArtistUnicode:JubyPhonic
Creator:Kura_Kiyuko
Version:Just a Memory
Source:Kagerou Project
Tags:JubyPhonic english cover additional memory JIN kagerou project
BeatmapID:1789994
BeatmapSetID:856864

[Difficulty]
HPDrainRate:4
CircleSize:4.5
OverallDifficulty:7
ApproachRate:9
SliderMultiplier:1.7
SliderTickRate:1

[Events]
//Background and Video events
Video,621,"Additional Memory (English Cover)【JubyPhonic】アディショナルメモリー.avi"
0,0,"maxresdefault (31).jpg",0,0
//Break Periods
2,119102,137502
2,206702,222352
//Storyboard Layer 0 (Background)
//Storyboard Layer 1 (Fail)
//Storyboard Layer 2 (Pass)
//Storyboard Layer 3 (Foreground)
//Storyboard Sound Samples

[TimingPoints]
13902,300,4,1,0,100,1,0
43002,600,4,2,0,100,1,0
80502,-40,4,2,0,100,0,0
81002,-58.8235294117647,4,2,0,100,0,0
81102,-50,4,2,0,100,0,0
81252,-58.8235294117647,4,2,0,100,0,0
82152,-47.6190476190476,4,2,0,100,0,0
82302,-58.8235294117647,4,2,0,100,0,0
90702,-45.4545454545455,4,2,0,100,0,0
90852,-58.8235294117647,4,2,0,100,0,0
91752,-45.4545454545455,4,2,0,100,0,0
91902,-58.8235294117647,4,2,0,100,0,0
94152,-45.4545454545455,4,2,0,100,0,0
94602,-58.8235294117647,4,2,0,100,0,0
96552,-52.6315789473684,4,2,0,100,0,0
96852,-58.8235294117647,4,2,0,100,0,0
167502,-33.3333333333333,4,2,0,100,0,0
168602,-58.8235294117647,4,2,0,100,0,0
168702,-50,4,2,0,100,0,0
168852,-58.8235294117647,4,2,0,100,0,0
169752,-50,4,2,0,100,0,0
169902,-58.8235294117647,4,2,0,100,0,0
179352,-50,4,2,0,100,0,0
179502,-58.8235294117647,4,2,0,100,0,0
181752,-47.6190476190476,4,2,0,100,0,0
182052,-58.8235294117647,4,2,0,100,0,0

[HitObjects]
203,221,13902,5,0,0:0:0:0:
283,289,14202,2,0,L|363:360,2,85
203,221,14652,1,0,0:0:0:0:
274,131,14952,6,0,L|344:56,2,85
203,221,15402,1,0,0:0:0:0:
360,341,15702,1,0,0:0:0:0:
285,265,15852,1,0,0:0:0:0:
343,187,16152,6,0,L|404:114,2,85
285,265,16602,1,0,0:0:0:0:
128,326,16902,1,0,0:0:0:0:
161,230,17052,1,0,0:0:0:0:
338,155,17352,5,0,0:0:0:0:
150,96,17652,1,0,0:0:0:0:
194,184,17802,1,0,0:0:0:0:
41,155,17952,2,0,L|153:180,3,85
238,205,18552,5,0,0:0:0:0:
397,209,18852,2,0,P|378:166|405:113,1,85
481,30,19302,1,0,0:0:0:0:
384,30,19452,1,0,0:0:0:0:
273,73,19752,6,0,L|179:122,2,85
380,33,20202,1,0,0:0:0:0:
444,196,20502,1,0,0:0:0:0:
378,279,20652,1,0,0:0:0:0:
277,209,20952,6,0,L|206:156,3,85
101,74,21702,1,0,0:0:0:0:
183,31,21852,2,0,P|228:23|294:48,3,85
403,74,22452,5,0,0:0:0:0:
383,97,22527,1,0,0:0:0:0:
380,136,22602,1,0,0:0:0:0:
362,164,22677,1,0,0:0:0:0:
330,170,22752,1,0,0:0:0:0:
261,241,22902,1,0,0:0:0:0:
155,220,23052,1,0,0:0:0:0:
260,39,23502,1,0,0:0:0:0:
107,148,23802,5,0,0:0:0:0:
145,217,23952,1,0,0:0:0:0:
192,284,24102,1,0,0:0:0:0:
213,194,24252,1,0,0:0:0:0:
261,261,24402,1,0,0:0:0:0:
303,334,24552,1,0,0:0:0:0:
324,225,24702,1,0,0:0:0:0:
432,213,25002,6,0,P|346:120|300:136,1,170
338,218,25602,2,0,P|275:208|235:110,1,170
64,41,26202,5,0,0:0:0:0:
54,136,26352,1,0,0:0:0:0:
144,53,26502,1,0,0:0:0:0:
135,151,26652,1,0,0:0:0:0:
221,59,26802,5,0,0:0:0:0:
216,168,26952,1,0,0:0:0:0:
291,70,27102,1,0,0:0:0:0:
287,179,27252,1,0,0:0:0:0:
371,78,27402,5,0,0:0:0:0:
368,194,27552,1,0,0:0:0:0:
443,89,27702,1,0,0:0:0:0:
449,205,27852,1,0,0:0:0:0:
410,301,28002,5,0,0:0:0:0:
375,291,28077,1,0,0:0:0:0:
337,279,28152,1,0,0:0:0:0:
306,267,28227,1,0,0:0:0:0:
276,255,28302,1,0,0:0:0:0:
268,57,28602,5,0,0:0:0:0:
195,174,28752,1,0,0:0:0:0:
311,110,28902,1,0,0:0:0:0:
199,101,29052,1,0,0:0:0:0:
296,179,29202,1,0,0:0:0:0:
268,57,29352,1,0,0:0:0:0:
246,233,29502,1,0,0:0:0:0:
108,91,29802,6,0,P|75:163|103:277,1,170
273,93,30402,2,0,P|309:161|275:281,1,170
88,316,31002,2,0,P|178:344|271:313,1,170
260,55,31602,2,0,P|170:27|84:73,1,170
178,213,32202,1,0,0:0:0:0:
405,108,32502,5,0,0:0:0:0:
288,92,32652,1,0,0:0:0:0:
375,207,32802,1,0,0:0:0:0:
357,48,32952,1,0,0:0:0:0:
296,202,33102,1,0,0:0:0:0:
80,222,33402,5,0,0:0:0:0:
154,165,33552,1,0,0:0:0:0:
154,262,33702,1,0,0:0:0:0:
87,172,33852,1,0,0:0:0:0:
200,218,34002,5,0,0:0:0:0:
99,272,34152,1,0,0:0:0:0:
147,153,34302,1,0,0:0:0:0:
255,109,34602,6,0,L|255:5,2,85
255,317,35202,2,0,L|255:217,2,85
109,321,35802,5,0,0:0:0:0:
221,277,35952,1,0,0:0:0:0:
106,234,36102,1,0,0:0:0:0:
219,192,36252,1,0,0:0:0:0:
101,144,36402,5,0,0:0:0:0:
219,103,36552,1,0,0:0:0:0:
99,53,36702,1,0,0:0:0:0:
228,17,36852,1,0,0:0:0:0:
99,53,37002,5,0,0:0:0:0:
219,103,37152,1,0,0:0:0:0:
101,144,37302,1,0,0:0:0:0:
219,192,37452,1,0,0:0:0:0:
106,234,37602,5,0,0:0:0:0:
121,253,37677,1,0,0:0:0:0:
137,273,37752,1,0,0:0:0:0:
153,296,37827,1,0,0:0:0:0:
170,316,37902,1,0,0:0:0:0:
322,353,38202,5,0,0:0:0:0:
413,312,38352,1,0,0:0:0:0:
318,244,38502,1,0,0:0:0:0:
299,293,38652,1,0,0:0:0:0:
378,359,38802,1,0,0:0:0:0:
377,252,38952,1,0,0:0:0:0:
322,353,39102,1,0,0:0:0:0:
153,325,39402,5,0,0:0:0:0:
185,205,39702,1,0,0:0:0:0:
153,325,40002,1,0,0:0:0:0:
72,87,40302,6,0,P|113:81|168:126,1,85
190,165,40602,1,0,0:0:0:0:
228,232,40752,1,0,0:0:0:0:
316,227,40902,6,0,P|365:187|370:142,1,85
369,84,41202,1,0,0:0:0:0:
289,37,41352,1,0,0:0:0:0:
209,44,41502,6,0,P|164:63|140:92,1,85
128,112,41727,1,0,0:0:0:0:
116,132,41802,1,0,0:0:0:0:
110,155,41877,1,0,0:0:0:0:
107,174,41952,1,0,0:0:0:0:
126,269,42102,1,0,0:0:0:0:
233,308,42252,1,0,0:0:0:0:
231,107,42552,2,0,B|157:105|246:228|150:352,1,255
41,237,43302,5,0,0:0:0:0:
104,312,43452,2,0,L|132:343,2,42.5
129,144,44052,5,0,0:0:0:0:
204,104,44202,1,0,0:0:0:0:
268,159,44352,1,0,0:0:0:0:
209,224,44502,2,0,L|171:259,2,42.5
268,159,44952,1,0,0:0:0:0:
344,111,45102,2,0,P|379:99|424:124,1,85
472,245,45702,1,0,0:0:0:0:
295,306,46002,1,0,0:0:0:0:
214,333,46152,2,0,P|206:285|227:253,1,85
325,196,46602,2,0,L|275:193,1,42.5
169,203,46902,5,0,0:0:0:0:
183,119,47052,1,0,0:0:0:0:
270,91,47202,1,0,0:0:0:0:
330,161,47352,2,0,P|360:177|344:156,1,85
395,49,47802,2,0,L|438:71,1,42.5
499,145,48102,1,0,0:0:0:0:
470,232,48252,1,0,0:0:0:0:
381,256,48402,1,0,0:0:0:0:
295,221,48552,2,0,L|256:192,1,42.5
191,122,48852,5,0,0:0:0:0:
39,135,49002,1,0,0:0:0:0:
123,14,49152,1,0,0:0:0:0:
127,176,49302,1,0,0:0:0:0:
31,44,49452,1,0,0:0:0:0:
186,52,49602,2,0,L|230:54,3,42.5
340,58,50202,2,0,P|366:71|368:87,1,42.5
375,187,50502,5,0,0:0:0:0:
320,257,50652,1,0,0:0:0:0:
207,255,50802,1,0,0:0:0:0:
104,253,50952,2,0,L|78:288,2,42.5
52,99,51552,1,0,0:0:0:0:
138,39,51702,1,0,0:0:0:0:
142,146,51852,1,0,0:0:0:0:
312,59,52152,2,0,P|363:73|385:106,1,85
419,187,52602,5,0,0:0:0:0:
309,230,52752,1,0,0:0:0:0:
199,278,52902,2,0,L|152:294,2,42.5
309,230,53352,1,0,0:0:0:0:
283,67,53652,5,0,0:0:0:0:
183,101,53802,1,0,0:0:0:0:
89,134,53952,1,0,0:0:0:0:
108,229,54102,2,0,P|105:257|116:274,1,42.5
191,353,54402,1,0,0:0:0:0:
283,303,54552,1,0,0:0:0:0:
370,236,54702,6,0,L|366:182,1,42.5
271,107,55002,2,0,L|274:157,1,42.5
278,258,55302,1,0,0:0:0:0:
178,300,55452,1,0,0:0:0:0:
74,335,55602,1,0,0:0:0:0:
74,215,55752,2,0,L|71:122,2,85
72,314,56502,5,0,0:0:0:0:
172,289,56652,1,0,0:0:0:0:
161,199,56802,1,0,0:0:0:0:
61,194,56952,2,0,P|65:152|96:119,1,85
195,61,57402,5,0,0:0:0:0:
296,58,57552,1,0,0:0:0:0:
395,60,57702,1,0,0:0:0:0:
348,191,57852,2,0,L|302:191,1,42.5
209,86,58152,2,0,L|263:86,1,42.5
146,196,58452,2,0,L|55:196,1,85
40,315,58902,5,0,0:0:0:0:
145,324,59052,1,0,0:0:0:0:
242,266,59202,1,0,0:0:0:0:
247,363,59352,2,0,P|303:354|325:290,1,127.5
354,226,59952,6,0,L|383:236,2,28.3333333333333
235,166,60402,2,0,L|192:145,1,42.5
72,90,60702,1,0,0:0:0:0:
72,206,60852,1,0,0:0:0:0:
197,319,61152,5,0,0:0:0:0:
383,242,61452,5,0,0:0:0:0:
96,61,61752,6,0,L|96:157,1,85
95,222,62202,6,0,L|146:222,1,42.5
167,163,62502,6,0,P|209:206|196:270,1,127.5
141,230,63102,6,0,P|129:264|180:333,1,127.5
204,268,63702,6,0,P|213:227|163:161,1,127.5
141,230,64302,6,0,B|133:228|15:297|76:197|86:165|86:165|43:121,1,212.5
38,41,65202,5,0,0:0:0:0:
113,22,65352,1,0,0:0:0:0:
170,77,65502,2,0,B|176:126|220:115|127:176|126:205|290:101|266:270,1,255
222,343,66702,6,0,P|266:350|329:222,1,212.5
277,164,67602,1,0,0:0:0:0:
207,127,67752,1,0,0:0:0:0:
275,88,67902,1,0,0:0:0:0:
354,88,68202,6,0,L|403:88,1,42.5
398,153,68502,2,0,L|349:153,1,42.5
356,221,68802,2,0,L|403:221,1,42.5
404,285,69102,2,0,L|276:285,2,127.5
479,287,70152,1,0,0:0:0:0:
473,207,70302,2,0,P|464:164|428:149,1,85
272,133,70902,5,0,0:0:0:0:
151,195,71202,5,0,0:0:0:0:
94,90,71502,5,0,0:0:0:0:
275,60,72152,6,0,L|360:41,2,85
94,90,73302,5,0,0:0:0:0:
129,240,73602,1,0,0:0:0:0:
250,142,73902,2,0,P|299:155|322:191,1,85
335,265,74502,2,0,L|375:242,2,42.5
256,266,75102,2,0,P|263:314|295:341,1,85
331,275,75702,5,0,0:0:0:0:
258,61,76002,2,0,L|297:26,2,42.5
92,98,76602,1,0,0:0:0:0:
128,284,76902,5,0,0:0:0:0:
82,183,77052,1,0,0:0:0:0:
192,189,77202,1,0,0:0:0:0:
62,257,77352,1,0,0:0:0:0:
214,256,77502,5,0,0:0:0:0:
141,129,77652,1,0,0:0:0:0:
128,284,77802,1,0,0:0:0:0:
40,209,77952,1,0,0:0:0:0:
246,209,78102,5,0,0:0:0:0:
53,146,78252,1,0,0:0:0:0:
235,120,78402,5,0,0:0:0:0:
77,43,78552,1,0,0:0:0:0:
221,208,78702,6,0,P|171:196|155:163,1,85
217,140,79152,6,0,P|228:115|287:91,1,85
285,160,79602,6,0,P|299:199|337:223,1,85
349,159,80052,6,0,P|399:199|398:225,1,85
334,222,80502,6,0,B|339:262|249:310|245:224|245:224|184:270|190:338|64:226,1,354.166666666667
50,111,81102,6,0,P|87:85|137:87,1,85
200,100,81402,2,0,P|185:138|146:163,1,72.2500013780594
133,245,81702,2,0,P|134:279|162:320,1,72.2500013780594
208,361,82002,1,0,0:0:0:0:
240,286,82152,6,0,B|264:310|264:310|338:303,1,89.2499972763062
290,239,82452,2,0,P|287:202|266:160,1,72.2500013780594
176,162,82752,2,0,P|184:128|226:102,1,72.2500013780594
316,103,83052,1,0,0:0:0:0:
324,35,83202,6,0,P|366:47|384:85,1,72.2500013780594
381,160,83502,2,0,P|381:205|393:230,1,72.2500013780594
464,266,83802,2,0,P|447:297|402:305,1,72.2500013780594
312,290,84102,1,0,0:0:0:0:
105,259,84402,1,0,0:0:0:0:
50,176,84552,2,0,P|84:163|130:168,1,72.2500013780594
204,223,84852,1,0,0:0:0:0:
204,109,85002,1,0,0:0:0:0:
373,78,85302,6,0,P|401:93|416:150,1,72.2500013780594
419,223,85602,1,0,0:0:0:0:
322,271,85752,1,0,0:0:0:0:
251,206,85902,2,0,P|232:173|247:125,1,72.2500013780594
329,151,86202,1,0,0:0:0:0:
323,57,86502,6,0,L|245:46,1,72.2500013780594
154,31,86802,1,0,0:0:0:0:
232,126,86952,2,0,L|316:138,1,72.2500013780594
395,153,87252,1,0,0:0:0:0:
377,249,87402,1,0,0:0:0:0:
419,325,87552,2,0,P|383:340|341:324,1,72.2500013780594
264,283,87852,5,0,0:0:0:0:
194,204,88002,1,0,0:0:0:0:
269,146,88152,1,0,0:0:0:0:
203,61,88302,2,0,L|135:94,1,72.2500013780594
34,155,88602,1,0,0:0:0:0:
126,289,88902,2,0,L|177:346,2,72.2500013780594
80,212,89352,2,0,P|88:142|225:133,1,216.750004134178
187,278,90102,5,0,0:0:0:0:
218,263,90177,1,0,0:0:0:0:
249,262,90252,1,0,0:0:0:0:
279,274,90327,1,0,0:0:0:0:
296,298,90402,1,0,0:0:0:0:
437,239,90702,6,0,L|428:136,1,93.5000028533936
420,73,91002,2,0,P|386:85|363:121,2,72.2500013780594
439,229,91602,5,0,0:0:0:0:
478,291,91752,2,0,P|443:307|388:278,1,93.5000028533936
327,254,92052,1,0,0:0:0:0:
364,166,92202,1,0,0:0:0:0:
321,93,92352,2,0,P|288:123|281:164,1,72.2500013780594
259,243,92652,1,0,0:0:0:0:
176,219,92802,6,0,L|108:196,3,72.2500013780594
35,137,93402,2,0,P|47:97|82:70,1,72.2500013780594
160,53,93702,2,0,P|190:68|219:109,1,72.2500013780594
244,178,94002,1,0,0:0:0:0:
314,261,94152,2,0,B|375:266|339:148|339:148|375:79|478:164,1,280.500008560181
158,113,94902,6,0,L|247:121,2,72.2500013780594
220,278,95502,2,0,P|185:293|143:271,1,72.2500013780594
94,210,95802,1,0,0:0:0:0:
168,93,96102,1,0,0:0:0:0:
293,170,96402,1,0,0:0:0:0:
324,101,96552,2,0,B|387:88|374:141|374:141|406:185|451:126,1,161.499995687485
471,81,97002,2,0,P|484:40|450:7,2,72.2500013780594
434,205,97602,1,0,0:0:0:0:
230,244,97902,2,0,B|253:181|253:181|211:148|211:148|216:103,1,144.500002756119
379,130,98502,2,0,B|391:173|391:173|374:273,3,144.500002756119
88,308,99852,5,0,0:0:0:0:
20,209,100002,1,0,0:0:0:0:
130,206,100152,1,0,0:0:0:0:
131,95,100302,2,0,L|214:94,1,72.2500013780594
224,215,100602,1,0,0:0:0:0:
270,138,100752,2,0,P|280:147|299:268,1,144.500002756119
221,351,101202,1,0,0:0:0:0:
145,320,101352,2,0,P|173:285|203:276,1,72.2500013780594
298,268,101652,5,0,0:0:0:0:
228,171,101802,1,0,0:0:0:0:
72,230,101952,5,0,0:0:0:0:
229,282,102102,1,0,0:0:0:0:
126,134,102252,5,0,0:0:0:0:
145,320,102402,1,0,0:0:0:0:
158,220,102552,1,0,0:0:0:0:
192,95,102702,2,0,P|229:84|281:101,1,72.2500013780594
332,164,103002,1,0,0:0:0:0:
384,239,103152,2,0,P|416:168|393:101,1,144.500002756119
314,32,103602,1,0,0:0:0:0:
227,48,103752,2,0,L|181:106,1,72.2500013780594
85,173,104052,5,0,0:0:0:0:
178,239,104202,1,0,0:0:0:0:
287,134,104352,5,0,0:0:0:0:
307,290,104502,1,0,0:0:0:0:
412,166,104652,5,0,0:0:0:0:
462,337,104802,1,0,0:0:0:0:
394,255,104952,1,0,0:0:0:0:
326,195,105102,2,0,P|320:173|338:118,1,72.2500013780594
374,60,105402,1,0,0:0:0:0:
278,32,105552,2,0,B|247:55|247:55|200:31|200:31|133:63,1,144.500002756119
72,94,106002,1,0,0:0:0:0:
130,158,106152,2,0,P|165:183|205:169,1,72.2500013780594
286,139,106452,5,0,0:0:0:0:
173,75,106602,1,0,0:0:0:0:
6,221,106752,5,0,0:0:0:0:
244,189,106902,1,0,0:0:0:0:
72,79,107052,5,0,0:0:0:0:
125,256,107202,1,0,0:0:0:0:
206,295,107352,1,0,0:0:0:0:
292,297,107502,2,0,P|327:283|346:243,1,72.2500013780594
308,191,107802,2,0,P|349:174|389:183,2,72.2500013780594
206,295,108402,6,0,P|170:296|138:281,2,72.2500013780594
286,256,108852,5,0,0:0:0:0:
203,64,109002,1,0,0:0:0:0:
60,236,109152,5,0,0:0:0:0:
332,123,109302,1,0,0:0:0:0:
62,105,109452,5,0,0:0:0:0:
354,265,109602,1,0,0:0:0:0:
239,286,109752,1,0,0:0:0:0:
160,284,109902,2,0,P|180:232|210:227,1,72.2500013780594
268,196,110202,1,0,0:0:0:0:
201,119,110352,2,0,B|134:143|134:143|112:228|112:228|50:263,1,216.750004134178
61,351,110952,2,0,L|141:310,1,72.2500013780594
204,265,111252,5,0,0:0:0:0:
43,181,111402,1,0,0:0:0:0:
294,181,111552,5,0,0:0:0:0:
80,85,111702,1,0,0:0:0:0:
332,76,111852,5,0,0:0:0:0:
121,12,112002,1,0,0:0:0:0:
186,87,112152,1,0,0:0:0:0:
233,181,112302,2,0,P|257:205|261:253,1,72.2500013780594
255,337,112602,1,0,0:0:0:0:
174,297,112752,2,0,B|135:255|135:255|149:191|149:191|124:159,1,144.500002756119
62,92,113202,1,0,0:0:0:0:
143,28,113352,2,0,P|173:24|213:43,1,72.2500013780594
323,345,113652,5,0,0:0:0:0:
125,324,113802,1,0,0:0:0:0:
338,195,113952,5,0,0:0:0:0:
128,184,114102,1,0,0:0:0:0:
227,366,114252,5,0,0:0:0:0:
235,145,114402,1,0,0:0:0:0:
289,58,114552,5,0,0:0:0:0:
384,52,114702,1,0,0:0:0:0:
458,108,114852,1,0,0:0:0:0:
462,202,115002,1,0,0:0:0:0:
393,242,115152,2,0,B|367:311|367:311|314:306|294:357,1,144.500002756119
189,334,115602,1,0,0:0:0:0:
156,231,115752,2,0,P|189:198|223:196,1,72.2500013780594
297,241,116052,1,0,0:0:0:0:
223,113,116202,1,0,0:0:0:0:
85,176,116352,1,0,0:0:0:0:
131,57,116502,6,0,P|168:26|200:26,2,72.2500013780594
192,99,116952,6,0,L|204:179,1,72.2500013780594
414,241,117402,6,0,L|414:328,1,72.2500013780594
304,348,117702,1,0,0:0:0:0:
250,279,117852,1,0,0:0:0:0:
189,211,118002,1,0,0:0:0:0:
104,179,118152,2,0,P|85:245|141:302,1,144.500002756119
204,341,118752,1,0,0:0:0:0:
204,341,118902,1,0,0:0:0:0:
105,135,138252,5,0,0:0:0:0:
138,222,138402,1,0,0:0:0:0:
239,224,138552,1,0,0:0:0:0:
190,149,138702,2,0,P|226:133|272:151,1,72.2500013780594
338,188,139002,1,0,0:0:0:0:
320,266,139152,2,0,B|371:282|371:282|425:204|425:204,1,144.500002756119
449,136,139602,1,0,0:0:0:0:
414,37,139752,2,0,B|339:85|339:85|392:167|327:211,1,216.750004134178
89,112,140652,5,0,0:0:0:0:
169,70,140802,1,0,0:0:0:0:
232,142,140952,1,0,0:0:0:0:
172,200,141102,2,0,P|192:224|242:223,1,72.2500013780594
314,189,141402,1,0,0:0:0:0:
343,263,141552,2,0,P|392:197|369:129,1,144.500002756119
299,85,142002,1,0,0:0:0:0:
226,124,142152,2,0,B|185:201|185:201|113:201|113:201|126:241|99:260,1,216.750004134178
373,71,143052,5,0,0:0:0:0:
287,61,143202,1,0,0:0:0:0:
314,147,143352,1,0,0:0:0:0:
385,161,143502,2,0,P|373:200|335:223,1,72.2500013780594
270,252,143802,1,0,0:0:0:0:
189,247,143952,2,0,B|181:180|235:179|235:179|242:109,1,144.500002756119
156,121,144402,2,0,L|138:44,4,72.2500013780594
50,279,145452,5,0,0:0:0:0:
131,335,145602,1,0,0:0:0:0:
201,265,145752,1,0,0:0:0:0:
267,301,145902,2,0,P|279:269|260:215,1,72.2500013780594
218,167,146202,1,0,0:0:0:0:
138,214,146352,2,0,P|122:141|169:78,1,144.500002756119
244,44,146802,1,0,0:0:0:0:
352,45,146952,2,0,B|359:127|359:127|316:176|316:176|329:247,1,216.750004134178
353,354,147852,5,0,0:0:0:0:
256,315,148002,1,0,0:0:0:0:
241,224,148152,1,0,0:0:0:0:
193,165,148302,2,0,P|225:150|280:162,1,72.2500013780594
344,182,148602,1,0,0:0:0:0:
381,100,148752,2,0,B|300:103|300:103|252:155,1,144.500002756119
223,238,149202,1,0,0:0:0:0:
114,260,149352,2,0,B|190:318|190:318|332:319,1,216.750004134178
37,224,150252,5,0,0:0:0:0:
111,229,150402,1,0,0:0:0:0:
176,188,150552,1,0,0:0:0:0:
237,143,150702,2,0,P|254:192|241:218,1,72.2500013780594
206,293,151002,1,0,0:0:0:0:
296,278,151152,2,0,B|369:256|369:256|414:181,1,144.500002756119
443,102,151602,1,0,0:0:0:0:
394,46,151752,2,0,B|326:87|374:126|371:153|371:153|374:169|360:236|312:226,1,216.750004134178
130,264,152652,5,0,0:0:0:0:
163,176,152802,1,0,0:0:0:0:
242,233,152952,1,0,0:0:0:0:
215,301,153102,2,0,P|256:311|292:288,2,72.2500013780594
352,338,153552,2,0,P|358:271|291:210,1,144.500002756119
204,184,154002,1,0,0:0:0:0:
167,96,154152,2,0,B|205:60|276:78|276:78|293:131|293:131|360:141,1,216.750004134178
147,236,154902,6,0,L|188:310,3,72.2500013780594
380,155,155802,5,0,0:0:0:0:
282,271,156102,5,0,0:0:0:0:
176,179,156402,5,0,0:0:0:0:
286,109,156702,5,0,0:0:0:0:
366,216,157002,5,0,0:0:0:0:
256,325,157302,5,0,0:0:0:0:
236,299,157377,1,0,0:0:0:0:
219,275,157452,1,0,0:0:0:0:
202,248,157527,1,0,0:0:0:0:
187,225,157602,1,0,0:0:0:0:
174,201,157677,1,0,0:0:0:0:
161,179,157752,1,0,0:0:0:0:
121,44,158202,5,0,0:0:0:0:
227,108,158502,5,0,0:0:0:0:
247,134,158577,1,0,0:0:0:0:
264,158,158652,1,0,0:0:0:0:
281,185,158727,1,0,0:0:0:0:
296,208,158802,1,0,0:0:0:0:
309,232,158877,1,0,0:0:0:0:
322,254,158952,1,0,0:0:0:0:
207,109,159402,5,0,0:0:0:0:
67,99,159702,1,0,0:0:0:0:
64,186,159852,2,0,P|100:209|142:202,2,72.2500013780594
365,68,160602,5,0,0:0:0:0:
404,231,160902,5,0,0:0:0:0:
400,204,160977,1,0,0:0:0:0:
369,188,161052,1,0,0:0:0:0:
339,188,161127,1,0,0:0:0:0:
319,201,161202,1,0,0:0:0:0:
316,222,161277,1,0,0:0:0:0:
316,238,161352,1,0,0:0:0:0:
252,61,161802,5,0,0:0:0:0:
139,244,162102,1,0,0:0:0:0:
95,322,162252,2,0,P|131:336|177:320,2,72.2500013780594
309,213,163002,5,0,0:0:0:0:
152,42,163302,5,0,0:0:0:0:
180,56,163377,1,0,0:0:0:0:
197,83,163452,1,0,0:0:0:0:
193,118,163527,1,0,0:0:0:0:
167,144,163602,1,0,0:0:0:0:
131,141,163677,1,0,0:0:0:0:
106,117,163752,1,0,0:0:0:0:
396,170,164202,5,0,0:0:0:0:
241,270,164502,1,0,0:0:0:0:
176,308,164652,2,0,B|164:275|164:275|171:226,2,72.2500013780594
85,197,165402,1,0,0:0:0:0:
253,191,165702,5,0,0:0:0:0:
315,256,165852,5,0,0:0:0:0:
340,232,165927,1,0,0:0:0:0:
376,229,166002,1,0,0:0:0:0:
402,255,166077,1,0,0:0:0:0:
406,290,166152,1,0,0:0:0:0:
389,317,166227,1,0,0:0:0:0:
361,331,166302,1,0,0:0:0:0:
263,345,166452,5,0,0:0:0:0:
216,253,166602,1,0,0:0:0:0:
145,324,166752,1,0,0:0:0:0:
104,227,166902,1,0,0:0:0:0:
180,87,167152,1,0,0:0:0:0:
271,138,167352,1,0,0:0:0:0:
383,89,167502,6,0,B|419:130|435:296|295:392|123:361|103:142|165:72|251:66|408:49|469:225|303:391|135:379|95:122,1,935.000035667421
95,108,168702,6,0,B|97:57|97:57|132:17,1,85
194,36,169002,2,0,L|266:42,1,72.2500013780594
254,134,169302,2,0,L|177:127,1,72.2500013780594
179,203,169602,1,0,0:0:0:0:
116,144,169752,6,0,P|94:188|111:246,1,85
142,289,170052,2,0,P|182:307|226:291,1,72.2500013780594
180,220,170352,2,0,P|197:178|237:154,1,72.2500013780594
288,138,170652,1,0,0:0:0:0:
349,211,170802,5,0,0:0:0:0:
403,134,170952,1,0,0:0:0:0:
402,58,171102,2,0,P|360:66|333:105,1,72.2500013780594
291,196,171402,1,0,0:0:0:0:
332,330,171702,2,0,P|373:348|417:338,1,72.2500013780594
385,263,172002,1,0,0:0:0:0:
413,173,172152,2,0,B|325:172|325:172|300:216|300:216|245:185|245:185|255:153,1,216.750004134178
223,97,172902,6,0,P|190:120|172:163,1,72.2500013780594
172,242,173202,1,0,0:0:0:0:
254,190,173352,1,0,0:0:0:0:
321,121,173502,2,0,P|347:139|363:198,1,72.2500013780594
320,240,173802,2,0,P|360:261|396:255,1,72.2500013780594
452,187,174102,1,0,0:0:0:0:
312,53,174402,5,0,0:0:0:0:
194,67,174552,2,0,P|167:97|166:146,1,72.2500013780594
189,204,174852,1,0,0:0:0:0:
237,126,175002,1,0,0:0:0:0:
272,188,175152,2,0,P|292:173|308:123,2,72.2500013780594
205,250,175602,1,0,0:0:0:0:
297,286,175752,1,0,0:0:0:0:
366,329,175902,2,0,P|377:283|362:252,1,72.2500013780594
388,116,176202,6,0,L|334:173,1,72.2500013780594
255,178,176502,2,0,P|266:209|310:243,2,72.2500013780594
170,131,176952,2,0,B|210:70|210:70|296:110|347:51,1,216.750004134178
217,70,177702,5,0,0:0:0:0:
220,94,177777,1,0,0:0:0:0:
223,119,177852,1,0,0:0:0:0:
224,145,177927,1,0,0:0:0:0:
225,165,178002,2,0,P|232:194|325:252,1,144.500002756119
354,126,178602,6,0,L|399:67,1,72.2500013780594
320,21,178902,2,0,L|267:83,1,72.2500013780594
208,149,179202,1,0,0:0:0:0:
129,167,179352,6,0,P|146:206|205:228,1,85
271,330,179652,2,0,P|270:290|247:269,1,72.2500013780594
258,183,179952,2,0,P|309:165|395:191,1,144.500002756119
392,267,180402,2,0,P|436:258|460:235,1,72.2500013780594
399,47,180702,2,0,P|385:110|395:196,2,144.500002756119
477,160,181602,5,0,0:0:0:0:
461,245,181752,2,0,P|460:316|362:348,1,178.499994552612
308,309,182202,6,0,P|342:280|381:287,1,72.2500013780594
407,144,182502,2,0,P|384:191|399:221,1,72.2500013780594
448,290,182802,1,0,0:0:0:0:
206,298,183102,6,0,P|239:290|257:249,1,72.2500013780594
229,169,183402,1,0,0:0:0:0:
364,73,183702,1,0,0:0:0:0:
387,243,184002,5,0,0:0:0:0:
342,302,184152,2,0,P|315:261|341:188,1,120.416668963432
400,135,184602,1,0,0:0:0:0:
291,80,184902,2,0,P|246:45|161:75,3,144.500002756119
170,173,186102,2,0,P|235:211|304:180,1,144.500002756119
200,44,186702,5,0,0:0:0:0:
127,89,186852,1,0,0:0:0:0:
94,166,187002,1,0,0:0:0:0:
44,229,187152,2,0,P|69:247|115:243,1,72.2500013780594
190,197,187452,5,0,0:0:0:0:
277,207,187602,1,0,0:0:0:0:
320,290,187752,1,0,0:0:0:0:
396,333,187902,2,0,P|407:304|389:258,1,72.2500013780594
355,196,188202,5,0,0:0:0:0:
290,149,188352,2,0,P|274:214|312:284,1,144.500002756119
325,338,188802,1,0,0:0:0:0:
231,334,188952,2,0,L|153:332,1,72.2500013780594
54,332,189252,5,0,0:0:0:0:
244,129,189402,1,0,0:0:0:0:
454,351,189552,5,0,0:0:0:0:
447,34,189702,1,0,0:0:0:0:
97,106,189852,6,0,L|42:36,3,72.2500013780594
40,190,190602,5,0,0:0:0:0:
98,260,190752,2,0,P|164:283|252:262,1,144.500002756119
317,214,191202,5,0,0:0:0:0:
267,97,191352,2,0,P|261:143|275:168,1,72.2500013780594
331,280,191652,5,0,0:0:0:0:
61,323,191802,1,0,0:0:0:0:
80,65,191952,5,0,0:0:0:0:
309,50,192102,1,0,0:0:0:0:
180,229,192252,5,0,0:0:0:0:
240,296,192402,1,0,0:0:0:0:
316,216,192552,5,0,0:0:0:0:
319,128,192702,2,0,P|357:129|394:164,1,72.2500013780594
438,229,193002,1,0,0:0:0:0:
381,316,193152,2,0,P|300:273|284:222,1,144.500002756119
291,147,193602,1,0,0:0:0:0:
284,62,193752,2,0,P|323:69|371:87,1,72.2500013780594
453,174,194052,5,0,0:0:0:0:
146,254,194202,1,0,0:0:0:0:
427,103,194352,5,0,0:0:0:0:
137,179,194502,1,0,0:0:0:0:
390,49,194652,5,0,0:0:0:0:
122,112,194802,1,0,0:0:0:0:
278,198,194952,5,0,0:0:0:0:
277,289,195102,2,0,P|324:270|345:251,1,72.2500013780594
387,189,195402,1,0,0:0:0:0:
376,118,195552,2,0,P|312:197|328:232,1,144.500002756119
401,298,196002,1,0,0:0:0:0:
317,319,196152,2,0,L|239:323,1,72.2500013780594
100,270,196452,5,0,0:0:0:0:
103,60,196602,1,0,0:0:0:0:
229,250,196752,5,0,0:0:0:0:
206,43,196902,1,0,0:0:0:0:
329,242,197052,5,0,0:0:0:0:
315,33,197202,1,0,0:0:0:0:
436,230,197352,5,0,0:0:0:0:
437,138,197502,2,0,P|444:99|418:60,1,72.2500013780594
343,28,197802,1,0,0:0:0:0:
362,112,197952,2,0,P|319:157|231:192,1,144.500002756119
156,212,198402,1,0,0:0:0:0:
82,184,198552,2,0,P|104:152|147:138,1,72.2500013780594
121,65,198852,5,0,0:0:0:0:
488,119,199002,1,0,0:0:0:0:
113,173,199152,5,0,0:0:0:0:
485,44,199302,1,0,0:0:0:0:
114,119,199452,5,0,0:0:0:0:
487,182,199602,1,0,0:0:0:0:
388,165,199752,5,0,0:0:0:0:
307,147,199902,2,0,P|317:126|360:97,1,72.2500013780594
438,85,200202,1,0,0:0:0:0:
445,155,200352,2,0,P|437:180|473:222,5,72.2500013780594
479,37,201252,5,0,0:0:0:0:
197,42,201402,1,0,0:0:0:0:
198,352,201552,5,0,0:0:0:0:
484,348,201702,1,0,0:0:0:0:
494,67,201852,5,0,0:0:0:0:
196,60,202002,1,0,0:0:0:0:
198,352,202152,5,0,0:0:0:0:
186,255,202302,2,0,P|212:220|247:208,1,72.2500013780594
265,285,202602,1,0,0:0:0:0:
325,350,202752,2,0,P|352:281|322:200,1,144.500002756119
274,110,203202,1,0,0:0:0:0:
201,53,203352,2,0,P|221:34|277:31,1,72.2500013780594
389,68,203652,5,0,0:0:0:0:
130,202,203802,1,0,0:0:0:0:
398,297,203952,5,0,0:0:0:0:
134,197,204102,1,0,0:0:0:0:
389,68,204252,5,0,0:0:0:0:
398,297,204402,1,0,0:0:0:0:
308,238,204552,6,0,P|312:277|286:317,1,72.2500013780594
178,336,205002,6,0,P|195:301|229:276,1,72.2500013780594
328,226,205302,1,0,0:0:0:0:
388,140,205452,1,0,0:0:0:0:
314,92,205602,1,0,0:0:0:0:
237,120,205752,2,0,P|142:131|95:93,1,144.500002756119
65,250,206352,1,0,0:0:0:0:
65,250,206502,1,0,0:0:0:0:
256,192,223102,12,0,232302,0:0:0:0:
