osu file format v14

[General]
AudioFilename: audio.mp3
AudioLeadIn: 0
PreviewTime: 150482
Countdown: 0
SampleSet: Soft
StackLeniency: 0.7
Mode: 0
LetterboxInBreaks: 0
WidescreenStoryboard: 1

[Editor]
Bookmarks: 113274,125742
DistanceSpacing: 1.07
BeatDivisor: 4
GridSize: 4
TimelineZoom: 1.500001

[Metadata]
Title:Nada valgo sin tu amor
TitleUnicode:Nada valgo sin tu amor
Artist:Juanes
ArtistUnicode:Juanes
Creator:Krisom
Version:Intermedio
Source:
Tags:EspaƱol Spanish Pop Rock Alternative Mi Sangre Colombia
BeatmapID:3933508
BeatmapSetID:1907523

[Difficulty]
HPDrainRate:4.1
CircleSize:3.5
OverallDifficulty:4.6
ApproachRate:5.5
SliderMultiplier:1.4
SliderTickRate:1

[Events]
//Background and Video events
0,0,"JUANES.jpg",0,0
//Break Periods
2,113474,123808
//Storyboard Layer 0 (Background)
//Storyboard Layer 1 (Fail)
//Storyboard Layer 2 (Pass)
//Storyboard Layer 3 (Foreground)
//Storyboard Layer 4 (Overlay)
//Storyboard Sound Samples

[TimingPoints]
-11399,779.220779220779,4,2,1,60,1,0
31653,-100,4,2,1,5,0,0
31945,-100,4,2,1,60,0,0
37497,-83.3333333333333,4,2,1,60,0,0
38276,-76.9230769230769,4,2,1,60,0,0
72756,389.61038961039,4,2,1,60,1,0
72756,-142.857142857143,4,2,1,60,0,0
73340,-125,4,2,1,60,0,0
74119,-111.111111111111,4,2,1,60,0,0
74898,-100,4,2,1,60,0,0
75872,389.61038961039,4,2,1,60,1,1
75872,-100,4,2,1,60,0,1
100807,779.220779220779,4,2,1,60,1,0
100807,-50,4,2,1,60,0,0
101001,-58.8235294117647,4,2,1,60,0,0
102949,-66.6666666666667,4,2,1,60,0,0
105482,-71.4285714285714,4,2,1,60,0,0
107040,-76.9230769230769,4,2,1,60,0,0
147560,389.61038961039,4,2,1,60,1,0
147560,-142.857142857143,4,2,1,60,0,0
148144,-125,4,2,1,60,0,0
148923,-111.111111111111,4,2,1,60,0,0
149702,-100,4,2,1,60,0,0
150676,389.61038961039,4,2,1,60,1,1
150676,-100,4,2,1,60,0,1
175611,779.220779220779,4,2,1,60,1,0
175611,-58.8235294117647,4,2,1,60,0,0
176195,-62.5,4,2,1,60,0,0
176974,-66.6666666666667,4,2,1,60,0,0
178533,-71.4285714285714,4,2,1,60,0,0
180091,-76.9230769230769,4,2,1,60,0,0
184961,761.904761904762,4,2,1,60,1,0
185722,784.313725490196,4,2,1,60,1,0
186506,845.070422535211,4,2,1,60,1,0
186525,-125,4,2,1,60,0,0
187351,960,4,2,1,60,1,0
188311,960,4,2,1,60,1,0
188583,-100,4,2,1,50,0,0
189333,-100,4,2,1,45,0,0
190083,-100,4,2,1,40,0,0
190833,-100,4,2,1,35,0,0
191583,-100,4,2,1,25,0,0
192333,-100,4,2,1,15,0,0
193083,-100,4,2,1,5,0,0

[Colours]
Combo1 : 208,24,248
Combo2 : 150,12,233

[HitObjects]
46,115,1068,6,0,P|94:101|127:110,1,70,8|0,0:0|0:0,0:0:0:0:
202,135,1848,1,0,3:0:0:0:
258,315,2627,2,0,P|265:269|294:248,1,70,10|0,0:0|0:0,0:0:0:0:
374,238,3406,1,0,0:0:0:0:
490,89,4185,2,0,B|470:70|439:81|403:94|382:79,1,105,8|2,0:0|0:0,0:0:0:0:
254,34,5354,2,2,B|201:39|225:102|180:96|169:132|121:74|80:125,1,210,0|0,0:0|3:0,0:0:0:0:
39,211,6913,1,2,0:0:0:0:
55,303,7302,6,0,P|93:284|132:301,1,70,8|0,0:0|0:0,0:0:0:0:
196,343,8081,1,0,3:0:0:0:
384,326,8861,2,0,P|409:291|396:246,1,70,10|0,0:0|0:0,0:0:0:0:
375,176,9640,1,0,0:0:0:0:
251,32,10419,2,0,L|170:53,1,70,8|0,0:0|0:0,0:0:0:0:
135,48,11003,1,0,0:0:0:0:
110,88,11198,2,0,P|144:95|173:141,1,70,8|0,0:0|0:0,0:0:0:0:
178,213,11977,2,0,P|214:200|269:209,1,70,8|0,0:0|0:0,0:0:0:0:
291,213,12562,1,0,0:0:0:0:
338,209,12757,2,0,L|323:279,1,70,8|2,3:2|0:0,0:0:0:0:
408,318,13536,6,0,P|422:278|440:257,1,70,8|0,0:0|0:0,0:0:0:0:
508,192,14315,1,0,3:0:0:0:
438,16,15094,2,0,P|408:39|358:41,1,70,8|0,3:2|0:0,0:0:0:0:
282,31,15874,1,0,0:0:0:0:
93,18,16653,2,0,B|74:38|85:69|98:105|83:126,1,105,8|2,0:0|0:0,0:0:0:0:
32,250,17822,1,0,0:0:0:0:
45,343,18211,2,0,P|87:306|174:317,1,140,8|0,3:2|3:0,0:0:0:0:
255,343,19380,1,2,0:0:0:0:
331,287,19770,6,0,P|293:261|280:235,1,70,8|0,0:0|0:0,0:0:0:0:
300,147,20549,1,0,3:0:0:0:
434,14,21328,2,0,P|391:30|347:27,1,70,8|0,3:2|0:0,0:0:0:0:
273,21,22107,1,0,0:0:0:0:
83,18,22887,2,0,P|114:41|129:70,1,70,8|0,0:0|0:0,0:0:0:0:
127,115,23471,1,0,0:0:0:0:
110,159,23666,2,0,L|190:180,1,70,8|0,0:0|0:0,0:0:0:0:
270,194,24445,2,0,L|341:181,1,70,8|0,0:0|0:0,0:0:0:0:
384,170,25029,1,0,0:0:0:0:
431,173,25224,2,0,P|423:207|434:244,1,70,0|0,3:0|0:0,0:0:0:0:
464,329,26003,5,2,3:0:0:0:
370,312,26393,1,0,0:0:0:0:
277,291,26783,1,0,3:0:0:0:
163,139,27562,1,2,3:0:0:0:
257,122,27952,1,0,0:0:0:0:
350,101,28342,1,0,0:0:0:0:
387,285,29120,2,0,P|339:308|280:303,2,105,2|0|0,3:0|0:0|0:0,0:0:0:0:
406,192,30679,2,0,B|366:163|311:178|316:198|245:216|207:167,1,210
112,230,32237,6,0,P|106:304|144:356,1,140,2|0,3:0|0:0,0:0:0:0:
369,355,33796,2,0,P|407:298|400:230,1,140,2|0,3:0|0:0,0:0:0:0:
385,41,35354,2,0,L|332:115,1,70,2|0,3:0|0:0,0:0:0:0:
258,57,36133,2,0,L|243:131,1,70,0|0,3:0|0:0,0:0:0:0:
150,110,36913,2,0,L|169:194,1,70,4|0,3:0|0:0,0:0:0:0:
73,216,37692,6,0,L|130:293,1,83.9999974365235,8|4,0:1|0:3,0:0:0:0:
204,344,38471,2,0,B|248:368|284:344|284:316|328:292|372:312,1,181.999991668702,4|8,0:0|0:1,0:0:0:0:
468,344,39640,1,2,3:0:0:0:
492,248,40029,2,0,P|468:196|424:176,1,90.9999958343508,4|4,3:0|3:0,0:0:0:0:
356,124,40809,2,0,L|384:76,2,45.4999979171754,8|0|2,0:1|0:0|0:3,0:0:0:0:
276,184,41588,2,0,B|247:192|228:175|233:164|211:147|188:153,1,90.9999958343508,4|2,3:0|0:0,0:0:0:0:
136,72,42367,2,0,B|168:32|224:40|256:12|256:12|288:40|344:32|376:72,1,272.999987503052,8|4,0:1|0:3,0:0:0:0:
424,160,43926,6,0,L|456:192,2,45.4999979171754,8|0|2,0:1|0:0|3:0,0:0:0:0:
324,156,44705,2,0,B|254:144|222:198|222:198|177:194|160:219,1,181.999991668702,4|8,3:0|0:1,0:0:0:0:
84,276,45874,1,2,0:3:0:0:
48,368,46263,2,0,P|96:372|144:352,2,90.9999958343508,4|4|8,0:3|0:3|0:1,0:0:0:0:
84,276,47432,1,0,0:0:0:0:
84,276,47627,2,0,B|64:188|24:220|-52:184|-24:100|36:104|71:138|71:138|88:96|152:68|188:140|144:208|100:180|109:259,1,500.499977088929,2|0,0:0|0:0,0:0:0:0:
201,288,50159,6,0,P|245:313|249:329,2,45.4999979171754,2|0|2,3:3|0:0|0:0,0:0:0:0:
201,201,50939,2,0,P|249:205|300:245,1,90.9999958343508,4|0,3:0|3:0,0:0:0:0:
363,262,51718,2,0,L|380:304,2,45.4999979171754,8|0|2,0:1|0:0|3:0,0:0:0:0:
426,202,52497,1,4,0:3:0:0:
473,129,52887,2,0,B|433:102|384:117|385:136|351:162|299:130,1,181.999991668702,4|2,0:3|0:0,0:0:0:0:
262,99,53861,6,0,P|213:78|166:90,1,90.9999958343508,0|0,3:0|0:0,0:0:0:0:
145,113,54445,1,2,0:0:0:0:
109,88,54640,1,2,0:0:0:0:
38,37,55029,1,0,0:0:0:0:
9,69,55224,1,2,3:0:0:0:
12,171,55614,2,0,P|48:201|92:208,1,90.9999958343508,4|4,3:0|3:0,0:0:0:0:
190,196,56393,6,0,P|203:216|210:241,2,45.4999979171754,8|0|2,0:1|0:0|0:3,0:0:0:0:
126,118,57172,2,0,P|169:96|213:103,1,90.9999958343508,4|0,3:0|3:0,0:0:0:0:
309,87,57951,2,0,P|296:67|289:42,2,45.4999979171754,8|0|2,0:1|0:0|0:3,0:0:0:0:
387,149,58731,1,4,0:3:0:0:
481,116,59120,2,0,B|468:217|468:217|457:301|397:314,1,227.499989585877,4|0,0:3|0:0,0:0:0:0:
300,328,60484,1,0,0:0:0:0:
300,328,60679,2,0,B|300:256|300:256|300:212|300:212|300:180|256:148|212:180|212:212|212:212|212:256|212:256|212:328,1,363.999983337403
112,316,62627,6,0,P|84:336|56:344,2,45.4999979171754,8|8|4,0:1|0:3|0:3,0:0:0:0:
68,228,63406,2,0,P|96:184|140:176,1,90.9999958343508,4|0,0:0|0:0,0:0:0:0:
232,188,64185,2,0,P|220:160|224:140,2,45.4999979171754,8|0|0,0:1|3:0|0:0,0:0:0:0:
324,224,64964,1,2,0:3:0:0:
408,168,65354,2,0,P|384:96|288:64,1,181.999991668702,0|0,3:0|0:0,0:0:0:0:
192,72,66523,2,0,B|152:92|120:84|127:75|92:64|52:84,2,136.499993751526,4|2|0,3:0|0:0|0:0,0:0:0:0:
316,156,68276,2,0,B|316:188|316:188|316:224|256:260|196:224|196:188|196:188|196:156,1,227.499989585877
156,64,69640,5,0,3:0:0:0:
156,64,70419,1,8,0:1:0:0:
356,64,71198,5,0,3:0:0:0:
356,64,71977,1,8,0:1:0:0:
156,64,72757,6,0,L|132:172,1,97.9999970092774,4|0,3:2|3:0,0:0:0:0:
116,280,73535,2,0,P|168:268|220:300,1,112,0|0,3:1|3:0,0:0:0:0:
340,360,74314,2,0,L|392:244,1,125.999996154785,0|0,3:0|3:0,0:0:0:0:
456,104,75093,2,0,P|388:116|328:76,1,140,0|8,3:0|1:0,0:0:0:0:
188,128,75872,5,4,0:0:0:0:
156,196,76067,2,0,P|116:216|84:212,2,70,2|8|8,0:3|1:0|1:0,0:0:0:0:
188,128,76652,2,0,P|256:112|324:128,1,140,4|8,3:0|1:0,0:0:0:0:
436,220,77431,2,0,P|432:288|388:344,1,140,4|8,3:0|1:0,0:0:0:0:
324,308,78015,2,0,B|288:292|256:304|256:312|224:324|188:308,1,140,0|0,1:0|0:0,0:0:0:0:
122,343,78600,2,0,P|80:288|76:220,1,140,8|4,1:0|0:3,0:0:0:0:
103,150,79184,6,0,P|75:118|67:86,2,70,2|8|8,0:3|1:0|1:0,0:0:0:0:
173,175,79768,2,0,B|202:198|193:256|193:256|186:307,1,140,4|8,3:0|1:0,0:0:0:0:
325,307,80548,2,0,B|318:256|318:256|309:198|339:175,1,140,4|8,3:0|1:0,0:0:0:0:
391,123,81132,2,0,P|376:85|294:39,1,140,0|0,1:0|0:0,0:0:0:0:
218,38,81717,2,0,P|154:63|120:123,1,140,8|4,1:0|3:0,0:0:0:0:
80,185,82301,6,0,P|55:169|14:165,2,70,2|8|8,3:0|1:0|1:0,0:0:0:0:
47,251,82885,2,0,B|83:267|115:255|115:247|147:235|183:251,1,140,4|8,3:0|1:0,0:0:0:0:
329,251,83665,2,0,B|365:235|397:247|397:255|429:267|465:251,1,140,4|8,3:0|1:0,0:0:0:0:
431,185,84249,2,0,P|481:139|466:73,1,140,0|0,1:0|0:0,0:0:0:0:
395,54,84833,2,0,P|345:99|360:165,1,140,8|4,1:0|3:0,0:0:0:0:
380,236,85418,6,0,P|394:272|391:312,2,70,2|8|8,0:3|1:0|1:0,0:0:0:0:
360,165,86002,2,0,B|256:260,1,140,4|8,3:0|1:0,0:0:0:0:
256,124,86781,2,0,B|152:219,1,140,4|8,3:0|1:0,0:0:0:0:
80,185,87366,2,0,P|30:139|45:73,1,140,8|8,1:0|0:1,0:0:0:0:
117,54,87950,2,0,P|166:99|151:165,1,140,8|4,0:1|1:2,0:0:0:0:
132,236,88535,6,0,P|118:272|121:312,2,70,2|8|8,0:3|1:0|1:0,0:0:0:0:
192,280,89119,2,0,P|256:304|320:280,1,140,4|8,0:3|1:0,0:0:0:0:
440,192,89898,2,0,B|440:140|440:140|440:92|392:64,1,140,4|8,0:3|1:0,0:0:0:0:
324,52,90483,2,0,B|280:48|256:64|256:64|232:48|188:52,1,140,0|0,1:0|0:0,0:0:0:0:
114,67,91067,2,0,B|72:92|72:140|72:140|72:192,1,140,8|4,1:0|0:3,0:0:0:0:
45,262,91652,6,0,L|10:326,2,70,2|8|8,0:3|1:0|1:0,0:0:0:0:
119,250,92236,2,0,B|165:246|175:194|175:194|185:129,1,140,4|8,3:0|1:0,0:0:0:0:
328,140,93015,2,0,B|337:194|337:194|347:246|393:250,1,140,4|8,3:0|1:0,0:0:0:0:
419,320,93600,2,0,P|360:353|294:336,1,140,0|0,1:0|0:0,0:0:0:0:
217,336,94184,2,0,P|151:353|92:320,1,140,8|4,1:0|3:0,0:0:0:0:
44,260,94768,6,0,P|16:240|0:204,2,70,2|8|8,3:0|1:0|1:0,0:0:0:0:
74,191,95353,2,0,B|103:185|117:146|117:146|165:150|181:118,1,140,4|8,3:0|1:0,0:0:0:0:
330,118,96132,2,0,B|346:150|394:146|394:146|408:185|438:191,1,140,4|8,3:0|1:0,0:0:0:0:
505,225,96717,2,0,B|521:189|509:157|501:157|489:125|505:89,1,140,0|0,1:0|0:0,0:0:0:0:
442,47,97301,2,0,P|377:24|312:47,1,140,8|0,1:0|3:0,0:0:0:0:
256,96,97885,6,0,L|256:172,2,70,2|8|8,3:0|1:0|1:0,0:0:0:0:
199,47,98470,2,0,P|134:24|69:47,1,140,4|8,3:0|1:0,0:0:0:0:
7,89,99054,2,0,B|23:125|11:157|3:157|-9:189|7:225,1,140
43,291,99639,1,8,1:0:0:0:
178,354,100028,2,0,L|201:287,1,70,4|2,3:0|3:0,0:0:0:0:
160,224,100418,2,0,L|233:200,1,70,8|0,1:0|0:0,0:0:0:0:
297,179,100807,6,0,P|371:203|435:184,1,140,4|0,0:0|0:0,0:0:0:0:
83,24,102365,2,0,B|42:37|56:71|69:103|28:118,1,119.000002269745,4|0,0:0|0:0,0:0:0:0:
294,324,103923,2,0,B|232:314|232:314|216:331|216:331|129:312,2,157.500006008148,4|0|0,0:0|0:0|0:0,0:0:0:0:
354,237,105482,2,0,B|331:175|256:157|196:182|214:224|147:252|38:224|23:145,1,391.99998803711,4|4,0:0|0:0,0:0:0:0:
168,38,107819,5,8,0:1:0:0:
333,114,108599,1,0,0:0:0:0:
423,120,108988,1,0,0:0:0:0:
477,46,109378,1,8,0:1:0:0:
463,227,110157,2,0,L|370:266,1,90.9999958343508
348,176,110936,2,0,L|288:251,1,90.9999958343508,8|0,0:1|0:0,0:0:0:0:
231,177,111716,2,0,L|199:264,1,90.9999958343508,0|8,0:0|0:1,0:0:0:0:
131,202,112495,2,0,L|107:384,1,181.999991668702,0|4,0:0|0:0,0:0:0:0:
370,359,124962,6,0,L|391:316,1,45.4999979171754,8|8,0:1|0:3,0:0:0:0:
431,298,125352,1,4,0:3:0:0:
503,243,125742,2,0,P|469:212|425:206,1,90.9999958343508,4|0,0:0|0:0,0:0:0:0:
358,145,126521,2,0,P|375:139|395:117,1,45.4999979171754,8|0,0:1|0:0,0:0:0:0:
409,76,126910,1,0,0:0:0:0:
327,34,127300,1,4,0:3:0:0:
236,21,127690,2,0,B|204:5|164:21|162:51|158:76|131:105|90:99,1,181.999991668702,4|0,0:3|0:0,0:0:0:0:
44,97,128664,6,0,P|69:153|60:188,1,90.9999958343508,2|0,0:0|0:0,0:0:0:0:
40,219,129248,1,0,0:0:0:0:
45,264,129443,1,2,0:0:0:0:
104,332,129832,1,0,0:0:0:0:
143,309,130027,1,2,3:0:0:0:
219,259,130417,2,0,P|270:259|310:289,1,90.9999958343508,4|4,0:3|0:3,0:0:0:0:
386,244,131196,6,0,P|404:260|430:267,1,45.4999979171754,8|0,0:1|0:0,0:0:0:0:
468,254,131586,1,2,0:3:0:0:
486,164,131975,2,0,B|463:152|441:158|441:158|425:141|391:145,1,90.9999958343508,0|0,3:0|0:0,0:0:0:0:
309,150,132755,2,0,P|281:156|258:152,1,45.4999979171754,8|0,0:1|0:0,0:0:0:0:
221,138,133144,1,2,0:3:0:0:
163,67,133534,1,4,3:0:0:0:
244,25,133923,2,0,B|322:17|322:17|387:12|412:67,1,181.999991668702,4|0,0:3|0:0,0:0:0:0:
422,103,134897,1,0,0:0:0:0:
432,192,135287,1,0,0:0:0:0:
432,192,135482,2,0,B|344:236|256:208|256:176|168:148|80:192,1,363.999983337403,0|4,0:0|0:3,0:0:0:0:
24,264,137430,6,0,P|43:281|52:304,1,45.4999979171754,8|8,0:1|0:3,0:0:0:0:
56,344,137819,1,4,0:3:0:0:
144,364,138209,2,0,P|192:372|236:348,1,90.9999958343508,4|2,0:0|0:0,0:0:0:0:
279,279,138988,2,0,P|292:298|311:310,1,45.4999979171754,8|0,0:1|3:0,0:0:0:0:
356,316,139378,1,0,0:0:0:0:
428,264,139768,1,0,3:0:0:0:
439,171,140157,2,0,P|367:121|281:142,1,181.999991668702,2|0,0:0|0:0,0:0:0:0:
200,180,141326,2,0,B|168:204|132:184|100:168|68:196,2,136.499993751526,4|0|2,0:3|3:0|0:3,0:0:0:0:
316,264,143079,2,2,P|256:342|196:264,1,227.499989585877,0|0,0:0|3:0,0:0:0:0:
164,164,144443,5,4,0:0:0:0:
164,164,145222,1,8,0:1:0:0:
348,164,146001,5,0,0:0:0:0:
348,164,146780,1,8,0:1:0:0:
164,164,147560,6,0,L|60:200,1,97.9999970092774,4|0,0:0|3:0,0:0:0:0:
72,72,148338,2,0,P|124:84|176:52,1,112,0|0,3:0|3:0,0:0:0:0:
304,16,149117,2,0,L|440:52,1,125.999996154785,0|0,3:0|3:0,0:0:0:0:
484,192,149896,2,0,P|416:180|356:220,1,140,8|8,1:0|1:0,0:0:0:0:
452,340,150675,5,4,1:2:0:0:
380,360,150871,2,0,P|340:384|308:384,2,70,2|8|8,0:3|1:0|1:0,0:0:0:0:
324,308,151456,2,0,P|256:292|188:308,1,140,4|8,0:3|1:0,0:0:0:0:
92,192,152235,2,0,B|92:148|92:148|92:96|140:72,1,140,4|8,3:0|1:0,0:0:0:0:
188,12,152819,2,0,B|224:28|256:16|256:16|288:28|324:12,1,140,0|0,1:0|0:0,0:0:0:0:
372,72,153404,2,0,B|420:96|420:148|420:148|420:192,1,140,8|4,1:0|3:0,0:0:0:0:
460,256,153988,6,0,P|488:224|496:192,2,70,2|8|8,0:3|1:0|1:0,0:0:0:0:
384,260,154572,2,0,P|332:288|336:364,1,140,4|8,3:0|1:0,0:0:0:0:
177,361,155352,2,0,P|184:295|128:260,1,140,4|8,0:3|1:0,0:0:0:0:
120,184,155936,2,0,B|134:147|165:133|170:138|202:124|216:87,1,140,0|0,1:0|0:0,0:0:0:0:
295,87,156521,2,0,B|309:124|341:138|346:133|377:147|392:184,1,140,8|4,1:0|3:0,0:0:0:0:
448,236,157105,6,0,P|492:240|514:256,2,70,2|8|8,0:3|1:0|1:0,0:0:0:0:
463,309,157689,2,0,B|419:313|395:297|395:297|371:313|327:309,1,140,4|8,3:0|1:0,0:0:0:0:
185,309,158469,2,0,B|141:313|117:297|117:297|93:313|49:309,1,140,4|8,3:0|1:0,0:0:0:0:
72,236,159053,2,0,L|28:104,1,140,0|0,1:0|0:0,0:0:0:0:
96,76,159637,2,0,L|140:208,1,140,8|4,1:0|3:0,0:0:0:0:
112,280,160222,6,0,P|104:320|123:356,2,70,2|8|8,0:3|1:0|1:0,0:0:0:0:
188,268,160806,2,0,P|256:284|324:268,1,140,4|8,3:0|1:0,0:0:0:0:
188,152,161585,2,0,P|256:136|324:152,1,140,4|8,3:0|1:0,0:0:0:0:
372,208,162170,2,0,L|416:76,1,140,8|8,1:0|0:1,0:0:0:0:
484,104,162754,2,0,L|440:236,1,140,8|4,0:1|1:2,0:0:0:0:
396,300,163339,6,0,P|410:336|407:376,2,70,2|8|8,0:3|1:0|1:0,0:0:0:0:
324,280,163923,2,0,B|288:296|256:284|256:276|224:264|188:280,1,140,4|8,3:0|1:0,0:0:0:0:
72,192,164702,2,0,B|72:140|72:140|72:92|120:64,1,140,4|8,3:0|1:0,0:0:0:0:
188,52,165287,2,0,P|256:36|324:52,1,140,0|0,1:0|0:0,0:0:0:0:
398,67,165871,2,0,B|440:92|440:140|440:140|440:192,1,140,8|4,1:0|3:0,0:0:0:0:
467,262,166456,6,0,L|502:326,2,70,2|8|8,0:3|1:0|1:0,0:0:0:0:
393,250,167040,2,0,B|347:246|337:194|337:194|327:129,1,140,4|8,3:0|1:0,0:0:0:0:
184,140,167819,2,0,B|175:194|175:194|165:246|119:250,1,140,4|8,3:0|1:0,0:0:0:0:
84,316,168404,2,0,L|219:364,1,140,0|0,1:0|0:0,0:0:0:0:
296,362,168988,2,0,L|428:316,1,140,8|4,1:0|3:0,0:0:0:0:
468,252,169572,6,0,P|496:232|512:196,2,70,2|8|8,0:3|1:0|1:0,0:0:0:0:
436,184,170157,2,0,P|368:164|329:111,1,140,4|8,3:0|1:0,0:0:0:0:
183,110,170936,2,0,P|142:165|76:184,1,140,4|8,3:0|1:0,0:0:0:0:
8,152,171521,2,0,B|-8:188|4:220|12:220|24:252|8:288,1,140,0|0,1:0|0:0,0:0:0:0:
72,328,172105,2,0,P|137:351|202:328,1,140,8|4,1:0|3:0,0:0:0:0:
256,276,172689,6,0,L|256:200,2,70,2|8|8,0:3|1:0|1:0,0:0:0:0:
311,328,173274,2,0,P|376:351|441:328,1,140,4|8,3:0|1:0,0:0:0:0:
504,288,173858,2,0,B|488:252|500:220|508:220|520:188|504:152,1,140,0|4,0:0|0:3,0:0:0:0:
468,88,174443,1,8,1:1:0:0:
324,52,174832,2,0,L|244:72,1,70,4|8,0:3|1:1,0:0:0:0:
236,140,175222,2,0,L|160:128,1,70,8|4,0:3|0:3,0:0:0:0:
93,112,175611,6,0,P|56:164|53:233,1,119.000002269745,4|0,1:2|0:0,0:0:0:0:
113,319,176390,2,0,L|59:366,2,56,0|0|2,3:0|0:0|0:3,0:0:0:0:
216,274,177169,2,0,B|245:257|265:273|289:292|327:266,1,105.000004005432,4|0,0:0|0:0,0:0:0:0:
472,52,178727,6,0,B|421:43|421:43|412:54|412:54|329:36,2,146.999995513916,4|0|2,0:0|0:0|0:3,0:0:0:0:
465,149,180286,2,0,P|418:129|338:173,2,136.499993751526,4|8|4,0:0|0:3|0:3,0:0:0:0:
471,246,181844,5,4,0:0:0:0:
302,343,182623,1,8,0:1:0:0:
133,244,183403,2,0,P|82:258|49:303,2,90.9999958343508,4|4|8,0:3|0:3|0:1,0:0:0:0:
225,273,184572,1,0,0:0:0:0:
294,204,184961,5,4,0:0:0:0:
488,189,185722,1,8,0:1:0:0:
372,346,186506,5,4,0:0:0:0:
492,326,187351,1,8,0:1:0:0:
407,202,188311,5,4,1:2:0:0:
256,192,188551,12,0,193111,0:0:0:0:
