osu file format v14

[General]
AudioFilename: audio.mp3
AudioLeadIn: 0
PreviewTime: 150482
Countdown: 0
SampleSet: Soft
StackLeniency: 0.3
Mode: 0
LetterboxInBreaks: 0
WidescreenStoryboard: 1

[Editor]
Bookmarks: 113274,125742
DistanceSpacing: 1
BeatDivisor: 4
GridSize: 4
TimelineZoom: 1.600001

[Metadata]
Title:Nada valgo sin tu amor
TitleUnicode:Nada valgo sin tu amor
Artist:Juanes
ArtistUnicode:Juanes
Creator:Krisom
Version:Facil
Source:
Tags:EspaƱol Spanish Pop Rock Alternative Mi Sangre Colombia
BeatmapID:3933507
BeatmapSetID:1907523

[Difficulty]
HPDrainRate:3
CircleSize:3
OverallDifficulty:3
ApproachRate:4
SliderMultiplier:1.2
SliderTickRate:1

[Events]
//Background and Video events
0,0,"JUANES.jpg",0,0
//Break Periods
2,113474,124422
//Storyboard Layer 0 (Background)
//Storyboard Layer 1 (Fail)
//Storyboard Layer 2 (Pass)
//Storyboard Layer 3 (Foreground)
//Storyboard Layer 4 (Overlay)
//Storyboard Sound Samples

[TimingPoints]
-11399,779.220779220779,4,2,1,60,1,0
37497,-66.6666666666667,4,2,1,60,0,0
72756,389.61038961039,4,2,1,60,1,0
72756,-133.333333333333,4,2,1,60,0,0
75872,389.61038961039,4,2,1,60,1,1
75872,-125,4,2,1,60,0,1
100807,779.220779220779,4,2,1,60,1,0
100807,-66.6666666666667,4,2,1,60,0,0
110936,-68.9655172413793,4,2,1,60,0,0
111716,-71.4285714285714,4,2,1,60,0,0
125742,-66.6666666666667,4,2,1,60,0,0
147560,389.61038961039,4,2,1,60,1,0
147560,-133.333333333333,4,2,1,60,0,0
150676,389.61038961039,4,2,1,60,1,1
150676,-125,4,2,1,60,0,1
175611,779.220779220779,4,2,1,60,1,0
175611,-66.6666666666667,4,2,1,60,0,0
184961,761.904761904762,4,2,1,60,1,0
185546,-71.4285714285714,4,2,1,60,0,0
185722,784.313725490196,4,2,1,60,1,0
186506,845.070422535211,4,2,1,60,1,0
187351,960,4,2,1,60,1,0
188311,960,4,2,1,60,1,0
188583,-100,4,2,1,50,0,0
189333,-100,4,2,1,45,0,0
190083,-100,4,2,1,40,0,0
190833,-100,4,2,1,35,0,0
191583,-100,4,2,1,25,0,0
192333,-100,4,2,1,15,0,0
193083,-100,4,2,1,5,0,0

[Colours]
Combo1 : 208,24,248
Combo2 : 150,12,233

[HitObjects]
24,192,38471,6,0,B|68:172|112:188|112:196|156:212|200:192,1,180.000006866455,4|8,0:0|0:1,0:0:0:0:
256,120,39640,1,2,3:0:0:0:
312,48,40029,2,0,B|356:28|400:44|400:52|444:68|488:48,2,180.000006866455,4|8|4,3:0|0:1|3:0,0:0:0:0:
352,128,41977,1,2,0:0:0:0:
424,184,42367,2,0,B|384:232|300:248|280:192|256:200|232:192|212:248|128:232|88:184,1,360.000013732911,8|8,0:1|0:1,0:0:0:0:
16,20,44705,6,0,B|84:20|84:20|152:20|184:60,1,180.000006866455,4|8,3:0|0:1,0:0:0:0:
256,112,45874,1,2,0:3:0:0:
328,60,46263,2,0,B|360:20|428:20|428:20|496:20,1,180.000006866455,4|8,0:3|0:1,0:0:0:0:
456,203,47822,2,0,B|420:159|380:179|364:207|364:207|340:187|284:171|220:227|280:339|344:295|400:367|400:367|420:291|456:271|456:251,1,540.000020599366,2|8,0:0|3:1,0:0:0:0:
344,116,50939,6,0,P|256:100|168:116,1,180.000006866455,4|8,3:0|0:1,0:0:0:0:
84,148,52107,1,2,3:0:0:0:
128,228,52497,2,0,B|192:248|256:204|256:204|320:248|384:228,1,270.000010299683,4|2,0:3|0:0,0:0:0:0:
432,152,54055,1,4,0:3:0:0:
256,108,54835,1,8,0:1:0:0:
80,152,55614,1,4,3:0:0:0:
96,239,56003,1,4,3:0:0:0:
114,327,56393,1,8,0:1:0:0:
288,360,57172,6,0,B|342:332|342:286|342:286|341:204,1,180.000006866455,4|8,3:0|0:1,0:0:0:0:
256,192,58341,1,2,0:3:0:0:
166,179,58731,2,0,B|166:98|166:98|165:51|220:24,1,180.000006866455,4|8,0:3|0:1,0:0:0:0:
336,164,60289,2,0,P|256:200|176:164,3,180.000006866455,4|8|4|8,0:3|0:1|0:3|0:1,0:0:0:0:
132,84,63016,1,4,0:3:0:0:
48,52,63406,5,4,0:0:0:0:
256,344,64964,1,2,0:3:0:0:
464,52,66523,2,0,B|484:96|452:112|424:128|444:180,2,135.000005149841,4|2|0,3:0|0:0|0:0,0:0:0:0:
384,16,68081,2,0,B|352:0|324:16|324:16|288:-4|256:17|256:17|224:-4|188:16|188:16|160:0|128:16,1,270.000010299683,4|2,0:3|3:2,0:0:0:0:
80,96,69640,5,0,3:0:0:0:
168,252,70419,1,8,0:1:0:0:
344,252,71198,5,0,3:0:0:0:
432,96,71977,1,8,0:1:0:0:
256,56,72756,6,0,P|192:88|168:88,1,90.0000034332277,4|0,3:2|3:0,0:0:0:0:
100,136,73535,2,0,P|128:164|184:172,1,90.0000034332277,0|0,3:1|3:0,0:0:0:0:
264,160,74314,6,0,L|352:188,1,90.0000034332277,0|0,3:0|3:0,0:0:0:0:
432,228,75093,2,0,P|404:260|348:272,1,90.0000034332277,0|8,3:0|1:0,0:0:0:0:
268,264,75872,5,4,0:0:0:0:
200,328,76262,1,8,1:0:0:0:
116,292,76652,2,0,P|104:232|80:192,1,96,4|8,3:0|1:0,0:0:0:0:
60,116,77431,2,0,B|108:108|108:108|136:112|136:112|220:96,2,144,4|0|8,3:0|1:0|1:0,0:0:0:0:
12,196,78989,5,4,0:3:0:0:
88,248,79379,1,8,1:0:0:0:
80,340,79768,2,0,P|128:320|188:332,1,96,4|8,3:0|1:0,0:0:0:0:
260,344,80548,2,0,B|244:280|244:280|260:264|260:264|248:200,2,144,4|0|8,3:0|1:0|1:0,0:0:0:0:
352,360,82106,5,4,3:0:0:0:
444,372,82496,1,8,1:0:0:0:
444,280,82885,2,0,P|416:240|420:192,1,96,4|8,3:0|1:0,0:0:0:0:
468,116,83665,2,0,B|412:104|412:104|388:112|388:112|328:100,2,144,4|0|8,3:0|1:0|1:0,0:0:0:0:
452,204,85223,5,4,3:0:0:0:
376,256,85613,1,8,1:0:0:0:
308,196,86002,2,0,P|268:216|204:216,1,96,4|8,3:0|1:0,0:0:0:0:
188,132,86781,2,0,B|144:112|112:128|76:144|40:104,2,144,4|8|8,3:0|1:0|0:1,0:0:0:0:
260,76,88340,5,4,1:2:0:0:
344,40,88730,1,8,1:0:0:0:
428,72,89119,2,0,P|412:96|424:164,1,96,4|8,0:3|1:0,0:0:0:0:
492,216,89898,2,0,B|464:264|464:264|468:292|468:292|436:352,2,144,4|0|8,0:3|1:0|1:0,0:0:0:0:
492,124,91457,5,4,0:3:0:0:
416,76,91846,1,8,1:0:0:0:
332,36,92236,2,0,P|292:48|256:100,1,96,4|8,3:0|1:0,0:0:0:0:
296,172,93015,2,0,B|272:216|272:216|276:240|276:240|232:304,2,144,4|0|8,3:0|1:0|1:0,0:0:0:0:
352,100,94574,5,4,3:0:0:0:
272,56,94963,1,8,1:0:0:0:
180,68,95353,2,0,P|140:80|84:64,1,96,4|8,3:0|1:0,0:0:0:0:
20,128,96132,2,0,B|28:184|28:184|16:212|16:212|24:272,2,144,4|0|8,3:0|1:0|1:0,0:0:0:0:
96,76,97691,5,0,3:0:0:0:
184,52,98080,1,8,1:0:0:0:
268,92,98470,2,0,B|316:104|316:104|328:124|328:124|412:136,2,144,4|0|8,3:0|0:0|1:0,0:0:0:0:
180,116,100028,2,0,P|192:152|168:212,1,96,4|8,3:0|1:0,0:0:0:0:
124,276,100807,5,4,0:0:0:0:
460,348,102365,1,4,0:0:0:0:
252,76,103923,2,0,B|292:48|292:48|324:48|324:48|376:8,2,135.000005149841,4|0|0,0:0|0:0|0:0,0:0:0:0:
300,148,105482,2,0,B|252:184|176:168|168:104|120:56|60:88,1,270.000010299683,4|4,0:0|0:3,0:0:0:0:
24,164,107040,5,4,0:0:0:0:
84,324,107819,1,8,0:1:0:0:
244,268,108599,2,0,P|292:256|336:272,2,90.0000034332277,0|0|8,0:0|0:0|0:1,0:0:0:0:
248,96,110157,6,0,L|140:120,1,90.0000034332277
84,168,110936,6,0,P|124:192|136:236,1,87.0000026550294,8|0,0:1|0:0,0:0:0:0:
156,316,111716,6,0,L|256:296,1,83.9999974365235,0|8,0:0|0:1,0:0:0:0:
324,280,112495,5,0,0:0:0:0:
400,328,112884,1,4,3:0:0:0:
480,292,113274,1,4,0:0:0:0:
24,192,125742,6,0,B|102:192|102:192|166:192|179:244,1,180.000006866455,4|8,0:0|0:1,0:0:0:0:
256,288,126910,1,0,0:0:0:0:
332,244,127300,2,0,B|345:192|409:192|409:192|488:192,1,180.000006866455,4|8,0:3|0:1,0:0:0:0:
344,88,128858,2,0,P|256:72|168:88,2,180.000006866455,4|8|4,0:3|0:1|0:3,0:0:0:0:
432,112,130807,1,4,0:3:0:0:
484,184,131196,2,0,P|448:224|440:268,1,90.0000034332277,8|2,0:1|0:3,0:0:0:0:
484,336,131975,6,0,B|440:356|396:340|396:332|352:316|308:336,1,180.000006866455,0|8,3:0|0:1,0:0:0:0:
256,264,133144,1,2,0:3:0:0:
204,192,133534,2,0,B|160:212|116:196|116:188|72:172|28:192,1,180.000006866455,4|8,3:0|0:1,0:0:0:0:
168,76,135092,2,0,B|220:88|244:56|256:60|268:56|292:88|344:76,3,180.000006866455,4|8|4|8,0:3|0:1|0:3|0:1,0:0:0:0:
416,128,137819,1,4,0:3:0:0:
464,52,138209,5,4,0:0:0:0:
256,344,139767,1,0,3:0:0:0:
48,52,141326,2,0,B|28:96|60:112|88:128|68:180,2,135.000005149841,4|0|2,0:3|3:0|0:3,0:0:0:0:
128,16,142884,2,0,B|160:0|188:16|188:16|224:-4|256:17|256:17|288:-4|324:16|324:16|352:0|384:16,1,270.000010299683,4|2,0:3|3:2,0:0:0:0:
432,96,144443,5,4,0:0:0:0:
344,252,145222,1,8,0:1:0:0:
168,252,146001,5,0,0:0:0:0:
80,96,146780,1,8,0:1:0:0:
256,56,147560,6,0,P|300:56|344:88,1,90.0000034332277,4|0,0:0|3:0,0:0:0:0:
416,128,148338,2,0,L|344:184,1,90.0000034332277,0|0,3:0|3:0,0:0:0:0:
256,176,149117,6,0,P|216:172|168:204,1,90.0000034332277,0|0,3:0|3:0,0:0:0:0:
236,260,149896,2,0,L|320:304,1,90.0000034332277,8|8,1:0|1:0,0:0:0:0:
392,252,150676,5,4,1:2:0:0:
480,276,151066,1,8,1:0:0:0:
484,184,151456,2,0,P|468:148|480:88,1,96,4|8,0:3|1:0,0:0:0:0:
408,36,152235,2,0,B|372:48|372:48|360:64|360:64|276:92,2,144,4|0|8,3:0|1:0|1:0,0:0:0:0:
476,93,153793,5,4,3:0:0:0:
424,168,154183,1,8,1:0:0:0:
468,248,154572,2,0,P|432:260|400:312,1,96,4|8,3:0|1:0,0:0:0:0:
324,356,155352,2,0,B|312:320|312:320|292:312|292:312|268:212,2,144,4|0|8,0:3|1:0|1:0,0:0:0:0:
236,376,156910,5,4,3:0:0:0:
172,312,157300,1,8,1:0:0:0:
84,328,157689,2,0,P|64:300|80:232,1,96,4|8,3:0|1:0,0:0:0:0:
36,156,158469,2,0,B|88:148|88:148|104:160|104:160|180:148,2,144,4|0|8,3:0|1:0|1:0,0:0:0:0:
48,64,160027,5,4,3:0:0:0:
136,36,160417,1,8,1:0:0:0:
224,60,160806,2,0,P|272:68|324:44,1,96,4|8,3:0|1:0,0:0:0:0:
404,28,161585,2,0,B|400:72|400:72|384:84|384:84|376:168,2,144,4|8|8,3:0|1:0|0:1,0:0:0:0:
312,16,163144,5,4,1:2:0:0:
252,84,163534,1,8,1:0:0:0:
172,40,163923,2,0,P|144:64|88:64,1,96,4|8,3:0|1:0,0:0:0:0:
60,152,164702,2,0,B|100:148|100:148|156:164|156:164|204:160,2,144,4|0|8,3:0|1:0|1:0,0:0:0:0:
36,240,166261,5,4,3:0:0:0:
96,308,166650,1,8,1:0:0:0:
184,288,167040,2,0,P|228:276|280:288,1,96,4|8,3:0|1:0,0:0:0:0:
360,324,167819,2,0,B|356:284|356:284|392:220|392:220|387:190,2,144,4|0|8,3:0|1:0|1:0,0:0:0:0:
448,348,169378,5,4,3:0:0:0:
496,272,169767,1,8,1:0:0:0:
480,184,170157,2,0,P|460:156|472:88,1,96,4|8,3:0|1:0,0:0:0:0:
424,16,170936,2,0,B|392:20|392:20|344:72|344:72|304:80,2,144,4|0|8,3:0|1:0|1:0,0:0:0:0:
448,104,172495,5,4,3:0:0:0:
392,176,172884,1,8,1:0:0:0:
304,192,173274,2,0,B|312:240|312:240|360:280|360:280|368:320,2,144,4|0|8,3:0|0:0|1:1,0:0:0:0:
256,116,174832,2,0,P|216:144|168:144,1,96,4|8,0:3|0:3,0:0:0:0:
96,100,175611,5,4,1:2:0:0:
432,44,177169,1,4,0:0:0:0:
288,352,178727,2,0,B|248:344|248:344|200:360|200:360|152:348,2,135.000005149841,4|0|2,0:0|0:0|0:3,0:0:0:0:
372,376,180286,2,0,B|432:328|396:256|348:240|320:164|368:124,1,270.000010299683,4|4,0:0|0:3,0:0:0:0:
424,72,181844,5,4,0:0:0:0:
256,32,182623,1,8,0:1:0:0:
88,72,183403,2,0,P|52:96|40:144,2,90.0000034332277,4|4|8,0:3|0:3|0:1,0:0:0:0:
256,96,184961,5,4,0:0:0:0:
416,116,185722,5,8,0:1:0:0:
320,224,186506,5,4,0:0:0:0:
440,264,187351,5,8,0:1:0:0:
352,364,188311,5,4,1:2:0:0:
256,192,188551,12,0,193111,0:0:0:0:
