osu file format v14

[General]
AudioFilename: audio.mp3
AudioLeadIn: 0
PreviewTime: 150482
Countdown: 0
SampleSet: Soft
StackLeniency: 0.3
Mode: 0
LetterboxInBreaks: 0
WidescreenStoryboard: 1

[Editor]
Bookmarks: 113274,125742
DistanceSpacing: 1.2
BeatDivisor: 4
GridSize: 4
TimelineZoom: 1.900001

[Metadata]
Title:Nada valgo sin tu amor
TitleUnicode:Nada valgo sin tu amor
Artist:Juanes
ArtistUnicode:Juanes
Creator:Krisom
Version:Dificil
Source:
Tags:EspaƱol Spanish Pop Rock Alternative Mi Sangre Colombia
BeatmapID:3933506
BeatmapSetID:1907523

[Difficulty]
HPDrainRate:4.5
CircleSize:4
OverallDifficulty:6
ApproachRate:7.8
SliderMultiplier:1.6
SliderTickRate:1

[Events]
//Background and Video events
0,0,"JUANES.jpg",0,0
//Break Periods
//Storyboard Layer 0 (Background)
//Storyboard Layer 1 (Fail)
//Storyboard Layer 2 (Pass)
//Storyboard Layer 3 (Foreground)
//Storyboard Layer 4 (Overlay)
//Storyboard Sound Samples

[TimingPoints]
-11399,779.220779220779,4,2,1,60,1,0
31653,-100,4,2,1,5,0,0
31945,-100,4,2,1,60,0,0
37497,-66.6666666666667,4,2,1,60,0,0
72756,389.61038961039,4,2,1,60,1,0
73437,-83.3333333333333,4,2,1,60,0,0
75872,389.61038961039,4,2,1,60,1,1
75872,-76.9230769230769,4,2,1,60,0,1
100807,779.220779220779,4,2,1,60,1,0
101001,-52.6315789473684,4,2,1,60,0,0
105482,-58.8235294117647,4,2,1,60,0,0
107040,-66.6666666666667,4,2,1,60,0,0
109573,-76.9230769230769,4,2,1,60,0,0
114053,-66.6666666666667,4,2,1,60,0,0
147560,389.61038961039,4,2,1,60,1,0
148241,-76.9230769230769,4,2,1,60,0,0
150676,389.61038961039,4,2,1,60,1,1
150676,-76.9230769230769,4,2,1,60,0,1
175611,779.220779220779,4,2,1,60,1,0
176390,-52.6315789473684,4,2,1,60,0,0
178338,-58.8235294117647,4,2,1,60,0,0
184961,761.904761904762,4,2,1,60,1,0
184961,-66.6666666666667,4,2,1,60,0,0
185722,784.313725490196,4,2,1,60,1,0
185722,-76.9230769230769,4,2,1,60,0,0
186506,845.070422535211,4,2,1,60,1,0
186506,-125,4,2,1,60,0,0
187351,960,4,2,1,60,1,0
188311,960,4,2,1,60,1,0
188583,-100,4,2,1,50,0,0
189333,-100,4,2,1,45,0,0
190083,-100,4,2,1,40,0,0
190833,-100,4,2,1,35,0,0
191583,-100,4,2,1,25,0,0
192333,-100,4,2,1,15,0,0
193083,-100,4,2,1,5,0,0

[Colours]
Combo1 : 208,24,248
Combo2 : 150,12,233

[HitObjects]
80,368,289,6,0,B|60:336|80:308|96:284|72:252,1,120,0|0,3:0|0:0,0:0:0:0:
52,204,1068,2,0,P|88:180|128:184,1,80,8|0,0:0|0:0,0:0:0:0:
228,208,1848,2,0,B|268:208|304:184,1,80,0|0,3:0|0:0,0:0:0:0:
336,140,2432,1,0,0:0:0:0:
376,104,2627,2,0,P|368:152|384:196,2,80,10|0|0,0:0|0:0|0:0,0:0:0:0:
456,32,3796,1,0,3:0:0:0:
404,16,3990,1,0,0:0:0:0:
352,24,4185,6,0,B|333:34|311:32|289:29|273:45,1,80,8|0,0:0|0:0,0:0:0:0:
264,96,4770,2,0,P|232:116|192:112,1,80,2|0,0:0|0:0,0:0:0:0:
144,88,5354,2,2,B|159:158|159:158|168:210|128:235,1,160,0|0,0:0|0:0,0:0:0:0:
84,264,6328,1,0,0:0:0:0:
76,316,6523,2,0,P|124:312|160:332,1,80,0|2,3:0|0:0,0:0:0:0:
196,360,7107,1,0,0:0:0:0:
248,364,7302,6,0,P|286:371|321:353,1,80,8|0,0:0|0:0,0:0:0:0:
368,256,8081,1,0,3:0:0:0:
356,204,8276,1,0,0:0:0:0:
380,156,8471,1,0,0:0:0:0:
420,56,8861,2,0,B|398:51|378:59|358:68|338:57,2,80,10|0|0,0:0|0:0|0:0,0:0:0:0:
496,260,10419,6,0,B|464:249|464:249|433:238|417:256,1,80,8|0,0:0|0:0,0:0:0:0:
380,292,11003,1,0,0:0:0:0:
360,344,11198,2,0,P|324:324|276:328,1,80,8|0,0:0|0:0,0:0:0:0:
232,328,11783,1,0,0:0:0:0:
184,352,11977,2,0,B|165:362|143:360|121:357|105:373,1,80,8|0,0:0|0:0,0:0:0:0:
52,380,12562,1,0,0:0:0:0:
4,356,12757,1,8,3:2:0:0:
68,268,13146,1,2,0:0:0:0:
48,163,13536,6,0,P|87:163|125:179,2,80,8|0|0,0:0|0:0|3:0,0:0:0:0:
20,116,14510,1,0,0:0:0:0:
24,64,14705,1,2,0:0:0:0:
116,8,15094,2,0,B|144:-8|176:16|196:0,2,80,8|0|0,3:2|0:0|0:0,0:0:0:0:
156,108,16263,1,0,3:0:0:0:
200,136,16458,1,0,0:0:0:0:
252,124,16653,6,0,P|288:116|336:128,1,80,8|0,0:0|0:0,0:0:0:0:
372,160,17237,2,0,P|360:120|360:76,1,80,2|0,0:0|0:0,0:0:0:0:
376,32,17822,1,0,0:0:0:0:
376,32,18211,2,0,B|344:40|308:16|296:24|276:20|256:56|216:48,1,160,8|0,3:2|3:0,0:0:0:0:
112,36,19380,1,2,0:0:0:0:
96,144,19770,6,0,P|135:144|173:128,2,80,8|0|0,0:0|0:0|3:0,0:0:0:0:
56,180,20744,1,0,0:0:0:0:
52,232,20939,1,2,0:0:0:0:
112,320,21328,2,0,B|140:336|172:312|192:328,2,80,8|0|0,3:2|0:0|0:0,0:0:0:0:
52,232,22497,1,0,3:0:0:0:
44,180,22692,1,0,0:0:0:0:
12,136,22887,6,0,P|60:140|88:120,1,80,8|0,0:0|0:0,0:0:0:0:
124,88,23471,1,0,0:0:0:0:
176,92,23666,2,0,B|192:112|160:144|176:168,1,80,8|0,0:0|0:0,0:0:0:0:
200,216,24250,1,0,0:0:0:0:
196,268,24445,2,0,B|232:256|232:256|260:248|280:264,1,80,8|0,0:0|0:0,0:0:0:0:
312,296,25029,1,0,0:0:0:0:
312,352,25224,1,0,3:0:0:0:
412,312,25614,1,0,0:0:0:0:
444,208,26003,6,0,P|404:204|364:216,2,80,2|0|0,3:0|0:0|3:0,0:0:0:0:
480,168,26977,1,0,0:0:0:0:
468,116,27172,1,0,0:0:0:0:
408,28,27562,2,0,P|456:32|488:20,2,80,2|0|0,3:0|0:0|0:0,0:0:0:0:
192,12,29120,1,2,3:0:0:0:
192,12,29315,1,0,0:0:0:0:
88,40,29705,2,0,P|108:64|112:116,1,80
92,160,30289,1,0,0:0:0:0:
108,212,30484,1,0,0:0:0:0:
108,212,30874,2,0,B|142:256|177:216|201:236|236:226|246:271|295:261,1,200
336,174,32237,5,2,3:0:0:0:
351,128,32432,2,0,P|316:75|248:89,1,120
232,96,33211,2,0,B|217:117|177:96|159:119,1,80
132,168,33796,1,2,3:0:0:0:
108,216,33990,2,0,P|164:216|204:268,1,120
200,316,34770,1,0,0:0:0:0:
308,304,35159,1,0,0:0:0:0:
420,296,35549,1,0,0:0:0:0:
420,296,35744,1,0,0:0:0:0:
404,188,36133,2,0,B|412:156|448:140|456:96|420:84|388:116|388:116|344:92|324:124|344:152|380:160|392:172,1,240,0|0,3:0|0:0,0:0:0:0:
440,304,37692,5,8,0:1:0:0:
376,356,37887,1,8,0:3:0:0:
360,276,38081,1,4,0:3:0:0:
300,332,38276,1,0,0:0:0:0:
279,251,38471,2,0,P|232:217|173:223,1,120.000004577637,4|0,0:0|0:0,0:0:0:0:
40,312,39250,2,0,L|24:240,1,60.0000022888184,8|0,0:1|0:0,0:0:0:0:
76,188,39640,2,0,L|60:116,1,60.0000022888184,2|0,3:0|0:0,0:0:0:0:
100,56,40029,2,0,B|128:44|144:64|164:56|180:60|188:36|220:40,2,120.000004577637,4|4|8,3:0|3:0|0:1,0:0:0:0:
62,129,41003,1,0,0:0:0:0:
108,196,41198,1,2,0:3:0:0:
188,176,41393,1,0,0:0:0:0:
188,96,41588,6,0,P|232:108|268:172,1,120.000004577637,4|2,3:0|0:0,0:0:0:0:
360,300,42367,2,0,P|256:352|152:300,1,240.000009155274,8|4,0:1|0:3,0:0:0:0:
88,152,43536,1,4,0:3:0:0:
216,52,43926,5,8,0:1:0:0:
276,108,44120,1,0,0:0:0:0:
292,28,44315,1,2,3:0:0:0:
352,84,44510,1,0,0:0:0:0:
428,56,44705,2,0,B|412:100|412:100|400:132|428:168,1,120.000004577637,4|0,3:0|0:0,0:0:0:0:
492,316,45484,2,0,P|464:300|432:296,1,60.0000022888184,8|0,0:1|0:0,0:0:0:0:
372,344,45874,2,0,P|344:328|312:324,1,60.0000022888184,2|0,0:3|0:0,0:0:0:0:
236,332,46263,2,0,B|188:344|172:320|160:296|108:312,3,120.000004577637,4|4|8|0,0:3|0:3|0:1|0:0,0:0:0:0:
116,228,47627,6,0,B|83:141|35:186|-26:129|7:59|60:37|106:64|106:64|149:22|204:32|228:88|223:151|158:128|152:208,1,540.000020599366,2|4,0:0|0:3,0:0:0:0:
152,205,50159,5,2,3:3:0:0:
168,284,50354,1,0,0:0:0:0:
236,328,50549,1,2,0:0:0:0:
316,312,50744,1,0,0:0:0:0:
392,336,50939,2,0,P|348:288|352:236,1,120.000004577637,4|0,3:0|3:0,0:0:0:0:
464,120,51718,2,0,L|400:136,1,60.0000022888184,8|0,0:1|0:0,0:0:0:0:
344,80,52107,2,0,L|280:96,1,60.0000022888184,2|0,3:0|0:0,0:0:0:0:
228,36,52497,2,0,B|192:44|192:44|152:52|112:24,2,120.000004577637,4|4|8,0:3|0:3|0:1,0:0:0:0:
472,12,53861,6,0,P|412:4|360:48,1,120.000004577637,0|0,3:0|0:0,0:0:0:0:
336,112,54445,1,2,0:0:0:0:
304,188,54640,2,0,P|255:154|198:162,1,120.000004577637,2|0,0:0|0:0,0:0:0:0:
168,236,55224,2,0,B|168:199|143:187|118:174|115:131,2,120.000004577637,2|4|4,3:0|3:0|3:0,0:0:0:0:
256,372,56393,5,8,0:1:0:0:
276,292,56588,1,0,0:0:0:0:
336,348,56783,1,2,0:3:0:0:
356,268,56978,1,0,0:0:0:0:
416,324,57172,2,0,P|436:272|416:212,1,120.000004577637,4|0,3:0|3:0,0:0:0:0:
340,72,57951,2,0,P|364:88|408:88,1,60.0000022888184,8|0,0:1|0:0,0:0:0:0:
452,32,58341,2,0,P|428:16|384:16,1,60.0000022888184,2|0,0:3|0:0,0:0:0:0:
340,72,58731,2,0,B|308:48|280:68|252:88|220:68,2,120.000004577637,4|4|8,0:3|0:3|0:1,0:0:0:0:
484,268,60094,6,0,P|448:300|376:304,1,120.000004577637
312,260,60679,2,0,P|256:87|200:260,1,480.000018310548
199,259,62627,5,8,0:1:0:0:
152,324,62822,1,8,0:3:0:0:
120,248,63016,1,4,0:3:0:0:
72,312,63211,1,4,0:3:0:0:
40,236,63406,2,0,B|11:209|29:179|47:150|13:121,1,120.000004577637,4|0,0:0|0:0,0:0:0:0:
144,24,64185,2,0,P|168:40|200:44,1,60.0000022888184,8|0,0:1|3:0,0:0:0:0:
276,20,64575,2,0,P|300:36|332:40,1,60.0000022888184
408,16,64964,2,0,P|364:56|368:116,2,120.000004577637,2|0|8,0:3|3:0|0:1,0:0:0:0:
360,336,66523,5,4,3:0:0:0:
384,260,66718,2,0,P|316:264|284:304,2,120.000004577637,0|2|0,0:0|0:0|0:0,0:0:0:0:
460,284,67692,1,0,0:0:0:0:
480,204,67887,1,0,0:0:0:0:
480,204,68276,2,0,B|440:152|368:160|344:196|356:224|256:252|208:204,1,300.000011444092
92,92,69640,5,0,3:0:0:0:
92,92,70419,1,8,0:1:0:0:
420,92,71198,5,0,3:0:0:0:
420,92,71977,1,8,0:1:0:0:
92,92,72756,6,0,L|176:100,1,80,4|0,3:2|3:0,0:0:0:0:
252,172,73145,2,0,L|168:180,1,80,0|0,3:0|0:3,0:0:0:0:
100,256,73535,6,0,P|160:248|196:268,1,95.9999970703126,0|0,3:1|3:0,0:0:0:0:
244,356,73924,2,0,P|184:364|148:344,1,95.9999970703126,0|0,3:0|0:0,0:0:0:0:
268,264,74314,5,0,3:0:0:0:
372,288,74509,1,0,3:0:0:0:
336,188,74704,1,0,3:0:0:0:
440,208,74898,1,0,3:0:0:0:
404,108,75093,5,0,3:0:0:0:
300,88,75288,2,0,L|272:48,2,47.9999985351563,8|8|8,1:0|1:0|1:0,0:0:0:0:
236,172,75678,2,0,P|212:184|196:204,1,47.9999985351563,8|8,1:0|1:0,0:0:0:0:
172,248,75872,5,4,0:0:0:0:
64,216,76067,2,0,P|60:268|80:316,2,103.999995239258,2|8|8,0:3|1:0|1:0,0:0:0:0:
156,148,76652,2,0,B|224:116|256:148|288:180|356:148,1,207.999990478516,4|8,3:0|1:0,0:0:0:0:
476,344,77431,2,0,L|372:344,1,103.999995239258,4|0,3:0|0:0,0:0:0:0:
256,344,77820,1,8,1:0:0:0:
308,240,78015,2,0,L|204:240,1,103.999995239258,0|0,1:0|0:0,0:0:0:0:
100,192,78404,1,0,0:0:0:0:
156,92,78600,2,0,P|256:68|356:92,1,207.999990478516,8|4,1:0|0:3,0:0:0:0:
464,60,79184,6,0,P|468:112|448:160,2,103.999995239258,2|8|8,0:3|1:0|1:0,0:0:0:0:
356,24,79768,2,0,B|312:-8|280:36|256:32|232:36|200:-8|156:24,1,207.999990478516,4|8,3:0|1:0,0:0:0:0:
16,204,80548,2,0,P|64:221|112:204,1,103.999995239258,4|0,3:0|0:0,0:0:0:0:
208,144,80937,1,8,1:0:0:0:
208,260,81132,2,0,P|256:277|304:260,1,103.999995239258,0|0,1:0|0:0,0:0:0:0:
400,200,81522,1,0,0:0:0:0:
356,96,81717,2,0,P|256:72|156:96,1,207.999990478516,8|4,1:0|3:0,0:0:0:0:
120,204,82301,6,0,L|92:304,2,103.999995239258,2|8|8,3:0|1:0|1:0,0:0:0:0:
156,96,82885,2,0,B|204:108|204:108|256:92|256:92|308:108|308:108|356:96,1,207.999990478516,4|8,3:0|1:0,0:0:0:0:
460,300,83665,2,0,B|435:336|401:330|401:330|365:323,1,103.999995239258,4|0,3:0|0:0,0:0:0:0:
396,212,84054,1,8,1:0:0:0:
292,256,84249,2,0,B|267:292|233:286|233:286|197:279,1,103.999995239258,0|0,1:0|0:0,0:0:0:0:
228,168,84638,1,0,0:0:0:0:
160,76,84833,2,0,B|228:44|260:76|292:108|360:76,1,207.999990478516,8|4,1:0|3:0,0:0:0:0:
464,28,85418,5,2,0:3:0:0:
452,140,85613,1,8,1:0:0:0:
432,252,85807,1,8,1:0:0:0:
316,252,86002,2,0,B|228:252|228:252|156:252|144:184,1,207.999990478516,4|8,3:0|1:0,0:0:0:0:
369,183,86781,2,0,B|357:251|285:251|285:251|197:251,1,207.999990478516,4|8,3:0|1:0,0:0:0:0:
148,148,87366,2,0,B|172:100|224:92|256:120|304:100|312:48,1,207.999990478516,8|8,1:0|0:1,0:0:0:0:
200,48,87950,2,0,B|208:100|256:120|288:92|340:100|364:148,1,207.999990478516,8|4,0:1|1:2,0:0:0:0:
468,196,88535,6,0,P|476:144|460:92,2,103.999995239258,2|8|8,0:3|1:0|1:0,0:0:0:0:
356,228,89118,2,0,B|304:248|256:220|256:220|208:248|156:228,1,207.999990478516,4|8,0:3|1:0,0:0:0:0:
44,28,89898,2,0,B|92:48|92:48|140:28,1,103.999995239258,4|0,0:3|0:0,0:0:0:0:
256,28,90288,1,8,1:0:0:0:
208,132,90483,2,0,B|256:152|256:152|304:132,1,103.999995239258,0|0,1:0|0:0,0:0:0:0:
368,228,90872,1,0,0:0:0:0:
356,344,91066,2,0,B|256:372|256:372|156:344,1,207.999990478516,8|4,1:0|0:3,0:0:0:0:
44,372,91652,6,0,P|40:320|60:272,2,103.999995239258,2|8|8,0:3|1:0|1:0,0:0:0:0:
155,343,92236,2,0,B|199:311|231:355|255:351|279:355|311:311|355:343,1,207.999990478516,4|8,3:0|1:0,0:0:0:0:
496,160,93014,2,0,P|448:177|400:160,1,103.999995239258,4|0,3:0|0:0,0:0:0:0:
420,48,93405,1,8,1:0:0:0:
304,48,93600,2,0,P|256:31|208:48,1,103.999995239258,0|0,1:0|0:0,0:0:0:0:
92,48,93988,1,0,0:0:0:0:
152,144,94183,2,0,L|360:144,1,207.999990478516,8|4,1:0|3:0,0:0:0:0:
464,96,94769,6,0,L|492:196,2,103.999995239258,2|8|8,3:0|1:0|1:0,0:0:0:0:
356,56,95353,2,0,B|312:40|312:40|256:20|200:40|200:40|156:56,1,207.999990478516,4|8,3:0|1:0,0:0:0:0:
48,260,96131,2,0,P|84:284|143:283,1,103.999995239258,4|0,3:0|0:0,0:0:0:0:
120,172,96522,1,8,1:0:0:0:
220,224,96717,2,0,P|256:248|315:247,1,103.999995239258,0|0,1:0|0:0,0:0:0:0:
292,136,97106,1,0,0:0:0:0:
352,40,97301,2,0,B|304:0|256:32|256:48|208:80|160:40,1,207.999990478516,8|0,1:0|3:0,0:0:0:0:
48,12,97884,5,2,3:0:0:0:
80,124,98079,1,8,1:0:0:0:
48,232,98275,1,8,1:0:0:0:
140,300,98470,2,0,B|228:300|228:300|300:300|312:232,1,207.999990478516,4|8,3:0|1:0,0:0:0:0:
200,231,99054,2,0,B|212:299|284:299|284:299|372:299,1,207.999990478516
452,216,99639,1,8,1:0:0:0:
340,16,100028,6,0,L|312:124,1,103.999995239258,4|2,3:0|3:0,0:0:0:0:
199,116,100418,2,0,L|168:8,1,103.999995239258,8|0,1:0|0:0,0:0:0:0:
256,0,100807,5,4,0:0:0:0:
400,220,101586,2,0,L|380:296,1,75.9999979705811
336,372,101975,2,0,P|284:340|268:344,1,75.9999979705811
192,376,102365,1,4,0:0:0:0:
32,104,103923,6,0,B|76:68|124:92|192:124|244:56,2,227.999993911743,4|0|0,0:0|0:0|0:0,0:0:0:0:
32,104,105482,6,0,P|104:88|188:180,1,204.000003890991,4|8,0:0|0:3,0:0:0:0:
192,332,106456,1,4,0:3:0:0:
192,332,106651,1,4,0:3:0:0:
328,268,107040,5,4,0:0:0:0:
392,224,107235,2,0,P|332:192|252:260,1,180.000006866455,0|8,0:0|0:1,0:0:0:0:
212,316,108014,2,0,B|226:284|190:264|158:246|172:212,1,120.000004577637
208,144,108599,1,0,0:0:0:0:
224,72,108794,2,0,B|184:40|136:64|136:64|104:24|60:40,1,180.000006866455,0|8,0:0|0:1,0:0:0:0:
16,96,109573,6,0,P|24:152|64:176,1,103.999995239258
132,160,110157,1,0,0:0:0:0:
132,160,110352,1,0,0:0:0:0:
272,136,110742,2,0,B|272:104|320:80|412:112|412:244|296:220|264:320|264:320|216:228|112:268|68:152|160:72|224:108|232:140,1,675.999969055177,0|4,0:0|0:0,0:0:0:0:
264,318,114053,5,8,0:1:0:0:
328,273,114248,1,2,0:0:0:0:
401,298,114443,2,0,P|403:263|423:241,1,60.0000022888184
488,210,114832,2,0,L|436:169,1,60.0000022888184,4|0,0:3|0:0,0:0:0:0:
441,94,115222,2,0,L|375:126,1,60.0000022888184,4|0,0:3|0:0,0:0:0:0:
325,71,115612,1,8,0:1:0:0:
255,106,115807,1,0,0:0:0:0:
248,183,116001,1,0,0:0:0:0:
258,260,116196,6,0,B|191:255|191:255|137:276,1,120.000004577637,0|0,0:3|0:0,0:0:0:0:
84,327,116781,2,2,B|170:287|170:287|257:296|257:296|289:271|289:271|288:242|288:242|373:167,1,360.000013732911,2|4,0:0|0:3,0:0:0:0:
490,72,118339,1,4,0:3:0:0:
501,227,118729,5,8,0:1:0:0:
471,298,118923,2,0,P|430:284|393:294,2,60.0000022888184
428,363,119508,2,0,B|380:355|380:355|377:345|377:345|340:339,2,90.0000034332277,4|0|0,0:0|0:0|0:0,0:0:0:0:
472,298,120287,2,0,P|493:268|511:262,3,40.000001525879,8|2|0|0,0:1|0:0|0:0|0:0,0:0:0:0:
193,347,121651,5,0,0:0:0:0:
168,272,121846,2,0,P|204:249|296:264,1,120.000004577637,8|0,0:1|0:0,0:0:0:0:
339,302,122430,2,2,P|317:256|343:181,1,120.000004577637,2|0,0:0|0:0,0:0:0:0:
378,127,123014,2,0,L|402:102,2,30.0000011444092,0|2|0,0:0|0:0|0:0,0:0:0:0:
333,191,123404,2,0,B|305:228|305:228|274:264|313:323|268:384|186:378|126:315|167:242|223:243,1,360.000013732911,8|4,0:1|0:3,0:0:0:0:
49,321,124962,5,8,0:1:0:0:
8,250,125157,1,8,0:3:0:0:
58,186,125352,1,4,0:3:0:0:
135,211,125547,1,0,3:0:0:0:
130,291,125742,2,0,P|176:283|220:218,1,120.000004577637,4|0,0:0|0:0,0:0:0:0:
179,69,126521,2,0,L|238:90,1,60.0000022888184,8|0,0:1|0:0,0:0:0:0:
282,22,126910,2,0,P|302:43|333:52,1,60.0000022888184
403,15,127300,2,0,P|363:65|365:127,2,120.000004577637,4|4|8,0:3|0:3|0:1,0:0:0:0:
493,240,128664,6,0,B|468:259|436:245|436:245|410:269|379:261,1,120.000004577637,2|0,0:0|0:0,0:0:0:0:
317,211,129248,1,0,0:0:0:0:
265,148,129443,2,0,P|207:119|154:130,1,120.000004577637,2|0,0:0|0:0,0:0:0:0:
91,180,130027,2,0,B|99:133|99:133|86:111|86:111|93:62,2,120.000004577637,2|4|4,3:0|0:3|0:3,0:0:0:0:
167,322,131196,5,8,0:1:0:0:
240,355,131391,1,0,0:0:0:0:
294,295,131586,1,2,0:3:0:0:
260,221,131781,1,0,0:0:0:0:
181,238,131975,2,0,P|222:194|227:135,1,120.000004577637,0|0,3:0|0:0,0:0:0:0:
123,11,132755,2,0,P|90:29|73:58,1,60.0000022888184,8|0,0:1|0:0,0:0:0:0:
12,95,133144,2,0,L|66:136,1,60.0000022888184,2|0,0:3|0:0,0:0:0:0:
125,179,133534,2,0,B|86:167|67:183|37:211|1:186,2,120.000004577637,4|4|8,3:0|0:3|0:1,0:0:0:0:
418,316,134897,6,0,P|450:280|454:208,1,120.000004577637
432,132,135482,2,0,B|412:80|412:80|388:16|316:16|316:16|196:16|196:16|124:16|100:80|100:80|80:132,1,480.000018310548,0|4,0:0|0:3,0:0:0:0:
120,288,137430,5,8,0:1:0:0:
200,308,137625,1,8,0:3:0:0:
244,240,137819,1,4,0:3:0:0:
196,176,138014,1,4,0:3:0:0:
120,204,138209,2,0,P|168:168|176:104,1,120.000004577637,4|2,0:0|0:0,0:0:0:0:
40,28,138988,2,0,L|28:96,1,60.0000022888184,8|0,0:1|3:0,0:0:0:0:
87,144,139378,2,0,P|60:155|40:177,1,60.0000022888184
32,260,139768,2,0,P|92:244|140:276,2,120.000004577637,0|2|8,3:0|0:0|0:1,0:0:0:0:
332,144,141326,5,4,0:3:0:0:
304,220,141521,2,0,B|336:192|364:208|388:224|416:200,2,120.000004577637,2|0|0,0:0|3:0|0:0,0:0:0:0:
232,256,142495,1,2,0:3:0:0:
156,228,142690,1,2,0:0:0:0:
156,228,143079,2,2,B|168:180|168:180|180:132|244:96|288:144|280:164|320:204|380:176,1,300.000011444092,0|0,0:0|3:0,0:0:0:0:
420,20,144443,5,4,0:0:0:0:
420,20,145222,1,8,0:1:0:0:
92,20,146001,5,0,0:0:0:0:
92,20,146780,1,8,0:1:0:0:
420,20,147560,6,0,L|339:36,1,80,4|0,0:0|3:0,0:0:0:0:
300,120,147949,2,0,P|340:116|380:132,1,80,0|0,3:0|3:0,0:0:0:0:
432,240,148338,6,0,P|372:232|336:252,1,103.999995239258,0|0,3:0|3:0,0:0:0:0:
260,336,148727,2,0,L|152:320,1,103.999995239258,0|0,3:0|3:0,0:0:0:0:
44,304,149118,5,0,3:0:0:0:
8,196,149313,1,0,3:0:0:0:
120,216,149508,1,0,3:0:0:0:
84,108,149702,1,0,3:0:0:0:
196,132,149897,6,0,P|224:116|252:112,2,51.999997619629,8|4|8,1:0|1:3|1:0,0:0:0:0:
264,224,150287,1,8,1:0:0:0:
284,335,150482,6,0,P|310:329|332:316,1,51.999997619629,8|8,1:0|1:0,0:0:0:0:
368,272,150676,5,4,1:2:0:0:
404,164,150871,2,0,B|436:156|452:176|468:196|504:188,2,103.999995239258,2|8|8,0:3|1:0|1:0,0:0:0:0:
348,64,151456,2,0,P|256:22|164:64,1,207.999990478516,4|8,0:3|1:0,0:0:0:0:
16,236,152235,2,0,P|4:292|28:328,1,103.999995239258,4|0,3:0|0:0,0:0:0:0:
128,272,152624,1,8,1:0:0:0:
228,216,152819,2,0,P|216:272|240:308,1,103.999995239258,0|0,1:0|0:0,0:0:0:0:
340,252,153208,1,0,0:0:0:0:
452,284,153404,2,0,B|404:240|440:184|464:200|500:144|452:100,1,207.999990478516,8|4,1:0|3:0,0:0:0:0:
340,80,153988,6,0,L|408:0,2,103.999995239258,2|8|8,0:3|1:0|1:0,0:0:0:0:
356,192,154572,2,0,B|304:212|256:184|256:184|208:212|156:192,1,207.999990478516,4|8,3:0|1:0,0:0:0:0:
20,376,155352,2,0,L|132:360,1,103.999995239258,4|0,0:3|0:0,0:0:0:0:
236,348,155741,1,8,1:0:0:0:
176,252,155936,2,0,L|288:236,1,103.999995239258,0|0,1:0|0:0,0:0:0:0:
392,224,156325,1,0,0:0:0:0:
344,120,156521,6,0,B|324:80|288:80|288:80|224:80|224:80|188:80|168:120,1,207.999990478516,8|4,1:0|3:0,0:0:0:0:
164,232,157105,2,0,P|208:260|256:252,2,103.999995239258,2|8|8,0:3|1:0|1:0,0:0:0:0:
60,284,157689,2,0,B|108:240|72:184|48:200|12:144|60:100,1,207.999990478516,4|8,3:0|1:0,0:0:0:0:
276,24,158469,2,0,L|384:40,1,103.999995239258,4|0,3:0|0:0,0:0:0:0:
492,56,158858,1,8,1:0:0:0:
420,144,159053,2,0,L|312:160,1,103.999995239258,0|0,1:0|0:0,0:0:0:0:
204,176,159442,1,0,0:0:0:0:
156,280,159637,2,0,B|200:312|232:268|256:272|280:268|312:312|356:280,1,207.999990478516,8|4,1:0|3:0,0:0:0:0:
464,240,160222,5,2,0:3:0:0:
376,168,160417,1,8,1:0:0:0:
480,124,160611,1,8,1:0:0:0:
392,52,160806,2,0,P|284:96|256:176,1,207.999990478516,4|8,3:0|1:0,0:0:0:0:
120,52,161585,2,0,P|228:96|256:176,1,207.999990478516,4|8,3:0|1:0,0:0:0:0:
168,252,162170,2,0,P|256:300|344:252,1,207.999990478516,8|8,1:0|0:1,0:0:0:0:
356,140,162754,2,0,B|304:120|256:148|256:148|208:120|156:140,1,207.999990478516,8|4,0:1|1:2,0:0:0:0:
48,96,163339,6,0,P|40:148|56:200,2,103.999995239258,2|8|8,0:3|1:0|1:0,0:0:0:0:
156,56,163923,2,0,B|220:36|220:36|256:24|292:36|292:36|356:56,1,207.999990478516,4|8,3:0|1:0,0:0:0:0:
468,256,164702,2,0,P|412:260|372:288,1,103.999995239258,4|0,3:0|0:0,0:0:0:0:
288,364,165092,1,8,1:0:0:0:
244,256,165287,2,0,P|188:252|148:224,1,103.999995239258,0|0,1:0|0:0,0:0:0:0:
64,148,165677,1,0,0:0:0:0:
156,80,165871,2,0,B|224:48|256:80|288:112|356:80,1,207.999990478516,8|4,1:0|3:0,0:0:0:0:
464,36,166456,6,0,P|468:88|448:136,2,103.999995239258,2|8|8,0:3|1:0|1:0,0:0:0:0:
356,79,167040,2,0,B|316:25|257:44|257:44|162:77,1,207.999990478516,4|8,3:0|1:0,0:0:0:0:
256,288,167818,2,0,L|155:323,1,103.999995239258,4|0,3:0|0:0,0:0:0:0:
48,356,168209,1,8,1:0:0:0:
76,244,168404,2,0,L|41:143,1,103.999995239258,0|0,1:0|0:0,0:0:0:0:
52,32,168793,1,0,0:0:0:0:
156,79,168988,2,0,B|195:25|254:44|254:44|349:77,1,207.999990478516,8|4,1:0|3:0,0:0:0:0:
456,96,169572,6,0,P|448:36|420:-4,2,103.999995239258,2|8|8,0:3|1:0|1:0,0:0:0:0:
356,152,170157,2,0,B|312:184|280:140|256:144|232:140|200:184|156:152,1,207.999990478516,4|8,3:0|1:0,0:0:0:0:
16,332,170935,2,0,P|52:356|111:355,1,103.999995239258,4|0,3:0|0:0,0:0:0:0:
92,240,171326,1,8,1:0:0:0:
200,280,171521,2,0,P|236:304|295:303,1,103.999995239258,0|0,1:0|0:0,0:0:0:0:
272,192,171910,1,0,0:0:0:0:
352,112,172105,2,0,B|304:72|256:104|256:120|208:152|160:112,1,207.999990478516,8|4,1:0|3:0,0:0:0:0:
64,48,172688,5,2,0:3:0:0:
4,148,172883,1,8,1:0:0:0:
100,208,173079,1,8,1:0:0:0:
100,324,173274,2,0,P|199:328|255:245,1,207.999990478516,4|8,3:0|1:0,0:0:0:0:
256,138,173858,2,0,P|312:55|411:59,1,207.999990478516,0|4,0:0|0:3,0:0:0:0:
492,144,174443,1,8,1:1:0:0:
408,356,174832,6,0,L|300:384,1,103.999995239258,4|8,0:3|1:1,0:0:0:0:
204,382,175222,2,0,L|104:356,1,103.999995239258,8|4,0:3|0:3,0:0:0:0:
64,272,175611,5,4,1:2:0:0:
64,272,176000,1,0,0:0:0:0:
64,272,176390,2,0,L|108:200,1,75.9999979705811,0|0,3:0|0:0,0:0:0:0:
112,124,176779,2,0,P|140:148|184:152,1,75.9999979705811,2|0,0:3|0:0,0:0:0:0:
176,68,177169,1,4,0:0:0:0:
176,68,177559,1,0,0:0:0:0:
416,300,178727,6,0,B|376:300|336:284|336:284|308:304|308:304|256:288|212:296,2,204.000003890991,4|0|2,0:0|0:0|0:3,0:0:0:0:
456,156,180286,2,0,P|408:92|292:92,2,204.000003890991,4|8|4,0:0|0:3|0:3,0:0:0:0:
328,236,181844,5,4,0:0:0:0:
136,132,182623,1,8,0:1:0:0:
348,76,183403,1,4,0:3:0:0:
240,100,183792,1,4,0:3:0:0:
132,88,184182,1,8,0:1:0:0:
20,244,184961,6,0,P|36:308|104:352,1,120.000004577637,4|0,0:0|0:0,0:0:0:0:
152,276,185722,6,0,B|188:252|216:308|260:268,1,103.999995239258,8|0,0:1|0:0,0:0:0:0:
260,192,186506,6,0,P|304:160|336:160,1,64,4|0,0:0|0:0,0:0:0:0:
320,76,187351,5,8,0:1:0:0:
368,96,187591,1,0,3:0:0:0:
396,140,187831,1,2,0:3:0:0:
352,236,188311,5,4,1:2:0:0:
256,192,188551,12,0,193111,0:0:0:0:
