osu file format v14

[General]
AudioFilename: audio.mp3
AudioLeadIn: 0
PreviewTime: 150482
Countdown: 0
SampleSet: Soft
StackLeniency: 0.3
Mode: 0
LetterboxInBreaks: 0
WidescreenStoryboard: 1

[Editor]
DistanceSpacing: 1
BeatDivisor: 8
GridSize: 4
TimelineZoom: 2.100001

[Metadata]
Title:Nada valgo sin tu amor
TitleUnicode:Nada valgo sin tu amor
Artist:Juanes
ArtistUnicode:Juanes
Creator:Krisom
Version:Desafiante
Source:
Tags:EspaƱol Spanish Pop Rock Alternative Mi Sangre Colombia
BeatmapID:3933505
BeatmapSetID:1907523

[Difficulty]
HPDrainRate:5.2
CircleSize:4.2
OverallDifficulty:6.9
ApproachRate:8.5
SliderMultiplier:1.8
SliderTickRate:1

[Events]
//Background and Video events
0,0,"JUANES.jpg",0,0
//Break Periods
//Storyboard Layer 0 (Background)
//Storyboard Layer 1 (Fail)
//Storyboard Layer 2 (Pass)
//Storyboard Layer 3 (Foreground)
//Storyboard Layer 4 (Overlay)
//Storyboard Sound Samples

[TimingPoints]
-11399,779.220779220779,4,2,1,60,1,0
28730,-100,4,2,1,5,0,0
29120,-100,4,2,1,60,0,0
31653,-100,4,2,1,5,0,0
31945,-100,4,2,1,60,0,0
37497,-62.5,4,2,1,60,0,0
47627,-66.6666666666667,4,2,1,60,0,0
49380,-62.5,4,2,1,60,0,0
61068,-66.6666666666667,4,2,1,60,0,0
61848,-71.4285714285714,4,2,1,60,0,0
62627,-62.5,4,2,1,60,0,0
72756,389.61038961039,4,2,1,60,1,0
72756,-111.111111111111,4,2,1,60,0,0
73048,-100,4,2,1,60,0,0
73437,-90.9090909090909,4,2,1,60,0,0
73827,-83.3333333333333,4,2,1,60,0,0
74217,-76.9230769230769,4,2,1,60,0,0
75872,389.61038961039,4,2,1,60,1,1
75872,-76.9230769230769,4,2,1,60,0,1
76944,-76.9230769230769,4,2,1,5,0,1
77041,-76.9230769230769,4,2,1,60,0,1
77333,-76.9230769230769,4,2,1,5,0,1
77431,-76.9230769230769,4,2,1,60,0,1
77723,-76.9230769230769,4,2,1,5,0,1
77820,-76.9230769230769,4,2,1,60,0,1
78307,-76.9230769230769,4,2,1,5,0,1
78405,-76.9230769230769,4,2,1,60,0,1
78892,-76.9230769230769,4,2,1,5,0,1
78989,-76.9230769230769,4,2,1,60,0,1
80061,-76.9230769230769,4,2,1,5,0,1
80158,-76.9230769230769,4,2,1,60,0,1
80450,-76.9230769230769,4,2,1,5,0,1
80548,-76.9230769230769,4,2,1,60,0,1
80840,-76.9230769230769,4,2,1,5,0,1
80937,-76.9230769230769,4,2,1,60,0,1
81424,-76.9230769230769,4,2,1,5,0,1
81522,-76.9230769230769,4,2,1,60,0,1
82009,-76.9230769230769,4,2,1,5,0,1
82106,-76.9230769230769,4,2,1,60,0,1
83178,-76.9230769230769,4,2,1,5,0,1
83275,-76.9230769230769,4,2,1,60,0,1
83567,-76.9230769230769,4,2,1,5,0,1
83665,-76.9230769230769,4,2,1,60,0,1
83957,-76.9230769230769,4,2,1,5,0,1
84054,-76.9230769230769,4,2,1,60,0,1
84541,-76.9230769230769,4,2,1,5,0,1
84639,-76.9230769230769,4,2,1,60,0,1
85126,-76.9230769230769,4,2,1,5,0,1
85223,-76.9230769230769,4,2,1,60,0,1
86294,-76.9230769230769,4,2,1,5,0,1
86392,-76.9230769230769,4,2,1,60,0,1
86684,-76.9230769230769,4,2,1,5,0,1
86781,-76.9230769230769,4,2,1,60,0,1
87074,-76.9230769230769,4,2,1,5,0,1
87171,-76.9230769230769,4,2,1,60,0,1
87658,-76.9230769230769,4,2,1,5,0,1
87756,-76.9230769230769,4,2,1,60,0,1
89411,-76.9230769230769,4,2,1,5,0,1
89509,-76.9230769230769,4,2,1,60,0,1
89801,-76.9230769230769,4,2,1,5,0,1
89898,-76.9230769230769,4,2,1,60,0,1
90191,-76.9230769230769,4,2,1,5,0,1
90288,-76.9230769230769,4,2,1,60,0,1
90775,-76.9230769230769,4,2,1,5,0,1
90872,-76.9230769230769,4,2,1,60,0,1
91359,-76.9230769230769,4,2,1,5,0,1
91457,-76.9230769230769,4,2,1,60,0,1
92528,-76.9230769230769,4,2,1,5,0,1
92626,-76.9230769230769,4,2,1,60,0,1
92918,-76.9230769230769,4,2,1,5,0,1
93015,-76.9230769230769,4,2,1,60,0,1
93307,-76.9230769230769,4,2,1,5,0,1
93405,-76.9230769230769,4,2,1,60,0,1
93892,-76.9230769230769,4,2,1,5,0,1
93989,-76.9230769230769,4,2,1,60,0,1
94476,-76.9230769230769,4,2,1,5,0,1
94574,-76.9230769230769,4,2,1,60,0,1
95645,-76.9230769230769,4,2,1,5,0,1
95743,-76.9230769230769,4,2,1,60,0,1
96035,-76.9230769230769,4,2,1,5,0,1
96132,-76.9230769230769,4,2,1,60,0,1
96424,-76.9230769230769,4,2,1,5,0,1
96522,-76.9230769230769,4,2,1,60,0,1
97009,-76.9230769230769,4,2,1,5,0,1
97106,-76.9230769230769,4,2,1,60,0,1
97593,-76.9230769230769,4,2,1,5,0,1
97691,-76.9230769230769,4,2,1,60,0,1
98762,-76.9230769230769,4,2,1,5,0,1
98859,-76.9230769230769,4,2,1,60,0,1
99346,-76.9230769230769,4,2,1,5,0,1
99444,-76.9230769230769,4,2,1,60,0,1
99931,-76.9230769230769,4,2,1,5,0,1
100028,-76.9230769230769,4,2,1,60,0,1
100807,779.220779220779,4,2,1,60,1,0
101001,-66.6666666666667,4,2,1,60,0,0
103534,-66.6666666666667,4,2,1,5,0,0
103923,-66.6666666666667,4,2,1,60,0,0
110936,-76.9230769230769,4,2,1,60,0,0
111716,-90.9090909090909,4,2,1,60,0,0
113274,-62.5,4,2,1,60,0,0
117755,-62.5,4,2,1,5,0,0
117949,-62.5,4,2,1,60,0,0
135871,-71.4285714285714,4,2,1,60,0,0
136651,-83.3333333333333,4,2,1,60,0,0
137430,-62.5,4,2,1,60,0,0
147560,389.61038961039,4,2,1,60,1,0
147560,-111.111111111111,4,2,1,60,0,0
147852,-100,4,2,1,60,0,0
148241,-90.9090909090909,4,2,1,60,0,0
148631,-83.3333333333333,4,2,1,60,0,0
150676,389.61038961039,4,2,1,60,1,1
150676,-74.0740740740741,4,2,1,60,0,1
151748,-74.0740740740741,4,2,1,5,0,1
151845,-74.0740740740741,4,2,1,60,0,1
152137,-74.0740740740741,4,2,1,5,0,1
152235,-74.0740740740741,4,2,1,60,0,1
152527,-74.0740740740741,4,2,1,5,0,1
152624,-74.0740740740741,4,2,1,60,0,1
153111,-74.0740740740741,4,2,1,5,0,1
153209,-74.0740740740741,4,2,1,60,0,1
153696,-74.0740740740741,4,2,1,5,0,1
153793,-74.0740740740741,4,2,1,60,0,1
154864,-74.0740740740741,4,2,1,5,0,1
154962,-74.0740740740741,4,2,1,60,0,1
155254,-74.0740740740741,4,2,1,5,0,1
155352,-74.0740740740741,4,2,1,60,0,1
155644,-74.0740740740741,4,2,1,5,0,1
155741,-74.0740740740741,4,2,1,60,0,1
156228,-74.0740740740741,4,2,1,5,0,1
156326,-74.0740740740741,4,2,1,60,0,1
156813,-74.0740740740741,4,2,1,5,0,1
156910,-74.0740740740741,4,2,1,60,0,1
157981,-74.0740740740741,4,2,1,5,0,1
158079,-74.0740740740741,4,2,1,60,0,1
158371,-74.0740740740741,4,2,1,5,0,1
158469,-74.0740740740741,4,2,1,60,0,1
158761,-74.0740740740741,4,2,1,5,0,1
158858,-74.0740740740741,4,2,1,60,0,1
159345,-74.0740740740741,4,2,1,5,0,1
159443,-74.0740740740741,4,2,1,60,0,1
159930,-74.0740740740741,4,2,1,5,0,1
160027,-74.0740740740741,4,2,1,60,0,1
161098,-74.0740740740741,4,2,1,5,0,1
161196,-74.0740740740741,4,2,1,60,0,1
161488,-74.0740740740741,4,2,1,5,0,1
161585,-74.0740740740741,4,2,1,60,0,1
161877,-74.0740740740741,4,2,1,5,0,1
161975,-74.0740740740741,4,2,1,60,0,1
164215,-74.0740740740741,4,2,1,5,0,1
164313,-74.0740740740741,4,2,1,60,0,1
164605,-74.0740740740741,4,2,1,5,0,1
164702,-74.0740740740741,4,2,1,60,0,1
164995,-74.0740740740741,4,2,1,5,0,1
165092,-74.0740740740741,4,2,1,60,0,1
165579,-74.0740740740741,4,2,1,5,0,1
165676,-74.0740740740741,4,2,1,60,0,1
166163,-74.0740740740741,4,2,1,5,0,1
166261,-74.0740740740741,4,2,1,60,0,1
167332,-74.0740740740741,4,2,1,5,0,1
167430,-74.0740740740741,4,2,1,60,0,1
167722,-74.0740740740741,4,2,1,5,0,1
167819,-74.0740740740741,4,2,1,60,0,1
168111,-74.0740740740741,4,2,1,5,0,1
168209,-74.0740740740741,4,2,1,60,0,1
168696,-74.0740740740741,4,2,1,5,0,1
168793,-74.0740740740741,4,2,1,60,0,1
169280,-74.0740740740741,4,2,1,5,0,1
169378,-74.0740740740741,4,2,1,60,0,1
170449,-74.0740740740741,4,2,1,5,0,1
170547,-74.0740740740741,4,2,1,60,0,1
170839,-74.0740740740741,4,2,1,5,0,1
170936,-74.0740740740741,4,2,1,60,0,1
171228,-74.0740740740741,4,2,1,5,0,1
171326,-74.0740740740741,4,2,1,60,0,1
171813,-74.0740740740741,4,2,1,5,0,1
171910,-74.0740740740741,4,2,1,60,0,1
172397,-74.0740740740741,4,2,1,5,0,1
172495,-74.0740740740741,4,2,1,60,0,1
173566,-74.0740740740741,4,2,1,5,0,1
173663,-74.0740740740741,4,2,1,60,0,1
174150,-74.0740740740741,4,2,1,5,0,1
174248,-74.0740740740741,4,2,1,60,0,1
175611,779.220779220779,4,2,1,60,1,0
183012,-100,4,2,1,5,0,0
183403,-100,4,2,1,60,0,0
184961,761.904761904762,4,2,1,60,1,0
185722,784.313725490196,4,2,1,60,1,0
185722,-125,4,2,1,60,0,0
186506,845.070422535211,4,2,1,60,1,0
186506,-125,4,2,1,60,0,0
187351,960,4,2,1,60,1,0
188311,960,4,2,1,60,1,0
188583,-100,4,2,1,50,0,0
189333,-100,4,2,1,45,0,0
190083,-100,4,2,1,40,0,0
190833,-100,4,2,1,35,0,0
191583,-100,4,2,1,25,0,0
192333,-100,4,2,1,15,0,0
193083,-100,4,2,1,5,0,0

[Colours]
Combo1 : 208,24,248
Combo2 : 150,12,233

[HitObjects]
108,347,289,6,0,L|101:290,1,45,0|0,3:0|0:0,0:0:0:0:
60,275,679,2,0,L|53:218,1,45
48,180,1068,2,0,P|92:172|136:180,1,90,8|0,0:0|0:0,0:0:0:0:
232,204,1848,1,0,3:0:0:0:
280,212,2042,1,0,0:0:0:0:
328,200,2237,1,0,0:0:0:0:
364,168,2432,1,0,0:0:0:0:
372,120,2627,1,10,0:0:0:0:
372,120,3016,2,0,B|328:92|276:116|284:132|248:156|200:132,1,180,0|0,0:0|3:0,0:0:0:0:
164,100,3990,1,0,0:0:0:0:
144,56,4185,6,0,P|104:48|64:76,1,90,8|0,0:0|0:0,0:0:0:0:
52,124,4770,2,0,B|40:152|68:164|92:176|80:212,1,90,2|0,0:0|0:0,0:0:0:0:
68,252,5354,2,2,B|108:284|152:264|152:264|192:292|240:272,1,180,0|0,0:0|0:0,0:0:0:0:
264,232,6328,1,0,0:0:0:0:
304,204,6523,2,0,P|328:200|360:204,1,45,0|0,3:0|0:0,0:0:0:0:
388,168,6913,2,0,P|408:184|444:184,1,45,2|0,0:0|0:0,0:0:0:0:
476,172,7302,6,0,P|460:208|480:256,1,90,8|0,0:0|0:0,0:0:0:0:
504,348,8081,1,0,3:0:0:0:
460,324,8276,1,0,0:0:0:0:
412,320,8471,1,0,0:0:0:0:
364,336,8666,1,0,0:0:0:0:
328,372,8861,1,10,0:0:0:0:
328,372,9250,2,0,B|281:388|234:365|248:344|209:316|155:337,1,180,0|0,0:0|3:0,0:0:0:0:
64,312,10419,6,0,P|64:260|48:220,1,90,8|0,0:0|0:0,0:0:0:0:
64,312,11003,1,0,0:0:0:0:
152,276,11198,2,0,P|137:226|111:191,1,90,8|0,0:0|0:0,0:0:0:0:
152,276,11782,1,0,0:0:0:0:
225,214,11977,2,0,P|196:170|161:145,1,90,8|0,0:0|0:0,0:0:0:0:
225,214,12561,1,0,0:0:0:0:
280,152,12757,2,0,P|264:136|244:120,1,45,8|0,3:2|0:0,0:0:0:0:
204,96,13146,2,0,P|180:84|156:76,1,45,2|0,0:0|0:0,0:0:0:0:
116,60,13536,6,0,P|160:64|204:48,1,90,8|0,0:0|0:0,0:0:0:0:
292,6,14315,1,0,3:0:0:0:
341,2,14510,1,0,0:0:0:0:
386,21,14705,1,2,0:0:0:0:
400,68,14900,1,0,0:0:0:0:
382,114,15094,1,8,3:2:0:0:
382,114,15484,2,0,B|357:152|380:190|397:181|432:234|387:280,1,180,0|0,0:0|3:0,0:0:0:0:
353,314,16458,1,0,0:0:0:0:
305,326,16653,6,0,P|256:337|210:318,1,90,8|0,0:0|0:0,0:0:0:0:
173,342,17237,2,0,B|168:303|168:303|164:273|138:261,1,90,2|0,0:0|0:0,0:0:0:0:
91,255,17822,1,0,0:0:0:0:
91,255,18211,2,0,P|45:269|53:202,1,135,8|0,3:2|0:0,0:0:0:0:
92,184,18990,2,0,P|117:183|146:165,1,45,0|0,3:0|0:0,0:0:0:0:
161,132,19380,2,0,P|186:131|215:113,1,45,2|0,0:0|0:0,0:0:0:0:
228,79,19770,6,0,B|200:91|188:63|176:39|140:51,1,90,8|0,0:0|0:0,0:0:0:0:
50,52,20549,1,0,3:0:0:0:
8,79,20744,1,0,0:0:0:0:
8,128,20939,1,2,0:0:0:0:
45,159,21133,1,0,0:0:0:0:
94,151,21328,1,8,3:2:0:0:
94,151,21718,2,0,B|126:122|179:145|159:160|223:178|264:147,1,180,0|0,0:0|3:0,0:0:0:0:
330,73,22887,6,0,P|331:116|346:162,1,90,8|0,0:0|0:0,0:0:0:0:
330,73,23471,1,0,0:0:0:0:
410,106,23666,2,0,P|411:149|426:195,1,90,8|0,0:0|0:0,0:0:0:0:
410,106,24250,1,0,0:0:0:0:
490,139,24445,2,0,P|491:182|506:228,1,90,8|0,0:0|0:0,0:0:0:0:
490,139,25029,1,0,0:0:0:0:
499,62,25224,2,0,P|480:51|458:47,1,45,0|0,3:0|0:0,0:0:0:0:
412,65,25614,2,0,P|392:53|370:49,1,45
322,62,26003,6,0,B|292:66|276:53|276:53|257:63|228:48,1,90,2|0,3:0|0:0,0:0:0:0:
145,9,26783,1,0,3:0:0:0:
95,6,26977,1,0,0:0:0:0:
50,27,27172,1,0,0:0:0:0:
28,71,27367,1,0,0:0:0:0:
34,120,27562,1,2,3:0:0:0:
34,120,27951,2,0,P|116:115|194:167,1,180
215,264,29120,5,2,3:0:0:0:
215,264,29315,1,0,0:0:0:0:
308,232,29705,1,0,0:0:0:0:
402,260,30094,1,0,0:0:0:0:
448,275,30289,1,2,0:0:0:0:
486,243,30484,1,0,0:0:0:0:
484,143,30874,2,0,B|471:115|430:148|416:151|399:145|393:106|383:99|366:99|345:130|334:116|305:126|291:72,1,225
199,16,32237,5,2,3:0:0:0:
149,12,32432,2,0,P|98:19|50:86,1,135
57,131,33211,2,0,B|84:143|116:108|145:124,1,90
183,154,33796,1,2,3:0:0:0:
211,194,33990,2,0,B|240:220|277:206|277:206|309:228|347:208,1,135
383,191,34770,5,0,0:0:0:0:
479,169,35159,1,0,0:0:0:0:
449,265,35549,1,0,0:0:0:0:
449,265,35744,1,0,0:0:0:0:
373,200,36133,2,0,B|373:151|405:158|432:124|394:81|355:125|355:125|302:100|280:149|321:176|349:158|363:187,1,270,0|0,3:0|0:0,0:0:0:0:
327,321,37692,5,8,0:1:0:0:
255,375,37887,1,8,0:3:0:0:
201,303,38081,1,4,0:3:0:0:
127,354,38276,1,0,0:0:0:0:
74,280,38471,2,0,B|64:219|64:219|57:171|106:148,1,144,4|2,0:0|0:0,0:0:0:0:
276,116,39250,1,8,0:1:0:0:
269,26,39445,1,0,0:0:0:0:
355,0,39640,1,2,3:0:0:0:
416,65,39835,1,0,0:0:0:0:
359,134,40029,2,0,B|323:118|287:134|295:150|259:166|223:150,1,144,4|4,3:0|3:0,0:0:0:0:
56,77,40809,5,8,0:1:0:0:
142,101,41003,1,0,0:0:0:0:
78,164,41198,1,2,0:3:0:0:
164,188,41392,1,0,0:0:0:0:
100,252,41588,2,0,P|164:214|230:229,1,144,4|2,3:0|0:0,0:0:0:0:
388,316,42367,2,0,B|332:360|284:332|276:284|256:292|236:284|228:332|180:360|124:316,1,288,8|4,0:1|0:3,0:0:0:0:
123,315,43536,1,4,0:3:0:0:
68,144,43926,5,8,0:1:0:0:
156,160,44120,1,0,0:0:0:0:
124,76,44315,1,2,3:0:0:0:
68,144,44510,1,0,0:0:0:0:
156,160,44705,2,0,B|192:184|224:168|224:168|256:192|292:180,1,144,4|2,3:0|0:0,0:0:0:0:
456,108,45484,1,8,0:1:0:0:
432,196,45679,1,0,0:0:0:0:
388,116,45874,1,2,0:3:0:0:
364,204,46069,1,0,0:0:0:0:
320,124,46263,2,0,B|284:112|252:132|260:152|224:168|184:152,3,144,4|4|8|0,0:3|0:3|0:1|0:0,0:0:0:0:
112,204,47627,6,0,B|104:149|11:153|-27:211|3:293|80:269|73:362|73:362|127:281|174:347|247:285|251:207|181:169|127:207,1,607.500023174287,2|4,0:0|0:3,0:0:0:0:
456,360,50159,5,2,3:3:0:0:
368,364,50354,1,0,0:0:0:0:
320,288,50549,1,2,0:0:0:0:
232,292,50744,1,0,0:0:0:0:
184,216,50939,2,0,B|124:220|124:220|72:224|52:184,1,144,4|0,3:0|3:0,0:0:0:0:
120,20,51718,1,8,0:1:0:0:
164,96,51913,1,0,0:0:0:0:
248,68,52107,1,2,3:0:0:0:
296,144,52302,1,0,0:0:0:0:
384,124,52497,2,0,P|316:156|304:220,2,144,4|4|8,0:3|0:3|0:1,0:0:0:0:
252,360,53861,6,0,P|192:316|124:328,1,144,0|0,3:0|0:0,0:0:0:0:
52,380,54445,1,2,0:0:0:0:
104,308,54640,2,0,P|140:252|120:180,1,144,2|0,0:0|0:0,0:0:0:0:
64,112,55224,2,0,P|136:136|212:112,2,144,2|4|4,3:0|3:0|3:0,0:0:0:0:
32,288,56393,5,8,0:1:0:0:
52,376,56588,1,0,0:0:0:0:
116,316,56783,1,2,0:3:0:0:
96,228,56978,1,0,0:0:0:0:
12,199,57172,2,0,P|57:147|127:143,1,144,4|0,3:0|3:0,0:0:0:0:
260,264,57951,1,8,0:1:0:0:
348,244,58146,1,0,0:0:0:0:
284,180,58341,1,2,0:3:0:0:
372,160,58536,1,0,0:0:0:0:
436,224,58731,1,4,0:3:0:0:
436,224,59120,2,0,B|412:252|380:244|384:232|332:228|300:256,1,144,4|8,0:3|0:1,0:0:0:0:
16,44,60289,6,0,P|59:83|39:163,1,144,4|0,0:3|0:0,0:0:0:0:
16,44,60874,1,0,0:0:0:0:
140,60,61068,2,0,P|128:132|84:176,1,135.000005149842,8|0,0:1|0:0,0:0:0:0:
140,60,61653,1,0,0:0:0:0:
212,112,61848,2,0,P|176:156|112:176,1,125.999996154785,4|0,0:3|0:0,0:0:0:0:
212,112,62432,1,0,0:0:0:0:
276,48,62627,5,8,0:1:0:0:
360,12,62822,1,8,0:3:0:0:
428,68,63016,1,4,0:3:0:0:
384,148,63211,1,4,0:3:0:0:
296,136,63406,2,0,P|272:208|308:268,1,144,4|0,0:0|0:0,0:0:0:0:
448,368,64185,1,8,0:1:0:0:
460,280,64380,1,0,3:0:0:0:
420,200,64575,1,0,0:0:0:0:
336,168,64770,1,0,0:0:0:0:
248,180,64964,1,2,0:3:0:0:
248,180,65354,2,0,B|212:200|172:188|172:188|140:208|104:192,1,144,0|8,3:0|0:1,0:0:0:0:
428,24,66523,5,4,3:0:0:0:
428,24,66718,1,0,0:0:0:0:
392,200,67107,1,2,0:0:0:0:
300,356,67497,1,0,0:0:0:0:
232,296,67692,1,2,0:0:0:0:
320,272,67887,1,0,0:0:0:0:
412,116,68276,2,0,B|332:88|284:120|284:176|252:160|232:184|204:132|132:120|76:184,1,360
116,360,69640,5,0,3:0:0:0:
116,360,70419,1,8,0:1:0:0:
116,360,71198,5,0,3:0:0:0:
116,360,71977,1,8,0:1:0:0:
116,360,72756,6,0,L|212:344,1,80.9999975280763,4|0,3:2|3:0,0:0:0:0:
280,291,73145,2,0,L|178:275,1,90,0|0,3:0|0:3,0:0:0:0:
82,227,73535,2,0,L|187:206,1,99.0000030212403,0|0,3:1|3:0,0:0:0:0:
292,156,73924,2,0,L|178:137,1,107.999996704102,0|0,3:0|0:0,0:0:0:0:
65,74,74314,5,0,3:0:0:0:
198,56,74509,1,0,3:0:0:0:
318,120,74704,5,0,3:0:0:0:
185,138,74899,1,0,3:0:0:0:
65,202,75093,5,0,3:0:0:0:
116,328,75288,1,8,1:0:0:0:
160,340,75385,1,8,1:0:0:0:
200,316,75483,1,8,1:0:0:0:
296,216,75678,1,8,1:0:0:0:
344,212,75775,1,8,1:0:0:0:
372,248,75872,5,4,0:0:0:0:
508,248,76067,1,2,0:3:0:0:
440,128,76262,1,8,1:0:0:0:
508,8,76457,1,8,1:0:0:0:
372,8,76652,2,0,B|292:8|292:8|236:8|216:64,1,175.499991966248,4|0,3:0|0:0,0:0:0:0:
256,116,77041,2,0,B|216:140|172:124|172:108|128:92|88:116,1,175.499991966248,8|0,1:0|0:0,0:0:0:0:
68,184,77431,2,0,B|87:239|151:239|151:239|219:239,1,175.499991966248,4|0,3:0|0:0,0:0:0:0:
256,180,77820,1,8,1:0:0:0:
256,316,78015,2,0,B|275:371|339:371|339:371|407:371,1,175.499991966248,0|0,1:0|0:0,0:0:0:0:
444,312,78404,1,0,0:0:0:0:
504,188,78600,2,0,P|476:112|392:88,1,175.499991966248,8|0,1:0|0:0,0:0:0:0:
324,88,78989,5,4,0:3:0:0:
188,88,79184,1,2,0:3:0:0:
256,208,79379,1,8,1:0:0:0:
120,208,79574,1,8,1:0:0:0:
188,328,79768,2,0,B|148:304|104:320|104:336|60:352|20:328,1,175.499991966248,4|0,3:0|0:0,0:0:0:0:
12,260,80158,2,0,P|59:192|12:124,1,175.499991966248,8|0,1:0|0:0,0:0:0:0:
32,56,80548,2,0,L|212:40,1,175.499991966248,4|0,3:0|0:0,0:0:0:0:
276,36,80937,1,8,1:0:0:0:
220,160,81132,2,0,L|400:144,1,175.499991966248,0|0,1:0|0:0,0:0:0:0:
464,140,81521,1,0,0:0:0:0:
480,276,81717,2,0,P|432:328|328:316,1,175.499991966248,8|0,1:0|0:0,0:0:0:0:
324,252,82106,5,4,3:0:0:0:
188,252,82301,1,2,3:0:0:0:
256,132,82496,1,8,1:0:0:0:
392,132,82691,1,8,1:0:0:0:
340,8,82885,2,0,B|300:-4|288:36|256:28|224:36|212:-4|172:8,1,175.499991966248,4|0,3:0|0:0,0:0:0:0:
184,76,83275,2,0,P|112:112|20:88,1,175.499991966248,8|0,1:0|0:0,0:0:0:0:
4,24,83665,2,0,L|52:192,1,175.499991966248,4|0,3:0|0:0,0:0:0:0:
76,256,84054,1,8,1:0:0:0:
160,148,84249,2,0,L|208:316,1,175.499991966248,0|0,1:0|0:0,0:0:0:0:
232,380,84638,1,0,0:0:0:0:
368,352,84833,2,0,P|440:336|468:240,1,175.499991966248,8|0,1:0|0:0,0:0:0:0:
408,220,85223,5,4,3:0:0:0:
476,100,85418,1,2,0:3:0:0:
340,100,85613,1,8,1:0:0:0:
276,220,85807,1,8,1:0:0:0:
340,340,86002,2,0,B|300:364|256:348|256:332|212:316|172:340,1,175.499991966248,4|0,3:0|0:0,0:0:0:0:
108,364,86392,2,0,P|48:328|48:224,1,175.499991966248,8|0,1:0|0:0,0:0:0:0:
12,168,86781,2,0,B|31:113|95:113|95:113|163:113,1,175.499991966248,4|0,3:0|0:0,0:0:0:0:
232,116,87171,1,8,1:0:0:0:
368,116,87366,1,8,1:0:0:0:
300,236,87561,1,8,0:1:0:0:
312,372,87756,1,8,0:1:0:0:
268,360,87853,1,8,0:1:0:0:
224,348,87950,1,8,0:1:0:0:
160,228,88145,1,8,1:1:0:0:
116,216,88242,1,8,1:1:0:0:
72,204,88339,5,4,1:2:0:0:
96,68,88535,1,2,0:3:0:0:
232,92,88730,1,8,1:0:0:0:
208,228,88924,1,8,1:0:0:0:
172,360,89119,2,0,B|212:384|256:368|256:352|300:336|340:360,1,175.499991966248,4|0,0:3|0:0,0:0:0:0:
408,376,89509,2,0,P|460:324|432:236,1,175.499991966248,8|0,1:0|0:0,0:0:0:0:
440,168,89898,2,0,B|376:156|376:156|352:176|352:176|272:160,1,175.499991966248,4|0,0:3|0:0,0:0:0:0:
208,144,90288,1,8,1:0:0:0:
292,36,90483,2,0,B|228:24|228:24|204:44|204:44|124:28,1,175.499991966248,0|0,1:0|0:0,0:0:0:0:
60,12,90873,1,0,0:0:0:0:
32,144,91067,2,0,B|43:188|43:188|57:237|105:224|105:224|150:212,1,175.499991966248,8|0,1:0|0:0,0:0:0:0:
216,192,91457,5,4,0:3:0:0:
352,196,91651,1,2,0:3:0:0:
284,76,91846,1,8,1:0:0:0:
284,212,92041,1,8,1:0:0:0:
284,348,92236,2,0,B|344:348|344:348|416:348|440:288,1,175.499991966248,4|0,3:0|0:0,0:0:0:0:
488,248,92626,2,0,P|488:144|424:104,1,175.499991966248,8|0,1:0|0:0,0:0:0:0:
368,116,93015,2,0,B|328:140|284:124|284:108|240:92|200:116,1,175.499991966248,4|0,3:0|0:0,0:0:0:0:
160,172,93405,1,8,1:0:0:0:
256,268,93600,2,0,B|216:292|172:276|172:260|128:244|88:268,1,175.499991966248,0|0,1:0|0:0,0:0:0:0:
48,324,93988,1,0,0:0:0:0:
172,380,94184,2,0,B|212:392|224:352|256:360|288:352|300:392|340:380,1,175.499991966248,8|0,1:0|0:0,0:0:0:0:
380,324,94574,5,4,3:0:0:0:
440,200,94768,1,2,3:0:0:0:
496,324,94963,1,8,1:0:0:0:
380,248,95158,1,8,1:0:0:0:
448,128,95353,2,0,P|408:80|300:104,1,175.499991966248,4|0,3:0|0:0,0:0:0:0:
252,140,95743,2,0,B|216:188|168:188|168:188|92:188,1,175.499991966248,8|0,1:0|0:0,0:0:0:0:
68,256,96132,2,0,L|252:256,1,175.499991966248,4|0,3:0|0:0,0:0:0:0:
312,256,96522,1,8,1:0:0:0:
252,140,96717,2,0,L|436:140,1,175.499991966248,0|0,1:0|0:0,0:0:0:0:
496,140,97105,1,0,0:0:0:0:
432,20,97301,2,0,B|392:44|348:28|348:12|304:-4|264:20,1,175.499991966248,8|0,1:0|0:0,0:0:0:0:
212,64,97691,5,0,3:0:0:0:
144,180,97885,1,2,3:0:0:0:
76,64,98080,1,8,1:0:0:0:
212,64,98275,1,8,1:0:0:0:
284,180,98470,2,0,B|300:228|252:256|244:244|196:276|212:324,1,175.499991966248,4|0,3:0|0:0,0:0:0:0:
256,376,98859,1,8,1:0:0:0:
336,264,99054,2,0,P|256:232|176:264,1,175.499991966248
136,320,99444,1,0,0:0:0:0:
12,376,99639,2,0,B|64:360|60:300|60:300|56:224,1,175.499991966248,8|0,1:0|0:0,0:0:0:0:
48,156,100028,5,4,3:0:0:0:
180,128,100223,1,2,3:0:0:0:
316,104,100418,1,8,1:0:0:0:
448,72,100613,1,0,0:0:0:0:
448,72,100807,5,4,0:0:0:0:
448,72,101196,2,0,P|380:32|312:48,1,135.000005149842
272,96,101781,1,0,0:0:0:0:
200,132,101975,1,0,0:0:0:0:
124,108,102170,1,0,0:0:0:0:
88,36,102365,1,4,0:0:0:0:
88,36,102755,2,0,B|174:-10|220:28|274:69|346:12,1,270.000010299683
475,104,103923,6,0,P|405:172|307:169,2,202.500007724762,4|0|0,0:0|0:0|0:0,0:0:0:0:
475,104,105482,2,0,B|420:156|448:200|496:264|496:336|368:376|296:296|312:232|356:204,1,405.000015449525,4|4,0:0|0:3,0:0:0:0:
248,324,107040,6,0,B|216:296|184:320|152:344|120:312,2,135.000005149842,4|0|8,0:0|0:0|0:1,0:0:0:0:
300,264,108014,2,0,P|240:228|168:240,1,135.000005149842
104,260,108599,1,4,3:0:0:0:
28,236,108794,2,0,P|104:240|208:164,1,202.500007724762,0|8,0:0|0:1,0:0:0:0:
148,116,109573,2,0,P|96:160|24:156,1,135.000005149842
68,88,110157,6,0,P|96:152|100:220,1,135.000005149842,4|0,3:0|0:0,0:0:0:0:
68,88,110742,1,0,0:0:0:0:
192,108,110936,2,0,P|192:168|172:224,1,116.999994644165,8|0,0:1|0:0,0:0:0:0:
192,108,111521,1,0,0:0:0:0:
304,176,111716,2,0,P|272:224|228:248,1,99.0000030212403,4|8,3:0|0:1,0:0:0:0:
304,176,112300,1,8,0:3:0:0:
304,176,112690,1,4,3:0:0:0:
360,168,112884,1,4,3:0:0:0:
416,160,113079,1,0,3:0:0:0:
376,88,113274,5,4,0:0:0:0:
376,88,114053,1,8,0:1:0:0:
325,36,114248,1,2,0:0:0:0:
254,52,114443,2,0,P|219:69|179:66,1,72
54,50,114832,2,0,P|86:33|122:34,1,72,4|0,0:3|0:0,0:0:0:0:
254,52,115222,2,0,P|239:89|240:126,1,72,4|0,0:3|0:0,0:0:0:0:
121,33,115612,2,0,P|135:65|136:101,1,72,8|0,0:1|0:0,0:0:0:0:
123,172,116001,1,0,0:0:0:0:
73,224,116196,6,0,B|131:217|131:217|140:225|140:225|215:218,1,144
67,248,116781,2,2,B|125:241|125:241|134:249|134:249|225:241|225:241|244:249|244:249|266:245|266:245|283:253|283:253|303:247|303:247|319:256|319:256|342:247|342:247|368:261|368:261|399:247|399:247|426:257,1,360,2|0,0:0|0:0,0:0:0:0:
480,299,117949,5,4,0:3:0:0:
474,318,118339,1,4,0:3:0:0:
499,176,118729,1,8,0:1:0:0:
430,198,118923,1,0,0:0:0:0:
363,171,119118,1,0,0:0:0:0:
333,105,119313,1,0,0:0:0:0:
338,33,119508,6,0,P|301:72|249:69,2,108,4|0|0,0:0|0:0|0:0,0:0:0:0:
408,48,120287,2,0,P|434:34|463:35,2,48,8|2|0,0:1|0:0|0:0,0:0:0:0:
377,85,120677,2,0,B|355:134|374:158|390:181|367:225,1,144,0|4,0:0|0:3,0:0:0:0:
285,343,121456,1,4,0:3:0:0:
257,276,121651,1,0,0:0:0:0:
197,236,121845,2,0,L|50:274,1,144,8|0,0:1|0:0,0:0:0:0:
44,200,122430,2,2,P|98:159|181:173,1,144,2|0,0:0|0:0,0:0:0:0:
234,199,123014,1,0,0:0:0:0:
257,215,123112,1,2,0:0:0:0:
281,229,123209,1,0,0:0:0:0:
338,185,123404,6,0,P|362:244|342:324,1,144,8|0,0:1|0:0,0:0:0:0:
338,185,123988,1,0,0:0:0:0:
457,214,124183,2,0,P|452:269|403:342,1,144,4|4,0:3|0:3,0:0:0:0:
457,214,124768,1,0,0:0:0:0:
443,54,124962,5,8,0:1:0:0:
452,140,125157,1,8,0:3:0:0:
368,152,125352,1,4,0:3:0:0:
359,66,125547,1,0,3:0:0:0:
288,116,125742,2,0,B|228:120|228:120|176:124|156:84,1,144,4|0,0:0|0:0,0:0:0:0:
4,4,126521,1,8,0:1:0:0:
12,92,126716,1,0,0:0:0:0:
20,176,126910,1,0,0:0:0:0:
28,264,127105,1,0,0:0:0:0:
36,352,127300,2,0,P|108:356|172:316,2,144,4|4|8,0:3|0:3|0:1,0:0:0:0:
184,136,128664,6,0,B|216:104|256:124|292:144|320:116,1,144,2|0,0:0|0:0,0:0:0:0:
368,48,129248,1,0,0:0:0:0:
452,28,129443,2,0,P|488:56|500:152,1,144,2|0,0:0|0:0,0:0:0:0:
428,196,130027,2,0,B|392:212|364:188|336:164|288:184,2,144,2|4|4,3:0|0:3|0:3,0:0:0:0:
328,340,131196,5,8,0:1:0:0:
244,352,131391,1,0,0:0:0:0:
180,296,131586,1,2,0:3:0:0:
96,308,131781,1,0,0:0:0:0:
20,264,131975,2,0,P|72:228|152:236,1,144,0|0,3:0|0:0,0:0:0:0:
268,360,132754,1,8,0:1:0:0:
284,276,132949,1,0,0:0:0:0:
300,192,133144,1,2,0:3:0:0:
316,108,133339,1,0,0:0:0:0:
332,24,133534,1,4,3:0:0:0:
472,124,133923,2,0,B|441:144|412:127|419:117|370:99|332:117,1,144,4|8,0:3|0:1,0:0:0:0:
24,268,135092,6,0,B|31:315|31:315|40:368|107:379,1,144,4|0,0:3|0:0,0:0:0:0:
24,268,135677,1,0,0:0:0:0:
109,192,135871,2,0,B|98:253|98:253|92:287|126:308,1,125.999996154785,8|0,0:1|0:0,0:0:0:0:
109,192,136456,1,0,0:0:0:0:
193,171,136651,2,0,B|176:214|176:214|162:251|188:273,1,107.999996704102,4|4,0:3|0:3,0:0:0:0:
193,171,137235,1,0,0:0:0:0:
224,92,137430,5,8,0:1:0:0:
288,32,137625,1,8,0:3:0:0:
368,68,137819,1,4,0:3:0:0:
432,8,138014,1,4,0:3:0:0:
508,52,138209,2,0,B|480:100|500:124|520:148|492:192,1,144,4|2,0:0|0:0,0:0:0:0:
412,340,138988,1,8,0:1:0:0:
456,264,139183,1,0,3:0:0:0:
376,232,139378,1,0,0:0:0:0:
420,156,139573,1,0,0:0:0:0:
340,124,139767,1,0,3:0:0:0:
340,124,140157,2,0,P|272:108|208:140,1,144,2|8,0:0|0:1,0:0:0:0:
476,364,141326,5,4,0:3:0:0:
476,364,141521,1,2,0:0:0:0:
492,192,141910,1,0,3:0:0:0:
320,164,142300,1,0,0:0:0:0:
404,144,142495,1,2,0:3:0:0:
372,224,142690,1,2,0:0:0:0:
416,56,143079,2,2,B|348:24|268:40|244:88|264:104|240:152|164:172|100:136,1,360,0|0,0:0|3:0,0:0:0:0:
32,296,144443,5,4,0:0:0:0:
32,296,145222,1,8,0:1:0:0:
32,296,146001,5,0,0:0:0:0:
32,296,146780,1,8,0:1:0:0:
32,296,147560,6,0,P|72:304|128:280,1,80.9999975280763,4|0,0:0|3:0,0:0:0:0:
128,196,147949,2,0,P|167:187|214:199,1,90,0|0,3:0|3:0,0:0:0:0:
236,312,148339,2,0,P|288:312|332:284,1,99.0000030212403,0|0,3:0|3:0,0:0:0:0:
348,160,148728,2,0,P|396:132|462:141,1,107.999996704102,0|0,3:0|3:0,0:0:0:0:
496,256,149118,5,0,3:0:0:0:
432,368,149313,1,0,3:0:0:0:
356,264,149508,5,0,3:0:0:0:
412,148,149703,1,0,3:0:0:0:
448,24,149897,5,8,1:0:0:0:
408,12,149995,1,4,1:3:0:0:
364,16,150092,1,8,1:0:0:0:
328,40,150189,1,8,1:0:0:0:
308,80,150287,1,8,1:0:0:0:
256,200,150482,1,8,1:0:0:0:
216,216,150579,1,8,1:0:0:0:
168,208,150676,5,4,1:2:0:0:
32,180,150871,1,2,0:3:0:0:
4,316,151066,1,8,1:0:0:0:
140,344,151261,1,8,1:0:0:0:
276,368,151456,2,0,B|288:288|288:288|297:233|356:220,1,182.250000695229,4|0,0:3|0:0,0:0:0:0:
424,228,151845,2,0,P|480:168|456:76,1,182.250000695229,8|0,1:0|0:0,0:0:0:0:
392,56,152235,2,0,B|344:80|304:64|304:48|264:32|216:56,1,182.250000695229,4|0,3:0|0:0,0:0:0:0:
160,96,152624,1,8,1:0:0:0:
256,192,152819,2,0,B|208:216|168:200|168:184|128:168|80:192,1,182.250000695229,0|0,1:0|0:0,0:0:0:0:
24,232,153208,1,0,0:0:0:0:
96,352,153404,2,0,P|188:352|224:280,1,182.250000695229,8|0,1:0|0:0,0:0:0:0:
216,212,153793,5,4,3:0:0:0:
192,76,153988,1,2,0:3:0:0:
328,52,154183,1,8,1:0:0:0:
352,188,154378,1,8,1:0:0:0:
380,324,154572,2,0,B|336:348|292:332|292:332|248:348|204:324,1,182.250000695229,4|0,3:0|0:0,0:0:0:0:
144,292,154962,2,0,L|120:112,1,182.250000695229,8|0,1:0|0:0,0:0:0:0:
108,44,155352,2,0,P|196:12|284:24,1,182.250000695229,4|0,0:3|0:0,0:0:0:0:
344,52,155741,1,8,1:0:0:0:
252,156,155936,2,0,P|340:124|428:136,1,182.250000695229,0|0,1:0|0:0,0:0:0:0:
488,164,156325,1,0,0:0:0:0:
448,296,156521,2,0,B|436:342|436:342|421:393|371:379|371:379|324:367,1,182.250000695229,8|0,1:0|0:0,0:0:0:0:
256,348,156910,5,4,3:0:0:0:
188,228,157105,1,2,0:3:0:0:
324,228,157300,1,8,1:0:0:0:
256,108,157495,1,8,1:0:0:0:
356,16,157689,2,0,B|424:16|424:16|488:16|508:80,1,182.250000695229,4|0,3:0|0:0,0:0:0:0:
512,148,158079,2,0,P|428:178|344:148,1,182.250000695229,8|0,1:0|0:0,0:0:0:0:
324,80,158469,2,0,B|248:80|248:80|184:80|164:132,1,182.250000695229,4|0,3:0|0:0,0:0:0:0:
164,200,158858,1,8,1:0:0:0:
300,200,159053,2,0,B|224:200|224:200|160:200|140:252,1,182.250000695229,0|0,1:0|0:0,0:0:0:0:
140,320,159442,1,0,0:0:0:0:
276,320,159637,2,0,B|200:320|200:320|136:320|116:372,1,182.250000695229,8|0,1:0|0:0,0:0:0:0:
56,336,160027,5,4,3:0:0:0:
24,204,160222,1,2,0:3:0:0:
156,240,160417,1,8,1:0:0:0:
20,272,160611,1,8,1:0:0:0:
56,140,160806,2,0,B|104:116|144:132|144:148|184:164|232:140,1,182.250000695229,4|0,3:0|0:0,0:0:0:0:
296,112,161196,2,0,P|376:112|424:192,1,182.250000695229,8|0,1:0|0:0,0:0:0:0:
476,240,161585,2,0,B|421:221|421:157|421:157|420:80,1,182.250000695229,4|0,3:0|0:0,0:0:0:0:
420,12,161975,1,8,1:0:0:0:
324,108,162170,1,8,1:0:0:0:
188,108,162365,1,8,0:1:0:0:
92,12,162560,1,8,0:1:0:0:
84,48,162657,1,8,0:1:0:0:
76,84,162754,1,8,0:1:0:0:
16,208,162949,1,8,1:0:0:0:
8,244,163046,1,8,1:0:0:0:
0,280,163143,5,4,1:2:0:0:
92,384,163339,1,2,0:3:0:0:
180,280,163534,1,8,1:0:0:0:
92,176,163728,1,8,1:0:0:0:
176,68,163923,2,0,P|256:30|336:68,1,182.250000695229,4|0,3:0|0:0,0:0:0:0:
352,136,164313,2,0,B|360:208|360:208|368:280|424:288,1,182.250000695229,8|0,1:0|0:0,0:0:0:0:
436,220,164702,2,0,B|384:220|384:220|352:208|352:208|256:208,1,182.250000695229,4|0,3:0|0:0,0:0:0:0:
188,208,165092,1,8,1:0:0:0:
252,88,165287,2,0,B|200:88|200:88|168:76|168:76|72:76,1,182.250000695229,0|0,1:0|0:0,0:0:0:0:
4,76,165677,1,0,0:0:0:0:
28,212,165871,2,0,B|52:240|52:276|28:296|4:316|4:352|28:380,1,182.250000695229,8|0,1:0|0:0,0:0:0:0:
84,340,166261,5,4,3:0:0:0:
156,224,166455,1,2,0:3:0:0:
256,320,166650,1,8,1:0:0:0:
356,224,166845,1,8,1:0:0:0:
428,340,167040,2,0,B|452:160,1,182.250000695229,4|0,3:0|0:0,0:0:0:0:
460,92,167430,2,0,B|419:70|371:83|371:83|334:50|288:52,1,182.250000695229,8|0,1:0|0:0,0:0:0:0:
220,48,167819,2,0,P|156:100|156:196,1,182.250000695229,4|0,3:0|0:0,0:0:0:0:
216,224,168209,1,8,1:0:0:0:
80,188,168404,2,0,P|16:240|16:336,1,182.250000695229,0|0,1:0|0:0,0:0:0:0:
76,364,168792,1,0,0:0:0:0:
168,264,168988,2,0,B|208:252|220:292|256:284|292:292|304:252|344:264,1,182.250000695229,8|0,1:0|0:0,0:0:0:0:
372,328,169378,5,4,3:0:0:0:
392,192,169572,1,2,0:3:0:0:
256,164,169767,1,8,1:0:0:0:
120,192,169962,1,8,1:0:0:0:
80,60,170157,2,0,B|128:36|168:52|168:68|208:84|256:60,1,182.250000695229,4|0,3:0|0:0,0:0:0:0:
316,24,170547,2,0,B|372:40|372:96|372:96|372:180,1,182.250000695229,8|0,1:0|0:0,0:0:0:0:
372,248,170936,2,0,P|292:286|212:248,1,182.250000695229,4|0,3:0|0:0,0:0:0:0:
180,188,171326,1,8,1:0:0:0:
260,76,171521,2,0,P|180:114|100:76,1,182.250000695229,0|0,1:0|0:0,0:0:0:0:
68,16,171909,1,0,0:0:0:0:
40,152,172105,2,0,B|18:192|31:240|31:240|-1:277|0:323,1,182.250000695229,8|0,1:0|0:0,0:0:0:0:
48,372,172495,5,4,3:0:0:0:
120,256,172689,1,2,0:3:0:0:
192,372,172884,1,8,1:0:0:0:
268,256,173079,1,8,1:0:0:0:
344,372,173274,2,0,B|327:322|377:293|385:305|434:272|418:223,1,182.250000695229,4|0,3:0|0:0,0:0:0:0:
388,160,173663,1,8,1:0:0:0:
336,32,173858,2,0,B|312:0|280:0|280:0|232:0|232:0|200:0|176:32,1,182.250000695229
152,96,174248,5,4,0:3:0:0:
112,80,174345,1,8,0:1:0:0:
72,64,174443,1,8,1:1:0:0:
84,200,174637,1,8,0:3:0:0:
8,316,174832,1,4,0:3:0:0:
48,332,174930,1,8,0:1:0:0:
88,348,175027,1,8,1:1:0:0:
12,236,175222,1,8,0:3:0:0:
140,284,175417,1,4,0:3:0:0:
120,124,175611,5,4,1:2:0:0:
120,124,176000,1,0,0:0:0:0:
252,180,176390,5,0,3:0:0:0:
314,216,176585,1,0,0:0:0:0:
389,206,176779,1,2,0:3:0:0:
431,137,176974,1,0,0:0:0:0:
408,56,177169,5,4,0:0:0:0:
408,56,177559,1,0,0:0:0:0:
408,56,178727,6,0,B|376:40|348:60|320:80|280:48,2,135,4|0|2,0:0|0:0|0:3,0:0:0:0:
408,56,180286,2,0,P|344:64|344:160,1,135,4|8,0:0|0:3,0:0:0:0:
322,124,181260,1,4,0:3:0:0:
352,188,181455,1,4,0:3:0:0:
280,312,181844,5,4,0:0:0:0:
280,312,182234,1,0,0:0:0:0:
184,203,182623,2,0,P|215:172|260:168,1,90,8|0,0:1|0:0,0:0:0:0:
136,296,183403,5,4,0:3:0:0:
136,296,183792,1,4,0:3:0:0:
88,164,184182,5,8,0:1:0:0:
88,164,184377,2,0,P|132:176|184:168,1,90
228,52,184961,6,0,L|240:144,1,90,4|0,0:0|0:0,0:0:0:0:
228,52,185532,1,0,0:0:0:0:
328,84,185722,2,0,L|304:168,1,72,8|0,0:1|0:0,0:0:0:0:
328,84,186310,1,0,0:0:0:0:
416,140,186506,2,0,L|364:192,1,72,4|0,0:0|0:0,0:0:0:0:
188,268,187351,5,8,0:1:0:0:
256,296,187591,1,0,3:0:0:0:
320,328,187831,1,2,0:3:0:0:
256,200,188311,5,4,1:2:0:0:
256,192,188551,12,0,193111,0:0:0:0:
