osu file format v14

[General]
AudioFilename: audio.mp3
AudioLeadIn: 0
PreviewTime: 60596
Countdown: 0
SampleSet: None
StackLeniency: 0.7
Mode: 0
LetterboxInBreaks: 0
WidescreenStoryboard: 1

[Editor]
Bookmarks: 187739
DistanceSpacing: 2
BeatDivisor: 4
GridSize: 16
TimelineZoom: 1.5

[Metadata]
Title:Mil Pedazos
TitleUnicode:Mil Pedazos
Artist:Juanes
ArtistUnicode:Juanes
Creator:Cuma Iseng
Version:Insane
Source:
Tags:
BeatmapID:2289002
BeatmapSetID:1083778

[Difficulty]
HPDrainRate:6
CircleSize:4
OverallDifficulty:8
ApproachRate:9
SliderMultiplier:1.4
SliderTickRate:1

[Events]
//Background and Video events
0,0,"background.jpg",0,0
//Break Periods
2,92463,106068
//Storyboard Layer 0 (Background)
//Storyboard Layer 1 (Fail)
//Storyboard Layer 2 (Pass)
//Storyboard Layer 3 (Foreground)
//Storyboard Layer 4 (Overlay)
//Storyboard Sound Samples

[TimingPoints]
-1070,476.190476190476,4,2,0,0,1,0
834,-71.4285714285714,4,2,0,0,0,0
14168,-100,4,2,0,0,0,0
16072,-71.4285714285714,4,2,0,0,0,0
46549,-100,4,2,0,0,0,0
50358,-71.4285714285714,4,2,0,0,0,0
54168,-100,4,2,0,0,0,0
61787,-55.5555555555556,4,2,0,0,0,1
77025,-71.4285714285714,4,2,0,0,0,0
137977,-55.5555555555556,4,2,0,0,0,1
153096,-100,4,2,0,0,0,0
153215,-55.5555555555556,4,2,0,0,0,1
168453,-71.4285714285714,4,2,0,0,0,0

[HitObjects]
32,96,120,6,0,L|96:64,2,70
288,96,834,6,0,P|320:224|256:256,1,195.999994018555
96,256,1787,1,0,0:0:0:0:
64,120,2263,1,0,0:0:0:0:
216,56,2739,2,0,P|286:41|339:89,1,146.999995513916
376,216,3453,1,0,0:0:0:0:
272,296,3691,2,0,L|208:328,4,48.9999985046387
376,216,4406,1,0,0:0:0:0:
296,88,4644,6,0,P|190:41|132:84,1,195.999994018555
56,232,5596,1,0,0:0:0:0:
224,328,6072,1,0,0:0:0:0:
384,256,6549,2,0,P|448:224|480:128,1,146.999995513916
360,40,7263,1,0,0:0:0:0:
192,128,7501,5,0,0:0:0:0:
384,128,7739,1,0,0:0:0:0:
256,192,7977,1,0,0:0:0:0:
128,272,8215,1,0,0:0:0:0:
192,320,8453,6,0,P|288:352|352:288,1,195.999994018555
400,136,9406,1,0,0:0:0:0:
280,24,9882,1,0,0:0:0:0:
160,128,10358,2,0,P|96:192|32:224,1,146.999995513916
136,312,11072,1,0,0:0:0:0:
224,264,11310,2,0,L|192:200,4,48.9999985046387
288,288,12025,1,0,0:0:0:0:
384,288,12263,6,0,P|448:192|416:128,1,195.999994018555
352,96,12977,1,0,0:0:0:0:
288,64,13215,2,0,P|192:64|128:160,1,195.999994018555
96,224,13929,1,0,0:0:0:0:
160,288,14168,6,0,L|224:224,1,70
265,283,14644,2,0,L|215:332,1,70
352,224,15120,5,0,0:0:0:0:
368,208,15239,1,0,0:0:0:0:
384,192,15358,1,0,0:0:0:0:
400,176,15477,1,0,0:0:0:0:
416,160,15596,1,0,0:0:0:0:
320,64,15834,1,0,0:0:0:0:
224,192,16072,6,0,L|96:32,1,195.999994018555
64,128,16787,1,0,0:0:0:0:
96,224,17025,2,0,L|256:96,1,195.999994018555
288,192,17739,1,0,0:0:0:0:
384,224,17977,2,0,P|352:288|224:320,1,195.999994018555
160,256,18691,1,0,0:0:0:0:
192,160,18929,1,0,0:0:0:0:
352,64,19168,1,0,0:0:0:0:
192,160,19406,1,0,0:0:0:0:
416,128,19882,6,0,P|384:256|320:288,1,195.999994018555
320,192,20596,1,0,0:0:0:0:
256,128,20834,2,0,P|192:160|192:288,1,195.999994018555
270,272,21549,1,0,0:0:0:0:
352,256,21787,2,0,L|448:64,1,195.999994018555
336,64,22501,5,0,0:0:0:0:
328,72,22620,1,0,0:0:0:0:
320,80,22739,1,0,0:0:0:0:
224,128,22977,2,0,L|128:64,1,97.9999970092774
64,128,23453,5,0,0:0:0:0:
288,288,23929,2,0,L|384:192,2,97.9999970092774
192,256,24644,1,0,0:0:0:0:
64,224,24882,2,0,P|128:128|128:128,1,97.9999970092774
224,96,25358,5,0,0:0:0:0:
232,104,25477,1,0,0:0:0:0:
240,112,25596,1,0,0:0:0:0:
320,192,25834,1,0,0:0:0:0:
192,288,26072,1,0,0:0:0:0:
128,256,26310,6,0,L|160:192,2,48.9999985046387
224,256,26787,1,0,0:0:0:0:
192,160,27025,1,0,0:0:0:0:
288,192,27263,6,0,P|448:160|480:32,1,293.999991027832
384,32,28215,2,0,P|261:139|297:266,1,293.999991027832
384,224,29168,2,0,L|192:288,1,195.999994018555
128,224,29882,2,0,L|224:160,1,97.9999970092774
352,128,30358,5,0,0:0:0:0:
360,136,30477,1,0,0:0:0:0:
368,144,30596,1,0,0:0:0:0:
320,320,30834,1,0,0:0:0:0:
216,232,31072,1,0,0:0:0:0:
208,104,31310,6,0,L|304:168,2,97.9999970092774
96,112,32025,1,0,0:0:0:0:
128,256,32263,1,0,0:0:0:0:
256,352,32501,1,0,0:0:0:0:
400,256,32739,1,0,0:0:0:0:
480,144,32977,2,0,L|400:64,1,97.9999970092774
304,96,33453,1,0,0:0:0:0:
128,96,33691,1,0,0:0:0:0:
240,272,34168,6,0,L|336:224,1,97.9999970092774
400,288,34644,2,0,L|312:331,1,97.9999970092774
144,288,35120,6,0,P|160:176|224:112,1,195.999994018555
288,96,35834,1,0,0:0:0:0:
368,128,36072,2,0,L|304:208,1,97.9999970092774
240,272,36549,1,0,0:0:0:0:
304,320,36787,2,0,P|448:208|448:96,1,293.999991027832
384,32,37739,1,0,0:0:0:0:
304,80,37977,2,0,L|384:144,2,97.9999970092774
224,64,38691,6,0,L|160:160,1,97.9999970092774
80,208,39168,5,0,0:0:0:0:
144,288,39406,1,0,0:0:0:0:
256,320,39644,1,0,0:0:0:0:
352,288,39882,1,0,0:0:0:0:
432,208,40120,1,0,0:0:0:0:
352,112,40358,1,0,0:0:0:0:
272,48,40596,2,0,P|176:128|160:304,1,293.999991027832
248,328,41549,5,0,0:0:0:0:
256,320,41668,1,0,0:0:0:0:
264,312,41787,1,0,0:0:0:0:
320,224,42025,1,0,0:0:0:0:
200,288,42263,1,0,0:0:0:0:
64,288,42501,6,0,P|96:96|192:64,1,293.999991027832
288,64,43453,2,0,P|256:256|160:288,1,293.999991027832
96,224,44406,2,0,P|219:73|318:94,1,293.999991027832
384,128,45358,2,0,L|192:256,1,195.999994018555
104,176,46072,1,0,0:0:0:0:
220,236,46310,1,0,0:0:0:0:
288,128,46549,6,0,L|352:256,2,140
128,128,47977,2,0,L|64:192,1,70
128,288,48453,1,0,0:0:0:0:
224,320,48691,2,0,L|256:288,2,35
352,320,49168,1,0,0:0:0:0:
352,224,49406,2,0,L|480:288,1,140
152,243,50358,6,0,P|145:128|204:88,1,195.999994018555
416,192,51310,2,0,L|352:288,1,97.9999970092774
288,288,51787,1,0,0:0:0:0:
192,288,52025,2,0,P|160:160|192:96,1,195.999994018555
256,64,52739,5,0,0:0:0:0:
368,104,52977,1,0,0:0:0:0:
416,192,53215,5,0,0:0:0:0:
256,288,53453,1,0,0:0:0:0:
416,192,53691,1,0,0:0:0:0:
256,288,53929,1,0,0:0:0:0:
288,128,54168,6,0,L|352:256,2,140
128,128,55596,2,0,L|64:192,1,70
128,288,56072,1,0,0:0:0:0:
224,320,56310,2,0,L|256:288,2,35
352,320,56787,1,0,0:0:0:0:
448,224,57025,2,0,L|322:161,1,140
80,40,57977,5,0,0:0:0:0:
48,96,58453,1,0,0:0:0:0:
32,160,58929,1,0,0:0:0:0:
48,224,59406,1,0,0:0:0:0:
256,80,59882,5,0,0:0:0:0:
256,320,60358,5,0,0:0:0:0:
112,192,60596,1,0,0:0:0:0:
256,80,60834,1,0,0:0:0:0:
384,192,61072,1,0,0:0:0:0:
256,320,61310,1,0,0:0:0:0:
112,192,61549,1,0,0:0:0:0:
336,320,61787,6,0,L|416:208,1,125.999996154785
384,128,62263,1,0,0:0:0:0:
336,64,62501,2,0,L|256:176,1,125.999996154785
192,144,62977,2,0,L|265:41,1,125.999996154785
336,64,63453,1,0,0:0:0:0:
416,96,63691,6,0,P|384:208|272:256,1,188.999994232178
240,224,64168,1,0,0:0:0:0:
240,128,64406,2,0,P|144:128|64:320,1,314.999990386963
368,224,65358,1,0,0:0:0:0:
320,128,65596,6,0,L|224:224,1,125.999996154785
144,240,66072,1,0,0:0:0:0:
144,144,66310,2,0,L|288:224,1,125.999996154785
304,144,66787,2,0,L|193:82,1,125.999996154785
112,32,67263,1,0,0:0:0:0:
48,80,67501,6,0,P|80:176|224:208,1,251.999992309571
272,128,68215,1,0,0:0:0:0:
320,64,68453,2,0,L|368:128,4,62.9999980773926
176,80,69168,1,0,0:0:0:0:
64,208,69406,6,0,P|144:304|256:240,1,251.999992309571
160,176,70120,1,0,0:0:0:0:
320,48,70596,2,0,P|435:68|450:184,1,251.999992309571
384,288,71310,1,0,0:0:0:0:
192,352,71787,2,0,L|96:208,1,125.999996154785
64,160,72263,1,0,0:0:0:0:
64,64,72501,2,0,L|128:32,3,62.9999980773926
192,64,72977,1,0,0:0:0:0:
80,224,73215,5,0,0:0:0:0:
128,304,73453,2,0,P|176:288|192:208,1,125.999996154785
160,144,73929,1,0,0:0:0:0:
75,131,74168,2,0,P|88:71|144:48,1,125.999996154785
224,64,74644,2,0,L|256:144,2,62.9999980773926
400,64,75120,2,0,P|400:176|272:224,1,251.999992309571
208,192,75834,1,0,0:0:0:0:
80,104,76072,5,0,0:0:0:0:
88,88,76191,1,0,0:0:0:0:
104,80,76310,1,0,0:0:0:0:
120,80,76429,1,0,0:0:0:0:
136,88,76549,1,0,0:0:0:0:
256,192,76787,5,0,0:0:0:0:
448,192,77025,6,0,L|352:128,1,97.9999970092774
160,256,77501,2,0,L|256:320,1,97.9999970092774
448,160,77977,2,0,L|352:96,1,97.9999970092774
192,224,78453,2,0,L|288:288,1,97.9999970092774
384,192,78929,6,0,P|448:128|448:32,1,146.999995513916
304,32,79644,1,0,0:0:0:0:
160,80,79882,2,0,L|224:144,4,48.9999985046387
96,40,80596,1,0,0:0:0:0:
192,288,80834,6,0,L|320:224,1,97.9999970092774
256,64,81310,2,0,L|168:107,1,97.9999970092774
192,256,81787,2,0,L|320:192,1,97.9999970092774
256,32,82263,2,0,L|168:75,1,97.9999970092774
96,224,82739,6,0,P|128:288|224:288,1,146.999995513916
320,160,83453,1,0,0:0:0:0:
384,96,83691,2,0,L|416:160,4,48.9999985046387
320,32,84406,1,0,0:0:0:0:
160,96,84644,6,0,L|256:160,1,97.9999970092774
160,320,85120,2,0,L|78:265,1,97.9999970092774
160,80,85596,2,0,L|256:144,1,97.9999970092774
136,336,86072,2,0,L|54:281,1,97.9999970092774
96,128,86549,6,0,P|128:64|224:64,1,146.999995513916
384,176,87263,1,0,0:0:0:0:
328,264,87501,2,0,L|264:200,4,48.9999985046387
224,320,88215,1,0,0:0:0:0:
64,96,88453,6,0,P|128:32|224:64,1,195.999994018555
288,128,89168,1,0,0:0:0:0:
352,192,89406,2,0,P|284:256|195:228,1,195.999994018555
128,160,90120,1,0,0:0:0:0:
96,96,90358,6,0,L|192:64,1,97.9999970092774
256,128,90834,2,0,L|163:158,1,97.9999970092774
96,224,91310,2,0,L|128:288,3,48.9999985046387
208,272,91787,1,0,0:0:0:0:
272,232,91906,1,0,0:0:0:0:
328,168,92025,1,0,0:0:0:0:
360,80,92144,1,0,0:0:0:0:
160,40,92263,1,0,0:0:0:0:
160,160,106668,5,0,0:0:0:0:
320,216,106787,1,0,0:0:0:0:
288,48,107025,1,0,0:0:0:0:
184,280,107263,1,0,0:0:0:0:
320,192,107501,6,0,P|352:224|352:288,1,97.9999970092774
304,200,107977,2,0,P|315:243|283:299,1,97.9999970092774
280,200,108453,2,0,P|280:245|234:290,1,97.9999970092774
96,288,108929,1,0,0:0:0:0:
32,160,109168,2,0,L|192:32,1,195.999994018555
320,64,109882,1,0,0:0:0:0:
416,192,110120,2,0,L|288:256,2,97.9999970092774
160,160,110834,1,0,0:0:0:0:
416,64,111310,6,0,L|480:160,1,97.9999970092774
320,224,111787,2,0,L|256:128,1,97.9999970092774
160,160,112263,2,0,P|192:96|320:64,1,195.999994018555
416,192,112977,2,0,L|320:256,1,97.9999970092774
160,288,113453,1,0,0:0:0:0:
384,320,113691,1,0,0:0:0:0:
480,224,113929,2,0,L|416:192,2,48.9999985046387
448,96,114406,2,0,P|416:64|352:64,1,97.9999970092774
224,128,114882,6,0,L|288:224,1,97.9999970092774
384,288,115358,1,0,0:0:0:0:
224,352,115596,1,0,0:0:0:0:
96,224,115834,1,0,0:0:0:0:
160,64,116072,1,0,0:0:0:0:
352,64,116310,1,0,0:0:0:0:
416,192,116549,2,0,L|288:256,2,97.9999970092774
448,64,117263,2,0,P|416:32|352:32,1,97.9999970092774
256,96,117739,5,0,0:0:0:0:
248,104,117858,1,0,0:0:0:0:
240,112,117977,1,0,0:0:0:0:
128,224,118215,2,0,L|224:256,1,97.9999970092774
256,352,118691,6,0,P|448:224|448:160,1,293.999991027832
480,96,119644,2,0,P|255:150|233:210,1,293.999991027832
192,256,120596,2,0,P|416:201|438:141,1,293.999991027832
416,64,121549,2,0,L|320:128,1,97.9999970092774
288,192,122025,1,0,0:0:0:0:
160,224,122144,1,0,0:0:0:0:
192,128,122263,1,0,0:0:0:0:
384,320,122501,1,0,0:0:0:0:
256,352,122620,1,0,0:0:0:0:
128,288,122739,6,0,P|160:160|224:128,2,195.999994018555
224,352,123929,1,0,0:0:0:0:
288,256,124168,2,0,L|384:320,1,97.9999970092774
448,288,124644,1,0,0:0:0:0:
480,192,124882,2,0,P|448:160|384:160,1,97.9999970092774
320,224,125358,1,0,0:0:0:0:
384,288,125596,2,0,L|256:320,2,97.9999970092774
448,224,126310,1,0,0:0:0:0:
288,64,126549,6,0,P|192:96|128:192,1,195.999994018555
96,288,127263,1,0,0:0:0:0:
192,352,127501,2,0,L|256:256,2,97.9999970092774
320,320,128215,2,0,P|416:256|416:160,1,195.999994018555
384,96,128929,1,0,0:0:0:0:
288,32,129168,1,0,0:0:0:0:
128,128,129406,1,0,0:0:0:0:
256,256,129644,1,0,0:0:0:0:
256,256,129882,1,0,0:0:0:0:
128,128,130120,1,0,0:0:0:0:
352,320,130358,6,0,P|448:256|448:160,2,195.999994018555
224,288,131549,1,0,0:0:0:0:
96,224,131787,2,0,L|160:128,1,97.9999970092774
168,128,132144,1,0,0:0:0:0:
184,120,132263,1,0,0:0:0:0:
224,192,132501,2,0,P|288:160|288:128,1,97.9999970092774
256,64,132977,1,0,0:0:0:0:
128,96,133215,2,0,P|128:64|192:32,2,97.9999970092774
160,192,133929,5,0,0:0:0:0:
320,32,134168,5,0,0:0:0:0:
352,88,134644,1,0,0:0:0:0:
384,144,135121,1,0,0:0:0:0:
392,168,135358,1,0,0:0:0:0:
392,200,135596,1,0,0:0:0:0:
384,232,135834,1,0,0:0:0:0:
192,96,136072,5,0,0:0:0:0:
72,232,136310,5,0,0:0:0:0:
120,288,136429,1,0,0:0:0:0:
168,232,136549,1,0,0:0:0:0:
120,176,136668,1,0,0:0:0:0:
256,192,136787,1,0,0:0:0:0:
80,56,137025,5,0,0:0:0:0:
304,152,137263,5,0,0:0:0:0:
344,192,137382,1,0,0:0:0:0:
360,248,137501,1,0,0:0:0:0:
144,232,137739,5,0,0:0:0:0:
264,280,137858,1,0,0:0:0:0:
384,320,137977,6,0,P|480:224|448:96,1,251.999992309571
320,32,138691,1,0,0:0:0:0:
96,128,139168,2,0,L|192:224,1,125.999996154785
320,288,139644,1,0,0:0:0:0:
448,160,139882,2,0,P|384:96|224:96,1,251.999992309571
96,160,140596,1,0,0:0:0:0:
192,288,140834,2,0,L|256:224,4,62.9999980773926
64,224,141549,1,0,0:0:0:0:
96,64,141787,6,0,P|256:128|288:224,1,251.999992309571
320,320,142501,1,0,0:0:0:0:
480,224,142739,2,0,P|416:96|288:64,1,251.999992309571
192,32,143453,1,0,0:0:0:0:
64,128,143691,2,0,L|288:256,1,251.999992309571
416,192,144406,1,0,0:0:0:0:
352,96,144644,2,0,L|256:128,4,62.9999980773926
416,192,145358,1,0,0:0:0:0:
448,320,145596,6,0,P|320:256|256:160,1,251.999992309571
192,64,146310,1,0,0:0:0:0:
32,96,146549,2,0,P|64:224|160:288,1,251.999992309571
288,320,147263,1,0,0:0:0:0:
448,352,147501,2,0,P|448:224|352:128,1,251.999992309571
256,96,148215,1,0,0:0:0:0:
160,160,148453,2,0,L|96:96,4,62.9999980773926
96,288,149168,1,0,0:0:0:0:
256,320,149406,6,0,P|320:192|288:96,1,251.999992309571
192,32,150120,1,0,0:0:0:0:
64,96,150358,2,0,P|64:192|160:320,1,251.999992309571
288,352,151072,1,0,0:0:0:0:
448,128,151310,1,0,0:0:0:0:
160,32,151787,1,0,0:0:0:0:
96,128,152025,1,0,0:0:0:0:
128,256,152263,5,0,0:0:0:0:
128,256,152382,1,0,0:0:0:0:
288,320,152501,1,0,0:0:0:0:
320,224,152739,5,0,0:0:0:0:
320,224,152858,1,0,0:0:0:0:
160,160,152977,2,0,L|103:188,1,62.9999980773926
96,288,153215,6,0,L|224:320,1,125.999996154785
352,320,153691,1,0,0:0:0:0:
416,224,153929,2,0,L|288:160,1,125.999996154785
320,96,154406,2,0,L|432:152,1,125.999996154785
480,320,154882,1,0,0:0:0:0:
288,352,155120,2,0,P|224:320|224:256,1,125.999996154785
192,160,155596,1,0,0:0:0:0:
288,128,155834,2,0,L|224:64,1,62.9999980773926
176,40,156072,1,0,0:0:0:0:
160,48,156191,1,0,0:0:0:0:
152,56,156310,1,0,0:0:0:0:
144,64,156429,1,0,0:0:0:0:
136,80,156549,1,0,0:0:0:0:
144,216,156787,1,0,0:0:0:0:
224,352,157025,6,0,P|296:296|288:248,1,125.999996154785
192,192,157501,1,0,0:0:0:0:
160,32,157739,2,0,L|288:128,1,125.999996154785
352,96,158215,2,0,L|251:20,1,125.999996154785
96,64,158691,1,0,0:0:0:0:
64,192,158929,2,0,P|96:224|160:192,1,125.999996154785
224,96,159406,2,0,L|288:32,1,62.9999980773926
320,32,159644,1,0,0:0:0:0:
416,128,159882,1,0,0:0:0:0:
408,136,160001,1,0,0:0:0:0:
392,144,160120,1,0,0:0:0:0:
376,144,160239,1,0,0:0:0:0:
280,96,160358,1,0,0:0:0:0:
144,48,160596,2,0,L|96:112,1,62.9999980773926
32,192,160834,6,0,L|160:256,1,125.999996154785
288,288,161310,1,0,0:0:0:0:
320,160,161549,2,0,L|432:272,1,125.999996154785
464,208,162025,2,0,L|374:118,1,125.999996154785
256,32,162501,1,0,0:0:0:0:
160,144,162739,2,0,P|192:192|256:192,1,125.999996154785
336,80,163215,2,0,P|384:80|416:144,1,125.999996154785
416,176,163572,1,0,0:0:0:0:
336,288,163691,1,0,0:0:0:0:
320,296,163810,1,0,0:0:0:0:
304,296,163929,1,0,0:0:0:0:
288,288,164049,1,0,0:0:0:0:
272,280,164168,1,0,0:0:0:0:
176,192,164406,1,0,0:0:0:0:
160,48,164644,6,0,P|80:80|80:240,1,251.999992309571
160,320,165358,1,0,0:0:0:0:
304,352,165596,2,0,P|384:208|368:128,1,251.999992309571
272,32,166310,1,0,0:0:0:0:
160,112,166549,2,0,L|288:208,1,125.999996154785
224,256,167025,2,0,L|112:176,1,125.999996154785
48,96,167501,6,0,L|128:64,1,62.9999980773926
144,80,167739,1,0,0:0:0:0:
256,208,167977,6,0,L|197:231,1,62.9999980773926
160,224,168215,1,0,0:0:0:0:
448,192,168453,6,0,L|352:128,1,97.9999970092774
160,256,168929,2,0,L|256:320,1,97.9999970092774
448,160,169405,2,0,L|352:96,1,97.9999970092774
192,224,169881,2,0,L|288:288,1,97.9999970092774
384,192,170357,6,0,P|448:128|448:32,1,146.999995513916
304,32,171072,1,0,0:0:0:0:
160,80,171310,2,0,L|224:144,4,48.9999985046387
96,40,172024,1,0,0:0:0:0:
192,288,172262,6,0,L|320:224,1,97.9999970092774
256,64,172738,2,0,L|168:107,1,97.9999970092774
192,256,173215,2,0,L|320:192,1,97.9999970092774
256,32,173691,2,0,L|168:75,1,97.9999970092774
96,224,174167,6,0,P|128:288|224:288,1,146.999995513916
320,160,174881,1,0,0:0:0:0:
384,96,175119,2,0,L|416:160,4,48.9999985046387
320,32,175834,1,0,0:0:0:0:
160,96,176072,6,0,L|256:160,1,97.9999970092774
160,320,176548,2,0,L|78:265,1,97.9999970092774
160,80,177024,2,0,L|256:144,1,97.9999970092774
136,336,177500,2,0,L|54:281,1,97.9999970092774
96,128,177977,6,0,P|128:64|224:64,1,146.999995513916
384,176,178691,1,0,0:0:0:0:
328,264,178929,2,0,L|264:200,4,48.9999985046387
224,320,179643,1,0,0:0:0:0:
64,96,179881,6,0,P|128:32|224:64,1,195.999994018555
288,128,180596,1,0,0:0:0:0:
352,192,180834,2,0,P|284:256|195:228,1,195.999994018555
128,160,181548,1,0,0:0:0:0:
96,96,181786,6,0,L|192:64,1,97.9999970092774
256,128,182262,2,0,L|163:158,1,97.9999970092774
96,224,182738,2,0,L|128:288,4,48.9999985046387
352,160,183453,1,0,0:0:0:0:
256,192,183691,12,0,187739,0:0:0:0:
