osu file format v14

[General]
AudioFilename: audio.mp3
AudioLeadIn: 0
PreviewTime: 60596
Countdown: 0
SampleSet: Normal
StackLeniency: 0.7
Mode: 3
LetterboxInBreaks: 0
SpecialStyle: 0
WidescreenStoryboard: 0

[Editor]
DistanceSpacing: 2
BeatDivisor: 4
GridSize: 4
TimelineZoom: 1.5

[Metadata]
Title:Mil Pedazos
TitleUnicode:Mil Pedazos
Artist:Juanes
ArtistUnicode:Juanes
Creator:Cuma Iseng
Version:5K Cientos
Source:
Tags:
BeatmapID:2267895
BeatmapSetID:1083778

[Difficulty]
HPDrainRate:8
CircleSize:5
OverallDifficulty:8
ApproachRate:5
SliderMultiplier:1.4
SliderTickRate:1

[Events]
//Background and Video events
0,0,"background.jpg",0,0
//Break Periods
//Storyboard Layer 0 (Background)
//Storyboard Layer 1 (Fail)
//Storyboard Layer 2 (Pass)
//Storyboard Layer 3 (Foreground)
//Storyboard Layer 4 (Overlay)
//Storyboard Sound Samples

[TimingPoints]
-1070,476.190476190476,4,1,0,0,1,0
61787,-100,4,1,0,0,0,1
77025,-100,4,1,0,0,0,0
137977,-100,4,1,0,0,0,1
153096,-100,4,1,0,0,0,0
153215,-100,4,1,0,0,0,1
168453,-100,4,1,0,0,0,0

[HitObjects]
51,192,120,5,0,0:0:0:0:
256,192,358,1,0,0:0:0:0:
460,192,358,1,0,0:0:0:0:
358,192,358,1,0,0:0:0:0:
153,192,596,1,0,0:0:0:0:
51,192,834,128,0,1310:0:0:0:0:
358,192,834,1,0,0:0:0:0:
460,192,834,1,0,0:0:0:0:
153,192,1310,128,0,1787:0:0:0:0:
256,192,1310,1,0,0:0:0:0:
358,192,1310,1,0,0:0:0:0:
460,192,1787,128,0,2263:0:0:0:0:
51,192,1787,1,0,0:0:0:0:
358,192,1787,1,0,0:0:0:0:
358,192,2263,128,0,2739:0:0:0:0:
256,192,2263,1,0,0:0:0:0:
51,192,2263,1,0,0:0:0:0:
51,192,2739,128,0,3096:0:0:0:0:
256,192,2739,1,0,0:0:0:0:
460,192,2739,1,0,0:0:0:0:
153,192,3096,128,0,3453:0:0:0:0:
256,192,3215,1,0,0:0:0:0:
460,192,3453,128,0,3691:0:0:0:0:
358,192,3691,128,0,4168:0:0:0:0:
256,192,3691,1,0,0:0:0:0:
153,192,3929,1,0,0:0:0:0:
256,192,4168,128,0,4644:0:0:0:0:
51,192,4168,1,0,0:0:0:0:
460,192,4168,1,0,0:0:0:0:
460,192,4644,128,0,5120:0:0:0:0:
51,192,4644,1,0,0:0:0:0:
358,192,4644,1,0,0:0:0:0:
358,192,5120,128,0,5596:0:0:0:0:
51,192,5120,1,0,0:0:0:0:
153,192,5120,1,0,0:0:0:0:
51,192,5596,128,0,6072:0:0:0:0:
153,192,5596,1,0,0:0:0:0:
256,192,5596,1,0,0:0:0:0:
153,192,6072,128,0,6549:0:0:0:0:
256,192,6072,1,0,0:0:0:0:
460,192,6072,1,0,0:0:0:0:
460,192,6549,128,0,6906:0:0:0:0:
256,192,6549,1,0,0:0:0:0:
51,192,6549,1,0,0:0:0:0:
358,192,6906,128,0,7263:0:0:0:0:
256,192,7025,1,0,0:0:0:0:
51,192,7263,128,0,7501:0:0:0:0:
153,192,7501,128,0,7977:0:0:0:0:
460,192,7501,1,0,0:0:0:0:
358,192,7739,1,0,0:0:0:0:
256,192,7977,128,0,8453:0:0:0:0:
51,192,7977,1,0,0:0:0:0:
460,192,7977,1,0,0:0:0:0:
358,192,8215,1,0,0:0:0:0:
460,192,8453,128,0,8929:0:0:0:0:
51,192,8453,1,0,0:0:0:0:
153,192,8453,1,0,0:0:0:0:
358,192,8929,128,0,9406:0:0:0:0:
153,192,8929,1,0,0:0:0:0:
256,192,8929,1,0,0:0:0:0:
51,192,9406,128,0,9882:0:0:0:0:
256,192,9406,1,0,0:0:0:0:
460,192,9406,1,0,0:0:0:0:
153,192,9882,128,0,10358:0:0:0:0:
358,192,9882,1,0,0:0:0:0:
460,192,9882,1,0,0:0:0:0:
460,192,10358,128,0,10715:0:0:0:0:
256,192,10358,1,0,0:0:0:0:
51,192,10358,1,0,0:0:0:0:
358,192,10715,128,0,11072:0:0:0:0:
256,192,10834,1,0,0:0:0:0:
51,192,11072,128,0,11310:0:0:0:0:
460,192,11310,128,0,11787:0:0:0:0:
256,192,11310,1,0,0:0:0:0:
153,192,11549,1,0,0:0:0:0:
358,192,11787,128,0,12263:0:0:0:0:
51,192,11787,1,0,0:0:0:0:
256,192,11787,1,0,0:0:0:0:
153,192,12263,128,0,14168:0:0:0:0:
460,192,12263,1,0,0:0:0:0:
51,192,12263,1,0,0:0:0:0:
358,192,12501,1,0,0:0:0:0:
256,192,12739,1,0,0:0:0:0:
51,192,12739,1,0,0:0:0:0:
358,192,12977,1,0,0:0:0:0:
460,192,13215,1,0,0:0:0:0:
51,192,13215,1,0,0:0:0:0:
358,192,13453,1,0,0:0:0:0:
256,192,13691,1,0,0:0:0:0:
51,192,13691,1,0,0:0:0:0:
358,192,13929,1,0,0:0:0:0:
460,192,14168,128,0,14525:0:0:0:0:
51,192,14168,1,0,0:0:0:0:
256,192,14168,1,0,0:0:0:0:
358,192,14525,128,0,14882:0:0:0:0:
256,192,14644,1,0,0:0:0:0:
153,192,14644,1,0,0:0:0:0:
51,192,14882,128,0,15120:0:0:0:0:
460,192,15120,128,0,15596:0:0:0:0:
256,192,15120,1,0,0:0:0:0:
153,192,15358,1,0,0:0:0:0:
358,192,15596,128,0,16072:0:0:0:0:
51,192,15596,1,0,0:0:0:0:
256,192,15596,1,0,0:0:0:0:
153,192,15834,1,0,0:0:0:0:
256,192,16072,1,0,0:0:0:0:
460,192,16072,1,0,0:0:0:0:
153,192,16310,1,0,0:0:0:0:
51,192,16549,1,0,0:0:0:0:
358,192,16549,1,0,0:0:0:0:
460,192,16549,1,0,0:0:0:0:
256,192,16787,1,0,0:0:0:0:
153,192,17025,1,0,0:0:0:0:
51,192,17025,1,0,0:0:0:0:
256,192,17263,1,0,0:0:0:0:
358,192,17501,1,0,0:0:0:0:
51,192,17501,1,0,0:0:0:0:
460,192,17501,1,0,0:0:0:0:
153,192,17739,1,0,0:0:0:0:
256,192,17977,1,0,0:0:0:0:
460,192,17977,1,0,0:0:0:0:
358,192,18215,1,0,0:0:0:0:
256,192,18453,1,0,0:0:0:0:
153,192,18453,1,0,0:0:0:0:
51,192,18453,1,0,0:0:0:0:
358,192,18691,1,0,0:0:0:0:
153,192,18810,1,0,0:0:0:0:
51,192,18929,1,0,0:0:0:0:
460,192,18929,1,0,0:0:0:0:
256,192,19168,1,0,0:0:0:0:
358,192,19168,1,0,0:0:0:0:
51,192,19406,1,0,0:0:0:0:
153,192,19406,1,0,0:0:0:0:
51,192,19882,1,0,0:0:0:0:
460,192,19882,1,0,0:0:0:0:
153,192,20120,1,0,0:0:0:0:
256,192,20358,1,0,0:0:0:0:
358,192,20358,1,0,0:0:0:0:
460,192,20358,1,0,0:0:0:0:
153,192,20596,1,0,0:0:0:0:
51,192,20834,1,0,0:0:0:0:
460,192,20834,1,0,0:0:0:0:
358,192,21072,1,0,0:0:0:0:
256,192,21310,1,0,0:0:0:0:
153,192,21310,1,0,0:0:0:0:
51,192,21310,1,0,0:0:0:0:
358,192,21549,1,0,0:0:0:0:
460,192,21787,1,0,0:0:0:0:
51,192,21787,1,0,0:0:0:0:
153,192,22025,1,0,0:0:0:0:
256,192,22263,1,0,0:0:0:0:
358,192,22263,1,0,0:0:0:0:
460,192,22263,1,0,0:0:0:0:
153,192,22501,1,0,0:0:0:0:
51,192,22620,1,0,0:0:0:0:
358,192,22739,1,0,0:0:0:0:
460,192,22739,1,0,0:0:0:0:
51,192,22977,1,0,0:0:0:0:
153,192,22977,1,0,0:0:0:0:
358,192,23215,1,0,0:0:0:0:
460,192,23215,1,0,0:0:0:0:
256,192,23453,1,0,0:0:0:0:
153,192,23691,1,0,0:0:0:0:
460,192,23691,1,0,0:0:0:0:
358,192,23929,1,0,0:0:0:0:
256,192,24168,1,0,0:0:0:0:
153,192,24168,1,0,0:0:0:0:
51,192,24168,1,0,0:0:0:0:
460,192,24406,1,0,0:0:0:0:
358,192,24644,1,0,0:0:0:0:
51,192,24644,1,0,0:0:0:0:
256,192,24882,1,0,0:0:0:0:
153,192,25120,1,0,0:0:0:0:
51,192,25120,1,0,0:0:0:0:
460,192,25120,1,0,0:0:0:0:
256,192,25358,1,0,0:0:0:0:
358,192,25477,1,0,0:0:0:0:
460,192,25596,1,0,0:0:0:0:
51,192,25596,1,0,0:0:0:0:
153,192,25834,1,0,0:0:0:0:
256,192,25834,1,0,0:0:0:0:
358,192,26072,1,0,0:0:0:0:
460,192,26072,1,0,0:0:0:0:
153,192,26549,1,0,0:0:0:0:
256,192,26549,1,0,0:0:0:0:
153,192,26787,1,0,0:0:0:0:
256,192,26787,1,0,0:0:0:0:
51,192,27025,1,0,0:0:0:0:
358,192,27025,1,0,0:0:0:0:
460,192,27025,1,0,0:0:0:0:
51,192,27501,1,0,0:0:0:0:
153,192,27501,1,0,0:0:0:0:
256,192,27739,1,0,0:0:0:0:
358,192,27977,1,0,0:0:0:0:
460,192,27977,1,0,0:0:0:0:
51,192,27977,1,0,0:0:0:0:
153,192,28215,1,0,0:0:0:0:
256,192,28453,1,0,0:0:0:0:
358,192,28453,1,0,0:0:0:0:
153,192,28691,1,0,0:0:0:0:
51,192,28929,1,0,0:0:0:0:
358,192,28929,1,0,0:0:0:0:
460,192,28929,1,0,0:0:0:0:
256,192,29168,1,0,0:0:0:0:
153,192,29406,1,0,0:0:0:0:
460,192,29406,1,0,0:0:0:0:
358,192,29644,1,0,0:0:0:0:
256,192,29882,1,0,0:0:0:0:
153,192,29882,1,0,0:0:0:0:
51,192,29882,1,0,0:0:0:0:
358,192,30120,1,0,0:0:0:0:
460,192,30358,1,0,0:0:0:0:
51,192,30358,1,0,0:0:0:0:
256,192,30477,1,0,0:0:0:0:
51,192,30596,1,0,0:0:0:0:
460,192,30596,1,0,0:0:0:0:
51,192,30834,1,0,0:0:0:0:
460,192,30834,1,0,0:0:0:0:
153,192,31072,1,0,0:0:0:0:
358,192,31072,1,0,0:0:0:0:
51,192,31310,1,0,0:0:0:0:
256,192,31310,1,0,0:0:0:0:
460,192,31310,1,0,0:0:0:0:
153,192,31549,1,0,0:0:0:0:
256,192,31787,1,0,0:0:0:0:
358,192,31787,1,0,0:0:0:0:
460,192,32025,128,0,32501:0:0:0:0:
51,192,32263,1,0,0:0:0:0:
153,192,32501,1,0,0:0:0:0:
256,192,32739,1,0,0:0:0:0:
460,192,32739,1,0,0:0:0:0:
358,192,32977,1,0,0:0:0:0:
256,192,33215,128,0,33691:0:0:0:0:
51,192,33453,1,0,0:0:0:0:
153,192,33691,1,0,0:0:0:0:
460,192,33691,1,0,0:0:0:0:
256,192,33929,1,0,0:0:0:0:
358,192,34168,1,0,0:0:0:0:
460,192,34168,1,0,0:0:0:0:
51,192,34406,1,0,0:0:0:0:
153,192,34406,1,0,0:0:0:0:
358,192,34644,1,0,0:0:0:0:
460,192,34644,1,0,0:0:0:0:
256,192,34882,1,0,0:0:0:0:
153,192,35120,1,0,0:0:0:0:
460,192,35120,1,0,0:0:0:0:
358,192,35358,1,0,0:0:0:0:
256,192,35596,1,0,0:0:0:0:
51,192,35596,1,0,0:0:0:0:
153,192,35834,128,0,36310:0:0:0:0:
460,192,36072,1,0,0:0:0:0:
358,192,36310,1,0,0:0:0:0:
256,192,36549,1,0,0:0:0:0:
51,192,36549,1,0,0:0:0:0:
153,192,36787,1,0,0:0:0:0:
358,192,37025,128,0,37501:0:0:0:0:
51,192,37263,1,0,0:0:0:0:
153,192,37501,1,0,0:0:0:0:
460,192,37501,1,0,0:0:0:0:
256,192,37739,1,0,0:0:0:0:
358,192,37858,1,0,0:0:0:0:
460,192,37977,1,0,0:0:0:0:
51,192,37977,1,0,0:0:0:0:
256,192,38215,1,0,0:0:0:0:
51,192,38453,1,0,0:0:0:0:
460,192,38453,1,0,0:0:0:0:
358,192,38691,1,0,0:0:0:0:
51,192,38929,1,0,0:0:0:0:
153,192,39168,1,0,0:0:0:0:
256,192,39406,1,0,0:0:0:0:
358,192,39406,1,0,0:0:0:0:
460,192,39644,128,0,40120:0:0:0:0:
51,192,39882,1,0,0:0:0:0:
153,192,40120,1,0,0:0:0:0:
256,192,40358,1,0,0:0:0:0:
358,192,40358,1,0,0:0:0:0:
460,192,40596,1,0,0:0:0:0:
153,192,40834,128,0,41310:0:0:0:0:
358,192,40834,1,0,0:0:0:0:
256,192,41072,1,0,0:0:0:0:
51,192,41310,1,0,0:0:0:0:
460,192,41310,1,0,0:0:0:0:
358,192,41549,1,0,0:0:0:0:
256,192,41668,1,0,0:0:0:0:
153,192,41787,1,0,0:0:0:0:
51,192,41787,1,0,0:0:0:0:
358,192,42025,1,0,0:0:0:0:
460,192,42025,1,0,0:0:0:0:
51,192,42263,1,0,0:0:0:0:
153,192,42263,1,0,0:0:0:0:
256,192,42501,1,0,0:0:0:0:
358,192,42739,1,0,0:0:0:0:
460,192,42977,1,0,0:0:0:0:
51,192,43215,1,0,0:0:0:0:
358,192,43215,1,0,0:0:0:0:
153,192,43453,128,0,43929:0:0:0:0:
358,192,43691,1,0,0:0:0:0:
460,192,43929,1,0,0:0:0:0:
256,192,44168,1,0,0:0:0:0:
51,192,44168,1,0,0:0:0:0:
153,192,44406,1,0,0:0:0:0:
256,192,44644,128,0,45120:0:0:0:0:
358,192,44882,1,0,0:0:0:0:
460,192,45120,1,0,0:0:0:0:
51,192,45120,1,0,0:0:0:0:
153,192,45358,1,0,0:0:0:0:
256,192,45596,1,0,0:0:0:0:
460,192,45596,1,0,0:0:0:0:
51,192,45834,1,0,0:0:0:0:
460,192,45834,1,0,0:0:0:0:
51,192,46072,1,0,0:0:0:0:
460,192,46072,1,0,0:0:0:0:
256,192,46310,1,0,0:0:0:0:
460,192,46549,128,0,47501:0:0:0:0:
51,192,46549,1,0,0:0:0:0:
358,192,46549,1,0,0:0:0:0:
256,192,47025,1,0,0:0:0:0:
358,192,47501,128,0,48453:0:0:0:0:
153,192,47501,1,0,0:0:0:0:
256,192,47739,1,0,0:0:0:0:
460,192,47977,1,0,0:0:0:0:
51,192,48215,1,0,0:0:0:0:
153,192,48334,1,0,0:0:0:0:
256,192,48453,128,0,49406:0:0:0:0:
51,192,48691,1,0,0:0:0:0:
153,192,48929,1,0,0:0:0:0:
358,192,49168,1,0,0:0:0:0:
153,192,49406,128,0,50358:0:0:0:0:
460,192,49406,1,0,0:0:0:0:
358,192,49644,1,0,0:0:0:0:
51,192,49882,1,0,0:0:0:0:
358,192,50120,1,0,0:0:0:0:
51,192,50358,1,0,0:0:0:0:
460,192,50358,1,0,0:0:0:0:
358,192,50596,1,0,0:0:0:0:
51,192,50834,1,0,0:0:0:0:
153,192,50834,1,0,0:0:0:0:
256,192,50834,1,0,0:0:0:0:
460,192,51072,1,0,0:0:0:0:
358,192,51310,1,0,0:0:0:0:
51,192,51310,1,0,0:0:0:0:
153,192,51549,1,0,0:0:0:0:
256,192,51787,1,0,0:0:0:0:
358,192,51787,1,0,0:0:0:0:
460,192,51787,1,0,0:0:0:0:
51,192,52025,1,0,0:0:0:0:
153,192,52144,1,0,0:0:0:0:
256,192,52263,1,0,0:0:0:0:
460,192,52263,1,0,0:0:0:0:
358,192,52501,1,0,0:0:0:0:
256,192,52739,1,0,0:0:0:0:
153,192,52739,1,0,0:0:0:0:
51,192,52977,1,0,0:0:0:0:
358,192,52977,1,0,0:0:0:0:
256,192,53215,1,0,0:0:0:0:
460,192,53215,1,0,0:0:0:0:
256,192,53453,1,0,0:0:0:0:
460,192,53453,1,0,0:0:0:0:
51,192,53691,1,0,0:0:0:0:
153,192,53691,1,0,0:0:0:0:
256,192,53929,1,0,0:0:0:0:
460,192,53929,1,0,0:0:0:0:
460,192,54168,128,0,55120:0:0:0:0:
256,192,54168,1,0,0:0:0:0:
51,192,54168,1,0,0:0:0:0:
153,192,54644,1,0,0:0:0:0:
358,192,55120,128,0,56072:0:0:0:0:
51,192,55120,1,0,0:0:0:0:
153,192,55358,1,0,0:0:0:0:
460,192,55596,1,0,0:0:0:0:
51,192,55834,1,0,0:0:0:0:
153,192,55953,1,0,0:0:0:0:
256,192,56072,128,0,57025:0:0:0:0:
51,192,56310,1,0,0:0:0:0:
153,192,56549,1,0,0:0:0:0:
358,192,56787,1,0,0:0:0:0:
460,192,57025,1,0,0:0:0:0:
256,192,57263,1,0,0:0:0:0:
358,192,57501,1,0,0:0:0:0:
51,192,57501,1,0,0:0:0:0:
153,192,57739,1,0,0:0:0:0:
256,192,57977,1,0,0:0:0:0:
460,192,57977,1,0,0:0:0:0:
51,192,57977,1,0,0:0:0:0:
460,192,58453,1,0,0:0:0:0:
460,192,58929,1,0,0:0:0:0:
460,192,59406,1,0,0:0:0:0:
51,192,59882,1,0,0:0:0:0:
153,192,59882,1,0,0:0:0:0:
358,192,59882,1,0,0:0:0:0:
51,192,60120,1,0,0:0:0:0:
51,192,60358,1,0,0:0:0:0:
51,192,60596,1,0,0:0:0:0:
51,192,60834,1,0,0:0:0:0:
358,192,60834,1,0,0:0:0:0:
51,192,61072,1,0,0:0:0:0:
358,192,61072,1,0,0:0:0:0:
51,192,61310,1,0,0:0:0:0:
358,192,61310,1,0,0:0:0:0:
460,192,61310,1,0,0:0:0:0:
51,192,61549,1,0,0:0:0:0:
358,192,61549,1,0,0:0:0:0:
460,192,61549,1,0,0:0:0:0:
51,192,61787,1,0,0:0:0:0:
153,192,61787,1,0,0:0:0:0:
460,192,61787,1,0,0:0:0:0:
256,192,62025,1,0,0:0:0:0:
358,192,62263,1,0,0:0:0:0:
460,192,62263,1,0,0:0:0:0:
51,192,62263,1,0,0:0:0:0:
256,192,62501,1,0,0:0:0:0:
153,192,62739,1,0,0:0:0:0:
51,192,62739,1,0,0:0:0:0:
460,192,62977,128,0,63215:0:0:0:0:
358,192,63215,128,0,63453:0:0:0:0:
153,192,63215,1,0,0:0:0:0:
51,192,63215,1,0,0:0:0:0:
256,192,63453,128,0,63691:0:0:0:0:
153,192,63691,128,0,64406:0:0:0:0:
51,192,63691,1,0,0:0:0:0:
460,192,63691,1,0,0:0:0:0:
256,192,64168,1,0,0:0:0:0:
358,192,64168,1,0,0:0:0:0:
51,192,64406,128,0,65120:0:0:0:0:
153,192,64644,1,0,0:0:0:0:
358,192,64644,1,0,0:0:0:0:
460,192,64882,128,0,65120:0:0:0:0:
256,192,64882,1,0,0:0:0:0:
358,192,65120,1,0,0:0:0:0:
51,192,65596,1,0,0:0:0:0:
358,192,65596,1,0,0:0:0:0:
460,192,65596,1,0,0:0:0:0:
153,192,65834,1,0,0:0:0:0:
256,192,66072,1,0,0:0:0:0:
460,192,66072,1,0,0:0:0:0:
358,192,66310,1,0,0:0:0:0:
256,192,66549,1,0,0:0:0:0:
51,192,66549,1,0,0:0:0:0:
460,192,66787,128,0,67025:0:0:0:0:
358,192,67025,128,0,67263:0:0:0:0:
51,192,67025,1,0,0:0:0:0:
153,192,67025,1,0,0:0:0:0:
256,192,67263,128,0,67501:0:0:0:0:
153,192,67501,128,0,68215:0:0:0:0:
51,192,67501,1,0,0:0:0:0:
460,192,67501,1,0,0:0:0:0:
256,192,67977,1,0,0:0:0:0:
358,192,67977,1,0,0:0:0:0:
51,192,68215,128,0,68929:0:0:0:0:
153,192,68453,1,0,0:0:0:0:
358,192,68453,1,0,0:0:0:0:
460,192,68691,128,0,68929:0:0:0:0:
256,192,68691,1,0,0:0:0:0:
358,192,68929,1,0,0:0:0:0:
51,192,69406,1,0,0:0:0:0:
358,192,69406,1,0,0:0:0:0:
460,192,69406,1,0,0:0:0:0:
256,192,69644,1,0,0:0:0:0:
51,192,69882,1,0,0:0:0:0:
153,192,69882,1,0,0:0:0:0:
460,192,69882,1,0,0:0:0:0:
256,192,70120,1,0,0:0:0:0:
358,192,70358,1,0,0:0:0:0:
460,192,70358,1,0,0:0:0:0:
51,192,70596,128,0,70834:0:0:0:0:
153,192,70834,128,0,71072:0:0:0:0:
358,192,70834,1,0,0:0:0:0:
460,192,70834,1,0,0:0:0:0:
256,192,71072,128,0,71310:0:0:0:0:
358,192,71310,128,0,72025:0:0:0:0:
460,192,71310,1,0,0:0:0:0:
51,192,71310,1,0,0:0:0:0:
153,192,71787,1,0,0:0:0:0:
256,192,71787,1,0,0:0:0:0:
460,192,72025,128,0,72739:0:0:0:0:
358,192,72263,1,0,0:0:0:0:
153,192,72263,1,0,0:0:0:0:
51,192,72501,128,0,72739:0:0:0:0:
256,192,72501,1,0,0:0:0:0:
153,192,72739,1,0,0:0:0:0:
256,192,72977,1,0,0:0:0:0:
358,192,73215,128,0,75120:0:0:0:0:
51,192,73215,1,0,0:0:0:0:
460,192,73215,1,0,0:0:0:0:
153,192,73215,1,0,0:0:0:0:
256,192,73453,1,0,0:0:0:0:
460,192,73691,1,0,0:0:0:0:
51,192,73691,1,0,0:0:0:0:
153,192,73929,1,0,0:0:0:0:
256,192,74168,1,0,0:0:0:0:
460,192,74168,1,0,0:0:0:0:
153,192,74406,1,0,0:0:0:0:
51,192,74644,1,0,0:0:0:0:
460,192,74644,1,0,0:0:0:0:
256,192,74882,1,0,0:0:0:0:
153,192,75120,1,0,0:0:0:0:
51,192,75120,1,0,0:0:0:0:
460,192,75120,128,0,76072:0:0:0:0:
256,192,75358,1,0,0:0:0:0:
358,192,75596,1,0,0:0:0:0:
51,192,75596,1,0,0:0:0:0:
153,192,75834,1,0,0:0:0:0:
256,192,76072,1,0,0:0:0:0:
358,192,76072,1,0,0:0:0:0:
153,192,76191,1,0,0:0:0:0:
51,192,76310,1,0,0:0:0:0:
460,192,76310,1,0,0:0:0:0:
358,192,76429,1,0,0:0:0:0:
256,192,76549,1,0,0:0:0:0:
51,192,76549,1,0,0:0:0:0:
153,192,76787,1,0,0:0:0:0:
460,192,77025,1,0,0:0:0:0:
358,192,77025,1,0,0:0:0:0:
51,192,77025,128,0,77501:0:0:0:0:
358,192,77501,1,0,0:0:0:0:
256,192,77501,1,0,0:0:0:0:
153,192,77501,128,0,77977:0:0:0:0:
358,192,77977,1,0,0:0:0:0:
51,192,77977,1,0,0:0:0:0:
460,192,77977,128,0,78453:0:0:0:0:
51,192,78453,1,0,0:0:0:0:
256,192,78453,1,0,0:0:0:0:
358,192,78453,128,0,78929:0:0:0:0:
460,192,78929,1,0,0:0:0:0:
256,192,78929,1,0,0:0:0:0:
51,192,78929,128,0,79287:0:0:0:0:
153,192,79287,128,0,79644:0:0:0:0:
256,192,79406,1,0,0:0:0:0:
51,192,79644,1,0,0:0:0:0:
460,192,79644,128,0,79882:0:0:0:0:
256,192,79882,1,0,0:0:0:0:
358,192,79882,128,0,80358:0:0:0:0:
153,192,80120,1,0,0:0:0:0:
460,192,80358,1,0,0:0:0:0:
51,192,80358,1,0,0:0:0:0:
256,192,80358,128,0,80834:0:0:0:0:
153,192,80596,1,0,0:0:0:0:
358,192,80834,1,0,0:0:0:0:
51,192,80834,1,0,0:0:0:0:
460,192,80834,128,0,81310:0:0:0:0:
153,192,81310,1,0,0:0:0:0:
51,192,81310,1,0,0:0:0:0:
358,192,81310,128,0,81787:0:0:0:0:
256,192,81787,1,0,0:0:0:0:
153,192,81787,1,0,0:0:0:0:
51,192,81787,128,0,82263:0:0:0:0:
460,192,82263,1,0,0:0:0:0:
256,192,82263,1,0,0:0:0:0:
153,192,82263,128,0,82739:0:0:0:0:
51,192,82739,1,0,0:0:0:0:
256,192,82739,1,0,0:0:0:0:
460,192,82739,128,0,83096:0:0:0:0:
358,192,83096,128,0,83453:0:0:0:0:
256,192,83215,1,0,0:0:0:0:
51,192,83453,128,0,83691:0:0:0:0:
460,192,83691,1,0,0:0:0:0:
153,192,83691,128,0,84168:0:0:0:0:
358,192,83929,1,0,0:0:0:0:
460,192,84168,1,0,0:0:0:0:
51,192,84168,1,0,0:0:0:0:
256,192,84168,128,0,84644:0:0:0:0:
358,192,84406,1,0,0:0:0:0:
153,192,84644,1,0,0:0:0:0:
51,192,84644,1,0,0:0:0:0:
460,192,84644,128,0,85120:0:0:0:0:
256,192,85120,1,0,0:0:0:0:
153,192,85120,1,0,0:0:0:0:
358,192,85120,128,0,85596:0:0:0:0:
460,192,85596,1,0,0:0:0:0:
256,192,85596,1,0,0:0:0:0:
51,192,85596,128,0,86072:0:0:0:0:
460,192,86072,1,0,0:0:0:0:
358,192,86072,1,0,0:0:0:0:
153,192,86072,128,0,86549:0:0:0:0:
51,192,86549,1,0,0:0:0:0:
256,192,86549,1,0,0:0:0:0:
460,192,86549,128,0,86906:0:0:0:0:
358,192,86906,128,0,87263:0:0:0:0:
256,192,87025,1,0,0:0:0:0:
51,192,87263,128,0,87501:0:0:0:0:
256,192,87501,1,0,0:0:0:0:
460,192,87501,128,0,87977:0:0:0:0:
153,192,87739,1,0,0:0:0:0:
256,192,87977,1,0,0:0:0:0:
51,192,87977,1,0,0:0:0:0:
358,192,87977,128,0,88453:0:0:0:0:
153,192,88215,1,0,0:0:0:0:
51,192,88453,1,0,0:0:0:0:
460,192,88453,1,0,0:0:0:0:
153,192,88453,128,0,90358:0:0:0:0:
358,192,88691,1,0,0:0:0:0:
51,192,88929,1,0,0:0:0:0:
256,192,88929,1,0,0:0:0:0:
358,192,89168,1,0,0:0:0:0:
51,192,89406,1,0,0:0:0:0:
460,192,89406,1,0,0:0:0:0:
358,192,89644,1,0,0:0:0:0:
51,192,89882,1,0,0:0:0:0:
256,192,89882,1,0,0:0:0:0:
358,192,90120,1,0,0:0:0:0:
256,192,90358,1,0,0:0:0:0:
51,192,90358,1,0,0:0:0:0:
460,192,90358,128,0,90715:0:0:0:0:
358,192,90715,128,0,91072:0:0:0:0:
153,192,90834,1,0,0:0:0:0:
256,192,90834,1,0,0:0:0:0:
51,192,91072,128,0,91310:0:0:0:0:
256,192,91310,1,0,0:0:0:0:
460,192,91310,128,0,91787:0:0:0:0:
153,192,91549,1,0,0:0:0:0:
256,192,91787,1,0,0:0:0:0:
51,192,91787,1,0,0:0:0:0:
358,192,91787,128,0,92263:0:0:0:0:
153,192,92025,1,0,0:0:0:0:
460,192,92263,1,0,0:0:0:0:
256,192,92263,1,0,0:0:0:0:
51,192,92263,128,0,92501:0:0:0:0:
153,192,92501,128,0,92739:0:0:0:0:
256,192,92739,128,0,92977:0:0:0:0:
460,192,92739,1,0,0:0:0:0:
358,192,92977,128,0,93215:0:0:0:0:
460,192,93215,128,0,93453:0:0:0:0:
51,192,93215,1,0,0:0:0:0:
256,192,93453,128,0,93691:0:0:0:0:
153,192,93691,128,0,93929:0:0:0:0:
460,192,93691,1,0,0:0:0:0:
51,192,93929,128,0,94644:0:0:0:0:
358,192,94168,1,0,0:0:0:0:
256,192,94644,1,0,0:0:0:0:
460,192,94882,128,0,95120:0:0:0:0:
358,192,95120,128,0,95358:0:0:0:0:
256,192,95120,1,0,0:0:0:0:
153,192,95358,128,0,95596:0:0:0:0:
51,192,95596,128,0,96072:0:0:0:0:
460,192,95596,1,0,0:0:0:0:
460,192,96072,128,0,97025:0:0:0:0:
358,192,96072,1,0,0:0:0:0:
256,192,96549,128,0,98453:0:0:0:0:
153,192,96549,1,0,0:0:0:0:
51,192,97025,128,0,97501:0:0:0:0:
153,192,97025,1,0,0:0:0:0:
460,192,97501,128,0,98453:0:0:0:0:
358,192,97501,1,0,0:0:0:0:
51,192,97739,128,0,98453:0:0:0:0:
153,192,97977,1,0,0:0:0:0:
358,192,98453,1,0,0:0:0:0:
153,192,98691,1,0,0:0:0:0:
256,192,98810,1,0,0:0:0:0:
358,192,98929,128,0,99168:0:0:0:0:
51,192,98929,1,0,0:0:0:0:
460,192,99168,128,0,99406:0:0:0:0:
51,192,99406,128,0,99644:0:0:0:0:
256,192,99406,1,0,0:0:0:0:
153,192,99644,128,0,100120:0:0:0:0:
358,192,99882,1,0,0:0:0:0:
460,192,100120,128,0,100358:0:0:0:0:
358,192,100358,128,0,100596:0:0:0:0:
51,192,100358,1,0,0:0:0:0:
256,192,100596,128,0,100834:0:0:0:0:
153,192,100834,128,0,101072:0:0:0:0:
460,192,100834,1,0,0:0:0:0:
51,192,101072,128,0,101310:0:0:0:0:
460,192,101310,128,0,102263:0:0:0:0:
358,192,101310,1,0,0:0:0:0:
51,192,101549,128,0,102263:0:0:0:0:
256,192,101787,1,0,0:0:0:0:
153,192,102263,1,0,0:0:0:0:
460,192,102739,128,0,103453:0:0:0:0:
256,192,102739,1,0,0:0:0:0:
51,192,103215,1,0,0:0:0:0:
358,192,103453,128,0,103691:0:0:0:0:
256,192,103691,128,0,104168:0:0:0:0:
153,192,103691,1,0,0:0:0:0:
51,192,104168,128,0,104406:0:0:0:0:
358,192,104168,1,0,0:0:0:0:
153,192,104406,128,0,105120:0:0:0:0:
460,192,104644,1,0,0:0:0:0:
460,192,105120,128,0,105358:0:0:0:0:
51,192,105120,1,0,0:0:0:0:
358,192,105358,128,0,106310:0:0:0:0:
153,192,105596,1,0,0:0:0:0:
153,192,106072,1,0,0:0:0:0:
256,192,106310,128,0,107025:0:0:0:0:
51,192,106668,1,0,0:0:0:0:
460,192,106668,1,0,0:0:0:0:
51,192,106787,1,0,0:0:0:0:
460,192,106787,1,0,0:0:0:0:
51,192,107025,1,0,0:0:0:0:
460,192,107025,1,0,0:0:0:0:
358,192,107263,1,0,0:0:0:0:
460,192,107501,1,0,0:0:0:0:
256,192,107501,1,0,0:0:0:0:
51,192,107501,1,0,0:0:0:0:
153,192,107739,1,0,0:0:0:0:
358,192,107977,1,0,0:0:0:0:
256,192,107977,1,0,0:0:0:0:
460,192,108215,128,0,108691:0:0:0:0:
51,192,108453,1,0,0:0:0:0:
153,192,108691,1,0,0:0:0:0:
460,192,108929,1,0,0:0:0:0:
256,192,108929,1,0,0:0:0:0:
358,192,109168,1,0,0:0:0:0:
256,192,109406,128,0,109882:0:0:0:0:
51,192,109644,1,0,0:0:0:0:
460,192,109882,1,0,0:0:0:0:
153,192,109882,1,0,0:0:0:0:
256,192,110120,1,0,0:0:0:0:
460,192,110358,1,0,0:0:0:0:
358,192,110358,1,0,0:0:0:0:
153,192,110596,1,0,0:0:0:0:
51,192,110596,1,0,0:0:0:0:
460,192,110834,1,0,0:0:0:0:
358,192,110834,1,0,0:0:0:0:
256,192,111072,1,0,0:0:0:0:
460,192,111310,1,0,0:0:0:0:
153,192,111310,1,0,0:0:0:0:
358,192,111549,1,0,0:0:0:0:
51,192,111787,1,0,0:0:0:0:
256,192,111787,1,0,0:0:0:0:
153,192,112025,128,0,112501:0:0:0:0:
460,192,112263,1,0,0:0:0:0:
358,192,112501,1,0,0:0:0:0:
51,192,112739,1,0,0:0:0:0:
256,192,112739,1,0,0:0:0:0:
153,192,112977,1,0,0:0:0:0:
358,192,113215,128,0,113691:0:0:0:0:
51,192,113453,1,0,0:0:0:0:
460,192,113691,1,0,0:0:0:0:
153,192,113691,1,0,0:0:0:0:
256,192,113929,1,0,0:0:0:0:
358,192,114049,1,0,0:0:0:0:
51,192,114168,1,0,0:0:0:0:
460,192,114168,1,0,0:0:0:0:
256,192,114406,1,0,0:0:0:0:
460,192,114644,1,0,0:0:0:0:
51,192,114644,1,0,0:0:0:0:
358,192,114882,1,0,0:0:0:0:
51,192,115120,1,0,0:0:0:0:
153,192,115358,1,0,0:0:0:0:
358,192,115596,1,0,0:0:0:0:
256,192,115596,1,0,0:0:0:0:
460,192,115834,128,0,116310:0:0:0:0:
51,192,116072,1,0,0:0:0:0:
153,192,116310,1,0,0:0:0:0:
358,192,116549,1,0,0:0:0:0:
256,192,116549,1,0,0:0:0:0:
460,192,116787,1,0,0:0:0:0:
358,192,117025,1,0,0:0:0:0:
153,192,117025,128,0,117501:0:0:0:0:
256,192,117263,1,0,0:0:0:0:
460,192,117501,1,0,0:0:0:0:
51,192,117501,1,0,0:0:0:0:
358,192,117739,1,0,0:0:0:0:
256,192,117858,1,0,0:0:0:0:
51,192,117977,1,0,0:0:0:0:
153,192,117977,1,0,0:0:0:0:
460,192,118215,1,0,0:0:0:0:
358,192,118215,1,0,0:0:0:0:
153,192,118453,1,0,0:0:0:0:
51,192,118453,1,0,0:0:0:0:
256,192,118691,1,0,0:0:0:0:
358,192,118929,1,0,0:0:0:0:
460,192,119168,1,0,0:0:0:0:
358,192,119406,1,0,0:0:0:0:
51,192,119406,1,0,0:0:0:0:
153,192,119644,128,0,120120:0:0:0:0:
358,192,119882,1,0,0:0:0:0:
460,192,120120,1,0,0:0:0:0:
51,192,120358,1,0,0:0:0:0:
256,192,120358,1,0,0:0:0:0:
153,192,120596,1,0,0:0:0:0:
256,192,120834,128,0,121310:0:0:0:0:
358,192,121072,1,0,0:0:0:0:
51,192,121310,1,0,0:0:0:0:
460,192,121310,1,0,0:0:0:0:
153,192,121549,1,0,0:0:0:0:
460,192,121787,1,0,0:0:0:0:
256,192,121787,1,0,0:0:0:0:
358,192,122025,1,0,0:0:0:0:
256,192,122144,1,0,0:0:0:0:
153,192,122263,1,0,0:0:0:0:
51,192,122263,1,0,0:0:0:0:
153,192,122501,1,0,0:0:0:0:
256,192,122620,1,0,0:0:0:0:
358,192,122739,1,0,0:0:0:0:
51,192,122739,1,0,0:0:0:0:
460,192,122739,128,0,123691:0:0:0:0:
256,192,123215,1,0,0:0:0:0:
153,192,123691,1,0,0:0:0:0:
358,192,123691,128,0,124644:0:0:0:0:
256,192,123929,1,0,0:0:0:0:
460,192,124168,1,0,0:0:0:0:
51,192,124406,1,0,0:0:0:0:
153,192,124525,1,0,0:0:0:0:
256,192,124644,128,0,125596:0:0:0:0:
51,192,124882,1,0,0:0:0:0:
153,192,125120,1,0,0:0:0:0:
358,192,125358,1,0,0:0:0:0:
460,192,125596,1,0,0:0:0:0:
153,192,125596,128,0,126549:0:0:0:0:
51,192,126072,1,0,0:0:0:0:
460,192,126549,1,0,0:0:0:0:
51,192,126549,1,0,0:0:0:0:
358,192,126787,1,0,0:0:0:0:
256,192,127025,1,0,0:0:0:0:
153,192,127025,1,0,0:0:0:0:
51,192,127025,1,0,0:0:0:0:
460,192,127263,1,0,0:0:0:0:
51,192,127501,1,0,0:0:0:0:
358,192,127501,1,0,0:0:0:0:
153,192,127739,1,0,0:0:0:0:
460,192,127977,1,0,0:0:0:0:
358,192,127977,1,0,0:0:0:0:
256,192,127977,1,0,0:0:0:0:
51,192,128215,1,0,0:0:0:0:
153,192,128334,1,0,0:0:0:0:
460,192,128453,1,0,0:0:0:0:
256,192,128453,1,0,0:0:0:0:
358,192,128691,1,0,0:0:0:0:
153,192,128929,1,0,0:0:0:0:
256,192,128929,1,0,0:0:0:0:
358,192,129168,1,0,0:0:0:0:
51,192,129168,1,0,0:0:0:0:
460,192,129406,1,0,0:0:0:0:
256,192,129406,1,0,0:0:0:0:
460,192,129644,1,0,0:0:0:0:
256,192,129644,1,0,0:0:0:0:
153,192,129882,1,0,0:0:0:0:
51,192,129882,1,0,0:0:0:0:
460,192,130120,1,0,0:0:0:0:
256,192,130120,1,0,0:0:0:0:
51,192,130358,1,0,0:0:0:0:
256,192,130358,1,0,0:0:0:0:
460,192,130358,128,0,131310:0:0:0:0:
153,192,130834,1,0,0:0:0:0:
51,192,131310,1,0,0:0:0:0:
358,192,131310,128,0,132263:0:0:0:0:
153,192,131549,1,0,0:0:0:0:
460,192,131787,1,0,0:0:0:0:
51,192,132025,1,0,0:0:0:0:
153,192,132144,1,0,0:0:0:0:
256,192,132263,128,0,133215:0:0:0:0:
51,192,132501,1,0,0:0:0:0:
153,192,132739,1,0,0:0:0:0:
358,192,132977,1,0,0:0:0:0:
460,192,133215,1,0,0:0:0:0:
256,192,133453,1,0,0:0:0:0:
51,192,133691,1,0,0:0:0:0:
358,192,133691,1,0,0:0:0:0:
153,192,133929,1,0,0:0:0:0:
256,192,134168,1,0,0:0:0:0:
460,192,134168,1,0,0:0:0:0:
51,192,134168,1,0,0:0:0:0:
460,192,134406,1,0,0:0:0:0:
460,192,134644,1,0,0:0:0:0:
460,192,134882,1,0,0:0:0:0:
460,192,135120,1,0,0:0:0:0:
153,192,135120,1,0,0:0:0:0:
460,192,135358,1,0,0:0:0:0:
460,192,135596,1,0,0:0:0:0:
153,192,135596,1,0,0:0:0:0:
460,192,135834,1,0,0:0:0:0:
358,192,136072,1,0,0:0:0:0:
153,192,136072,1,0,0:0:0:0:
51,192,136072,1,0,0:0:0:0:
256,192,136310,1,0,0:0:0:0:
358,192,136429,1,0,0:0:0:0:
460,192,136549,1,0,0:0:0:0:
51,192,136549,1,0,0:0:0:0:
153,192,136668,1,0,0:0:0:0:
256,192,136787,1,0,0:0:0:0:
358,192,136787,1,0,0:0:0:0:
51,192,137025,1,0,0:0:0:0:
460,192,137025,1,0,0:0:0:0:
153,192,137263,1,0,0:0:0:0:
256,192,137263,1,0,0:0:0:0:
358,192,137382,1,0,0:0:0:0:
51,192,137501,1,0,0:0:0:0:
460,192,137501,1,0,0:0:0:0:
153,192,137620,1,0,0:0:0:0:
256,192,137739,1,0,0:0:0:0:
358,192,137858,1,0,0:0:0:0:
460,192,137977,1,0,0:0:0:0:
153,192,137977,1,0,0:0:0:0:
51,192,137977,1,0,0:0:0:0:
256,192,138215,1,0,0:0:0:0:
51,192,138453,1,0,0:0:0:0:
460,192,138453,1,0,0:0:0:0:
358,192,138453,1,0,0:0:0:0:
256,192,138691,1,0,0:0:0:0:
51,192,138929,1,0,0:0:0:0:
153,192,138929,1,0,0:0:0:0:
460,192,139168,128,0,139406:0:0:0:0:
51,192,139406,1,0,0:0:0:0:
153,192,139406,1,0,0:0:0:0:
358,192,139406,128,0,139644:0:0:0:0:
256,192,139644,128,0,139882:0:0:0:0:
460,192,139882,1,0,0:0:0:0:
51,192,139882,1,0,0:0:0:0:
153,192,139882,128,0,140596:0:0:0:0:
358,192,140358,1,0,0:0:0:0:
256,192,140358,1,0,0:0:0:0:
51,192,140596,128,0,141310:0:0:0:0:
358,192,140834,1,0,0:0:0:0:
153,192,140834,1,0,0:0:0:0:
256,192,141072,1,0,0:0:0:0:
460,192,141072,128,0,141310:0:0:0:0:
358,192,141310,1,0,0:0:0:0:
460,192,141787,1,0,0:0:0:0:
358,192,141787,1,0,0:0:0:0:
51,192,141787,1,0,0:0:0:0:
153,192,142025,1,0,0:0:0:0:
460,192,142263,1,0,0:0:0:0:
256,192,142263,1,0,0:0:0:0:
358,192,142501,1,0,0:0:0:0:
51,192,142739,1,0,0:0:0:0:
256,192,142739,1,0,0:0:0:0:
460,192,142977,128,0,143215:0:0:0:0:
153,192,143215,1,0,0:0:0:0:
51,192,143215,1,0,0:0:0:0:
358,192,143215,128,0,143453:0:0:0:0:
256,192,143453,128,0,143691:0:0:0:0:
460,192,143691,1,0,0:0:0:0:
51,192,143691,1,0,0:0:0:0:
153,192,143691,128,0,144406:0:0:0:0:
358,192,144168,1,0,0:0:0:0:
256,192,144168,1,0,0:0:0:0:
51,192,144406,128,0,145120:0:0:0:0:
358,192,144644,1,0,0:0:0:0:
153,192,144644,1,0,0:0:0:0:
256,192,144882,1,0,0:0:0:0:
460,192,144882,128,0,145120:0:0:0:0:
358,192,145120,1,0,0:0:0:0:
460,192,145596,1,0,0:0:0:0:
358,192,145596,1,0,0:0:0:0:
51,192,145596,1,0,0:0:0:0:
256,192,145834,1,0,0:0:0:0:
460,192,146072,1,0,0:0:0:0:
153,192,146072,1,0,0:0:0:0:
51,192,146072,1,0,0:0:0:0:
256,192,146310,1,0,0:0:0:0:
460,192,146549,1,0,0:0:0:0:
358,192,146549,1,0,0:0:0:0:
51,192,146787,128,0,147025:0:0:0:0:
460,192,147025,1,0,0:0:0:0:
358,192,147025,1,0,0:0:0:0:
153,192,147025,128,0,147263:0:0:0:0:
256,192,147263,128,0,147501:0:0:0:0:
51,192,147501,1,0,0:0:0:0:
460,192,147501,1,0,0:0:0:0:
358,192,147501,128,0,148215:0:0:0:0:
256,192,147977,1,0,0:0:0:0:
153,192,147977,1,0,0:0:0:0:
460,192,148215,128,0,148929:0:0:0:0:
153,192,148453,1,0,0:0:0:0:
358,192,148453,1,0,0:0:0:0:
256,192,148691,1,0,0:0:0:0:
51,192,148691,128,0,148929:0:0:0:0:
153,192,148929,1,0,0:0:0:0:
256,192,149168,1,0,0:0:0:0:
460,192,149406,1,0,0:0:0:0:
153,192,149406,1,0,0:0:0:0:
358,192,149406,128,0,151310:0:0:0:0:
51,192,149406,1,0,0:0:0:0:
256,192,149644,1,0,0:0:0:0:
51,192,149882,1,0,0:0:0:0:
460,192,149882,1,0,0:0:0:0:
153,192,150120,1,0,0:0:0:0:
460,192,150358,1,0,0:0:0:0:
256,192,150358,1,0,0:0:0:0:
153,192,150596,1,0,0:0:0:0:
460,192,150834,1,0,0:0:0:0:
51,192,150834,1,0,0:0:0:0:
256,192,151072,1,0,0:0:0:0:
460,192,151310,128,0,152263:0:0:0:0:
51,192,151310,1,0,0:0:0:0:
153,192,151310,1,0,0:0:0:0:
256,192,151549,1,0,0:0:0:0:
51,192,151787,1,0,0:0:0:0:
358,192,151787,1,0,0:0:0:0:
153,192,152025,1,0,0:0:0:0:
358,192,152263,1,0,0:0:0:0:
256,192,152263,1,0,0:0:0:0:
153,192,152382,1,0,0:0:0:0:
460,192,152501,1,0,0:0:0:0:
51,192,152501,1,0,0:0:0:0:
460,192,152739,1,0,0:0:0:0:
51,192,152739,1,0,0:0:0:0:
358,192,152858,1,0,0:0:0:0:
256,192,152977,1,0,0:0:0:0:
153,192,152977,1,0,0:0:0:0:
51,192,153215,1,0,0:0:0:0:
358,192,153215,1,0,0:0:0:0:
460,192,153215,1,0,0:0:0:0:
256,192,153453,1,0,0:0:0:0:
460,192,153691,1,0,0:0:0:0:
51,192,153691,1,0,0:0:0:0:
153,192,153691,1,0,0:0:0:0:
256,192,153929,1,0,0:0:0:0:
460,192,154168,1,0,0:0:0:0:
358,192,154168,1,0,0:0:0:0:
51,192,154406,128,0,154644:0:0:0:0:
460,192,154644,1,0,0:0:0:0:
358,192,154644,1,0,0:0:0:0:
153,192,154644,128,0,154882:0:0:0:0:
256,192,154882,128,0,155120:0:0:0:0:
51,192,155120,1,0,0:0:0:0:
460,192,155120,1,0,0:0:0:0:
358,192,155120,128,0,155834:0:0:0:0:
153,192,155596,1,0,0:0:0:0:
256,192,155596,1,0,0:0:0:0:
460,192,155834,128,0,156549:0:0:0:0:
153,192,156072,1,0,0:0:0:0:
358,192,156072,1,0,0:0:0:0:
256,192,156310,1,0,0:0:0:0:
51,192,156310,128,0,156549:0:0:0:0:
153,192,156549,1,0,0:0:0:0:
51,192,157025,1,0,0:0:0:0:
153,192,157025,1,0,0:0:0:0:
460,192,157025,1,0,0:0:0:0:
358,192,157263,1,0,0:0:0:0:
51,192,157501,1,0,0:0:0:0:
256,192,157501,1,0,0:0:0:0:
153,192,157739,1,0,0:0:0:0:
460,192,157977,1,0,0:0:0:0:
256,192,157977,1,0,0:0:0:0:
51,192,158215,128,0,158453:0:0:0:0:
358,192,158453,1,0,0:0:0:0:
460,192,158453,1,0,0:0:0:0:
153,192,158453,128,0,158691:0:0:0:0:
256,192,158691,128,0,158929:0:0:0:0:
51,192,158929,1,0,0:0:0:0:
460,192,158929,1,0,0:0:0:0:
358,192,158929,128,0,159644:0:0:0:0:
153,192,159406,1,0,0:0:0:0:
256,192,159406,1,0,0:0:0:0:
460,192,159644,128,0,160358:0:0:0:0:
153,192,159882,1,0,0:0:0:0:
358,192,159882,1,0,0:0:0:0:
256,192,160120,1,0,0:0:0:0:
51,192,160120,128,0,160358:0:0:0:0:
153,192,160358,1,0,0:0:0:0:
51,192,160834,1,0,0:0:0:0:
153,192,160834,1,0,0:0:0:0:
460,192,160834,1,0,0:0:0:0:
256,192,161072,1,0,0:0:0:0:
51,192,161310,1,0,0:0:0:0:
358,192,161310,1,0,0:0:0:0:
460,192,161310,1,0,0:0:0:0:
256,192,161549,1,0,0:0:0:0:
51,192,161787,1,0,0:0:0:0:
153,192,161787,1,0,0:0:0:0:
460,192,162025,128,0,162263:0:0:0:0:
51,192,162263,1,0,0:0:0:0:
153,192,162263,1,0,0:0:0:0:
358,192,162263,128,0,162501:0:0:0:0:
256,192,162501,128,0,162739:0:0:0:0:
460,192,162739,1,0,0:0:0:0:
51,192,162739,1,0,0:0:0:0:
153,192,162739,128,0,163453:0:0:0:0:
256,192,163215,1,0,0:0:0:0:
358,192,163215,1,0,0:0:0:0:
51,192,163453,128,0,164168:0:0:0:0:
358,192,163691,1,0,0:0:0:0:
153,192,163691,1,0,0:0:0:0:
256,192,163929,1,0,0:0:0:0:
460,192,163929,128,0,164168:0:0:0:0:
358,192,164168,1,0,0:0:0:0:
256,192,164406,1,0,0:0:0:0:
51,192,164644,1,0,0:0:0:0:
358,192,164644,1,0,0:0:0:0:
153,192,164644,128,0,166549:0:0:0:0:
460,192,164644,1,0,0:0:0:0:
256,192,164882,1,0,0:0:0:0:
460,192,165120,1,0,0:0:0:0:
51,192,165120,1,0,0:0:0:0:
358,192,165358,1,0,0:0:0:0:
51,192,165596,1,0,0:0:0:0:
256,192,165596,1,0,0:0:0:0:
358,192,165834,1,0,0:0:0:0:
51,192,166072,1,0,0:0:0:0:
460,192,166072,1,0,0:0:0:0:
256,192,166310,1,0,0:0:0:0:
51,192,166549,128,0,167501:0:0:0:0:
460,192,166549,1,0,0:0:0:0:
358,192,166549,1,0,0:0:0:0:
256,192,166787,1,0,0:0:0:0:
460,192,167025,1,0,0:0:0:0:
153,192,167025,1,0,0:0:0:0:
358,192,167263,1,0,0:0:0:0:
153,192,167501,1,0,0:0:0:0:
256,192,167501,1,0,0:0:0:0:
358,192,167620,1,0,0:0:0:0:
153,192,167739,1,0,0:0:0:0:
460,192,167739,1,0,0:0:0:0:
51,192,167977,1,0,0:0:0:0:
256,192,167977,1,0,0:0:0:0:
358,192,168096,1,0,0:0:0:0:
51,192,168215,1,0,0:0:0:0:
460,192,168215,1,0,0:0:0:0:
51,192,168453,128,0,168929:0:0:0:0:
358,192,168453,1,0,0:0:0:0:
460,192,168453,1,0,0:0:0:0:
256,192,168453,1,0,0:0:0:0:
153,192,168929,128,0,169406:0:0:0:0:
256,192,168929,1,0,0:0:0:0:
358,192,168929,1,0,0:0:0:0:
460,192,168929,1,0,0:0:0:0:
460,192,169406,128,0,169882:0:0:0:0:
51,192,169406,1,0,0:0:0:0:
358,192,169406,1,0,0:0:0:0:
358,192,169882,128,0,170358:0:0:0:0:
256,192,169882,1,0,0:0:0:0:
51,192,169882,1,0,0:0:0:0:
51,192,170358,128,0,170715:0:0:0:0:
256,192,170358,1,0,0:0:0:0:
460,192,170358,1,0,0:0:0:0:
153,192,170715,128,0,171072:0:0:0:0:
256,192,170834,1,0,0:0:0:0:
460,192,171072,128,0,171310:0:0:0:0:
51,192,171072,1,0,0:0:0:0:
358,192,171310,128,0,171787:0:0:0:0:
256,192,171310,1,0,0:0:0:0:
153,192,171549,1,0,0:0:0:0:
256,192,171787,128,0,172263:0:0:0:0:
51,192,171787,1,0,0:0:0:0:
460,192,171787,1,0,0:0:0:0:
51,192,172025,1,0,0:0:0:0:
460,192,172263,128,0,172739:0:0:0:0:
51,192,172263,1,0,0:0:0:0:
358,192,172263,1,0,0:0:0:0:
153,192,172263,1,0,0:0:0:0:
358,192,172739,128,0,173215:0:0:0:0:
51,192,172739,1,0,0:0:0:0:
153,192,172739,1,0,0:0:0:0:
256,192,172739,1,0,0:0:0:0:
51,192,173215,128,0,173691:0:0:0:0:
153,192,173215,1,0,0:0:0:0:
256,192,173215,1,0,0:0:0:0:
153,192,173691,128,0,174168:0:0:0:0:
256,192,173691,1,0,0:0:0:0:
460,192,173691,1,0,0:0:0:0:
460,192,174168,128,0,174525:0:0:0:0:
256,192,174168,1,0,0:0:0:0:
51,192,174168,1,0,0:0:0:0:
358,192,174525,128,0,174882:0:0:0:0:
256,192,174644,1,0,0:0:0:0:
51,192,174882,128,0,175120:0:0:0:0:
153,192,175120,128,0,175596:0:0:0:0:
460,192,175120,1,0,0:0:0:0:
358,192,175358,1,0,0:0:0:0:
256,192,175596,128,0,176072:0:0:0:0:
51,192,175596,1,0,0:0:0:0:
460,192,175596,1,0,0:0:0:0:
51,192,175834,1,0,0:0:0:0:
460,192,176072,128,0,176549:0:0:0:0:
51,192,176072,1,0,0:0:0:0:
153,192,176072,1,0,0:0:0:0:
358,192,176072,1,0,0:0:0:0:
358,192,176549,128,0,177025:0:0:0:0:
153,192,176549,1,0,0:0:0:0:
256,192,176549,1,0,0:0:0:0:
51,192,176549,1,0,0:0:0:0:
51,192,177025,128,0,177501:0:0:0:0:
256,192,177025,1,0,0:0:0:0:
460,192,177025,1,0,0:0:0:0:
153,192,177501,128,0,177977:0:0:0:0:
358,192,177501,1,0,0:0:0:0:
460,192,177501,1,0,0:0:0:0:
460,192,177977,128,0,178334:0:0:0:0:
256,192,177977,1,0,0:0:0:0:
51,192,177977,1,0,0:0:0:0:
358,192,178334,128,0,178691:0:0:0:0:
256,192,178453,1,0,0:0:0:0:
51,192,178691,128,0,178929:0:0:0:0:
460,192,178929,128,0,179406:0:0:0:0:
256,192,178929,1,0,0:0:0:0:
153,192,179168,1,0,0:0:0:0:
358,192,179406,128,0,179882:0:0:0:0:
51,192,179406,1,0,0:0:0:0:
256,192,179406,1,0,0:0:0:0:
51,192,179644,1,0,0:0:0:0:
153,192,179882,128,0,181787:0:0:0:0:
460,192,179882,1,0,0:0:0:0:
51,192,179882,1,0,0:0:0:0:
256,192,179882,1,0,0:0:0:0:
358,192,180120,1,0,0:0:0:0:
256,192,180358,1,0,0:0:0:0:
51,192,180358,1,0,0:0:0:0:
358,192,180596,1,0,0:0:0:0:
460,192,180834,1,0,0:0:0:0:
51,192,180834,1,0,0:0:0:0:
358,192,181072,1,0,0:0:0:0:
256,192,181310,1,0,0:0:0:0:
51,192,181310,1,0,0:0:0:0:
358,192,181549,1,0,0:0:0:0:
460,192,181787,128,0,182144:0:0:0:0:
51,192,181787,1,0,0:0:0:0:
256,192,181787,1,0,0:0:0:0:
358,192,182144,128,0,182501:0:0:0:0:
256,192,182263,1,0,0:0:0:0:
153,192,182263,1,0,0:0:0:0:
51,192,182501,128,0,182739:0:0:0:0:
460,192,182739,128,0,183215:0:0:0:0:
256,192,182739,1,0,0:0:0:0:
153,192,182977,1,0,0:0:0:0:
358,192,183215,128,0,183691:0:0:0:0:
51,192,183215,1,0,0:0:0:0:
256,192,183215,1,0,0:0:0:0:
153,192,183453,1,0,0:0:0:0:
256,192,183691,1,0,0:0:0:0:
51,192,183691,128,0,185834:0:0:0:0:
460,192,183691,128,0,185834:0:0:0:0:
