osu file format v14

[General]
AudioFilename: audio.mp3
AudioLeadIn: 0
PreviewTime: 193259
Countdown: 0
SampleSet: Soft
StackLeniency: 0.5
Mode: 0
LetterboxInBreaks: 0
WidescreenStoryboard: 1

[Editor]
Bookmarks: 29960,99239,109135,123981,143775,213362
DistanceSpacing: 1.6
BeatDivisor: 8
GridSize: 4
TimelineZoom: 2

[Metadata]
Title:La Camisa Negra
TitleUnicode:La Camisa Negra
Artist:Juanes
ArtistUnicode:Juanes
Creator:Krisom
Version:Avanzado de Gero
Source:
Tags:Cumbia Latin Pop Mi Sangre Spanish Gero
BeatmapID:2469839
BeatmapSetID:1184848

[Difficulty]
HPDrainRate:6
CircleSize:4
OverallDifficulty:7
ApproachRate:8
SliderMultiplier:2
SliderTickRate:2

[Events]
//Background and Video events
0,0,"candle-wick-fire-dark.png",0,0
Video,-1900,"ED_no_audio.mp4"
//Break Periods
2,99439,108385
2,123981,143025
//Storyboard Layer 0 (Background)
//Storyboard Layer 1 (Fail)
//Storyboard Layer 2 (Pass)
//Storyboard Layer 3 (Foreground)
//Storyboard Layer 4 (Overlay)
//Storyboard Sound Samples

[TimingPoints]
270,618.556701030928,4,2,1,70,1,0
52176,-100,4,2,1,70,0,0
59651,-100,4,2,1,70,0,1
60347,-100,4,2,1,70,0,1
60811,-100,4,2,1,70,0,1
61275,-100,4,2,1,70,0,1
62048,-100,4,2,1,70,0,1
62666,-100,4,2,1,70,0,1
64522,-100,4,2,1,70,0,1
65141,-100,4,2,1,70,0,1
66996,-100,4,2,1,70,0,1
67615,-100,4,2,1,70,0,1
69471,-100,4,2,1,70,0,1
70089,-100,4,2,1,70,0,1
70708,-100,4,2,1,70,0,1
71326,-100,4,2,1,70,0,1
71945,-100,4,2,1,70,0,1
72563,-100,4,2,1,70,0,1
74419,-100,4,2,1,70,0,1
75038,-100,4,2,1,70,0,1
75656,-100,4,2,1,70,0,1
76120,-100,4,2,1,70,0,1
76893,-100,4,2,1,70,0,1
77434,-100,4,2,1,70,0,1
79445,-100,4,2,1,70,0,0
143156,-100,4,2,1,70,0,0
153672,-100,4,2,1,70,0,1
153904,-100,4,2,1,70,0,1
154909,-100,4,2,1,70,0,1
155141,-100,4,2,1,70,0,1
156146,-100,4,2,1,70,0,1
156378,-100,4,2,1,70,0,1
158620,-100,4,2,1,70,0,1
158852,-100,4,2,1,70,0,1
159857,-100,4,2,1,70,0,1
161094,-100,4,2,1,70,0,1
163568,-100,4,2,1,70,0,1
164806,-100,4,2,1,70,0,1
166043,-100,4,2,1,70,0,1
168517,-100,4,2,1,70,0,1
169754,-100,4,2,1,70,0,1
170991,-100,4,2,1,70,0,1
173465,-100,4,2,1,70,0,0
193259,-100,4,2,1,70,0,1
213053,-100,4,2,1,40,0,0

[Colours]
Combo1 : 255,170,43
Combo2 : 255,226,64

[HitObjects]
80,312,29961,6,0,B|108:312|124:332|124:332|140:312|168:312,1,100,0|2,3:0|0:0,0:0:0:0:
256,192,30579,2,0,B|228:192|212:212|212:212|196:192|168:192,1,100,8|2,0:0|0:0,0:0:0:0:
256,72,31198,6,0,B|280:64|280:64|304:72,1,50,0|0,3:0|0:0,0:0:0:0:
356,18,31507,1,2,0:0:0:0:
409,72,31661,1,0,0:0:0:0:
356,126,31816,2,0,L|356:226,1,100,8|2,0:0|0:0,0:0:0:0:
156,126,32434,2,0,L|156:226,1,100,0|2,3:0|0:0,0:0:0:0:
256,340,33053,1,8,0:0:0:0:
356,226,33362,5,2,0:0:0:0:
431,226,33517,1,8,0:0:0:0:
506,226,33672,2,0,B|506:185|476:150|431:150|431:150|400:150,1,150,0|2,3:0|0:0,0:0:0:0:
325,150,34290,2,0,B|339:102|339:102|325:54,1,100,8|2,0:0|0:0,0:0:0:0:
187,150,34909,2,0,B|173:102|173:102|187:54,1,100,0|2,3:0|0:0,0:0:0:0:
256,192,35527,1,8,0:0:0:0:
325,54,35837,5,2,0:0:0:0:
325,54,35991,1,0,0:0:0:0:
325,54,36146,2,0,L|293:14,1,50,0|0,3:0|0:0,0:0:0:0:
218,14,36455,2,0,L|187:54,1,50,2|0,0:0|0:0,0:0:0:0:
112,53,36764,2,0,B|140:81|140:81|143:89|143:89|145:98|145:98|175:127,1,100,8|2,0:0|0:0,0:0:0:0:
400,53,37383,2,0,B|371:81|371:81|368:89|368:89|366:98|366:98|336:127,1,100,0|2,3:0|0:0,0:0:0:0:
208,208,38001,5,8,0:0:0:0:
256,348,38311,1,2,0:0:0:0:
304,208,38620,2,0,P|256:160|208:208,1,150,0|2,3:0|0:0,0:0:0:0:
208,285,39239,2,0,B|256:272|256:272|304:285,1,100,8|2,0:0|0:0,0:0:0:0:
256,348,39702,1,8,0:0:0:0:
256,348,39857,1,0,3:0:0:0:
106,348,40166,1,2,0:0:0:0:
256,348,40476,1,8,0:0:0:0:
406,348,40785,5,2,0:0:0:0:
454,285,40940,1,0,0:0:0:0:
406,222,41094,2,0,P|382:216|358:222,1,50,0|0,3:0|0:0,0:0:0:0:
262,159,41404,2,0,P|286:165|310:159,1,50,2|0,0:0|0:0,0:0:0:0:
286,88,41713,2,0,B|262:76|238:84|238:88|238:92|214:100|190:88,1,100,8|2,0:0|0:0,0:0:0:0:
84,192,42331,2,0,B|108:180|132:188|132:192|132:196|156:204|180:192,1,100,0|2,3:0|0:0,0:0:0:0:
286,296,42950,6,0,B|262:308|238:300|238:296|238:292|214:284|190:296,1,100,8|2,0:0|0:0,0:0:0:0:
136,349,43414,1,0,0:0:0:0:
83,297,43568,2,0,B|43:360|43:360|3:297,1,150,0|2,3:0|0:0,0:0:0:0:
43,233,44187,2,0,P|67:192|43:151,1,100,8|2,0:0|0:0,0:0:0:0:
168,69,44806,2,0,P|144:110|168:151,1,100,0|2,3:0|0:0,0:0:0:0:
293,233,45424,2,0,P|317:192|293:151,1,100,8|2,0:0|0:0,0:0:0:0:
345,97,45888,5,8,0:0:0:0:
398,151,46043,2,0,B|425:151|425:151|448:156,1,50,0|0,3:0|0:0,0:0:0:0:
448,228,46352,2,0,B|425:233|425:233|398:233,1,50,2|0,0:0|0:0,0:0:0:0:
345,287,46661,1,8,0:0:0:0:
345,97,46971,1,2,0:0:0:0:
256,287,47280,1,0,3:0:0:0:
256,97,47589,1,2,0:0:0:0:
167,287,47898,6,0,B|116:287|116:287|116:238,1,100,8|2,0:0|0:0,0:0:0:0:
56,192,48362,1,0,0:0:0:0:
116,146,48517,2,0,B|72:102|72:102|69:93|69:93|63:99|63:99|60:90|60:90|17:47,1,150,0|2,3:0|0:0,0:0:0:0:
84,16,49135,2,0,L|184:16,1,100,8|2,0:0|0:0,0:0:0:0:
256,146,49754,2,0,L|356:146,1,100,0|2,1:0|0:0,0:0:0:0:
409,92,50218,6,0,L|409:67,2,25,0|0|0,1:0|1:0|1:0,0:0:0:0:
462,146,50527,2,0,P|479:192|462:238,1,100,0|0,1:0|1:0,0:0:0:0:
409,292,50991,1,0,1:0:0:0:
356,238,51146,2,0,P|339:192|356:146,1,100,0|0,1:0|1:0,0:0:0:0:
409,92,51610,5,0,1:0:0:0:
356,38,51764,1,0,1:0:0:0:
303,92,51919,1,0,1:0:0:0:
250,38,52074,1,0,1:0:0:0:
196,92,52228,2,0,L|96:92,1,100,4|0,0:0|0:0,0:0:0:0:
28,224,52847,6,0,B|62:224|62:224|95:224|116:255,1,100,8|0,1:2|0:0,0:0:0:0:
180,300,53311,2,0,P|160:256|180:212,2,100,2|2|2,3:0|3:0|3:0,0:0:0:0:
231,359,54084,1,8,1:2:0:0:
231,359,54239,2,0,L|281:359,1,50,2|0,3:0|0:0,0:0:0:0:
332,300,54548,2,0,P|352:256|332:212,2,100,2|2|2,3:0|3:0|3:0,0:0:0:0:
383,359,55321,5,8,1:2:0:0:
383,359,55476,1,2,3:0:0:0:
256,256,55785,1,2,3:0:0:0:
129,359,56094,1,2,3:0:0:0:
256,256,56404,5,2,3:0:0:0:
256,256,56558,2,0,L|256:206,1,50,8|2,1:2|3:0,0:0:0:0:
294,141,56867,1,0,0:0:0:0:
218,141,57022,2,0,P|174:121|130:141,2,100,2|2|2,3:0|3:0|3:0,0:0:0:0:
256,76,57795,1,8,1:2:0:0:
294,141,57950,2,0,P|338:121|382:141,1,100,2|2,3:0|3:0,0:0:0:0:
420,76,58414,5,4,3:0:0:0:
256,76,58723,2,0,L|256:26,2,50,0|0|0,1:0|1:0|1:0,0:0:0:0:
218,141,59187,1,0,1:0:0:0:
294,141,59342,1,0,1:0:0:0:
324,288,59651,6,0,P|256:316|188:288,1,150,4|2,0:0|0:0,0:0:0:0:
218,213,60270,2,0,B|228:235|256:243|256:243|284:235|294:213,1,100,8|2,0:0|0:0,0:0:0:0:
367,49,60888,2,0,B|367:86|367:86|363:94|363:94|371:94|371:94|367:102|367:102|367:139,1,100,4|2,0:0|0:0,0:0:0:0:
423,189,61352,2,0,B|403:141|355:141|355:141|294:141,1,150,8|2,0:0|0:0,0:0:0:0:
145,49,62125,2,0,B|145:86|145:86|149:94|149:94|141:94|141:94|145:102|145:102|145:139,1,100,4|2,0:0|0:0,0:0:0:0:
89,189,62589,2,0,B|109:141|157:141|157:141|218:141,1,150,8|2,0:0|0:0,0:0:0:0:
367,49,63362,5,4,0:0:0:0:
256,208,63672,1,2,0:0:0:0:
145,49,63981,1,12,0:0:0:0:
256,240,64290,1,2,0:0:0:0:
367,49,64599,6,0,P|427:11|487:49,1,150,4|2,0:0|0:0,0:0:0:0:
475,125,65218,2,0,B|427:111|427:111|379:125,1,100,8|2,0:0|0:0,0:0:0:0:
379,275,65837,2,0,P|358:319|379:363,1,100,4|2,0:0|0:0,0:0:0:0:
439,319,66300,2,0,B|376:319|376:319|368:323|368:323|368:315|368:315|360:319|360:319|297:319,1,150,8|2,0:0|0:0,0:0:0:0:
133,275,67074,2,0,P|154:319|133:363,1,100,4|2,0:0|0:0,0:0:0:0:
73,319,67538,2,0,B|136:319|136:319|144:323|144:323|144:315|144:315|152:319|152:319|215:319,1,150,8|2,0:0|0:0,0:0:0:0:
256,144,68311,5,4,0:0:0:0:
299,319,68620,1,2,0:0:0:0:
256,112,68929,1,4,0:0:0:0:
213,319,69239,1,2,0:0:0:0:
256,80,69548,6,0,B|296:60|328:76|328:80|328:84|360:100|400:80,1,150,4|2,0:0|0:0,0:0:0:0:
460,32,70166,2,0,B|474:80|474:80|460:128,1,100,8|2,0:0|0:0,0:0:0:0:
332,271,70785,2,0,B|318:319|318:319|332:367,1,100,4|2,0:0|0:0,0:0:0:0:
394,319,71249,2,0,L|314:192,1,150,8|2,0:0|0:0,0:0:0:0:
180,271,72022,2,0,B|194:319|194:319|180:367,1,100,4|2,0:0|0:0,0:0:0:0:
118,319,72486,2,0,L|198:192,1,150,8|2,0:0|0:0,0:0:0:0:
256,52,73259,5,4,0:0:0:0:
314,192,73568,1,2,0:0:0:0:
256,332,73878,1,4,0:0:0:0:
198,192,74187,1,2,0:0:0:0:
256,52,74496,6,0,L|406:52,1,150,4|2,0:0|0:0,0:0:0:0:
481,52,75115,1,8,0:0:0:0:
406,192,75424,1,2,0:0:0:0:
481,332,75733,2,0,B|446:367|446:367|395:367,1,100,4|2,0:0|0:0,0:0:0:0:
320,367,76197,2,0,P|256:334|192:367,1,150,8|2,0:0|0:0,0:0:0:0:
31,332,76971,2,0,B|66:367|66:367|116:367,1,100,4|2,0:0|0:0,0:0:0:0:
192,367,77434,2,0,P|256:334|320:367,1,150,8|2,0:0|0:0,0:0:0:0:
216,270,78208,6,0,L|216:170,1,100,4|0,0:0|1:0,0:0:0:0:
296,170,78672,2,0,L|296:270,1,100,0|0,1:0|1:0,0:0:0:0:
256,334,79135,1,0,1:0:0:0:
256,334,79290,1,0,1:0:0:0:
216,270,79445,6,0,B|176:270|176:270|168:274|168:274|160:278|160:278|117:278,1,100,4|2,0:0|0:0,0:0:0:0:
296,270,80063,2,0,B|336:270|336:270|344:274|344:274|352:278|352:278|394:278,1,100,8|2,1:2|0:0,0:0:0:0:
296,170,80682,6,0,L|296:120,1,50,4|0,3:0|0:0,0:0:0:0:
216,170,80991,2,0,L|216:120,1,50,2|0,0:0|0:0,0:0:0:0:
216,44,81300,2,0,B|240:38|256:16|256:16|272:38|296:44,1,100,8|2,1:2|0:0,0:0:0:0:
376,170,81919,6,0,B|352:176|336:198|336:198|320:176|296:170,1,100,4|2,3:0|0:0,0:0:0:0:
256,108,82383,1,0,0:0:0:0:
216,170,82538,2,0,B|192:176|176:198|176:198|160:176|136:170,1,100,8|2,1:2|0:0,0:0:0:0:
96,108,83001,1,0,0:0:0:0:
56,170,83156,6,0,L|96:315,1,150,4|2,3:0|0:0,0:0:0:0:
171,314,83775,1,8,1:2:0:0:
171,164,84084,1,2,0:0:0:0:
341,164,84393,5,4,3:0:0:0:
341,314,84702,1,2,0:0:0:0:
341,314,84857,1,0,0:0:0:0:
341,314,85012,1,8,1:2:0:0:
171,314,85321,1,2,0:0:0:0:
256,192,85630,6,0,L|256:142,1,50,4|0,3:0|0:0,0:0:0:0:
293,76,85940,1,2,0:0:0:0:
219,76,86094,1,0,0:0:0:0:
256,10,86249,1,8,1:2:0:0:
330,142,86558,1,2,0:0:0:0:
182,142,86867,6,0,L|182:242,1,100,4|2,3:0|0:0,0:0:0:0:
256,242,87331,1,0,0:0:0:0:
330,242,87486,2,0,L|330:142,1,100,8|2,1:2|0:0,0:0:0:0:
378,301,88105,6,0,B|358:341|318:341|318:341|294:341,1,100,4|2,3:0|0:0,0:0:0:0:
218,341,88568,2,0,B|194:341|194:341|154:341|134:301,2,100,4|8|4,3:0|1:2|3:0,0:0:0:0:
256,276,89342,6,0,L|256:176,1,100,4|2,3:0|0:0,0:0:0:0:
256,100,89806,1,0,0:0:0:0:
212,40,89960,2,0,B|256:16|256:16|300:40,1,100,8|2,1:2|0:0,0:0:0:0:
397,154,90579,6,0,L|447:154,1,50,4|0,3:0|0:0,0:0:0:0:
397,230,90888,2,0,L|447:230,1,50,2|0,0:0|0:0,0:0:0:0:
512,192,91197,1,8,1:2:0:0:
422,72,91507,1,2,0:0:0:0:
332,192,91816,6,0,B|332:248|297:282,1,100,4|2,3:0|0:0,0:0:0:0:
256,220,92280,1,0,0:0:0:0:
214,282,92434,2,0,B|180:248|180:192,1,100,8|2,1:2|0:0,0:0:0:0:
218,127,92898,1,0,0:0:0:0:
294,127,93053,6,0,L|311:80,1,50,4|0,3:0|0:0,0:0:0:0:
218,127,93362,2,0,L|200:80,1,50,2|0,0:0|0:0,0:0:0:0:
256,28,93672,1,8,1:2:0:0:
256,28,93826,1,0,0:0:0:0:
256,28,93981,1,2,0:0:0:0:
332,192,94290,6,0,B|332:240|332:240|304:284,1,100,4|2,3:0|0:0,0:0:0:0:
256,340,94754,1,0,0:0:0:0:
207,284,94909,2,0,B|180:240|180:240|180:192,1,100,8|2,1:2|0:0,0:0:0:0:
256,192,95373,1,0,0:0:0:0:
332,192,95527,6,0,L|352:140,1,50,4|0,3:0|0:0,0:0:0:0:
256,192,95837,2,0,L|256:142,1,50,2|0,0:0|0:0,0:0:0:0:
180,192,96146,2,0,L|160:140,2,50,8|0|2,1:2|0:0|0:0,0:0:0:0:
128,332,96764,6,0,B|148:372|188:372|188:372|212:372,1,100,4|2,3:0|0:0,0:0:0:0:
256,312,97228,1,0,0:0:0:0:
300,372,97383,2,0,B|324:372|324:372|364:372|384:332,1,100,8|2,1:2|0:0,0:0:0:0:
412,262,97847,1,0,0:0:0:0:
384,192,98001,6,0,L|461:63,1,150,4|2,3:0|0:0,0:0:0:0:
408,10,98620,1,8,1:2:0:0:
256,10,98929,1,2,0:0:0:0:
104,10,99239,5,4,0:0:0:0:
104,10,109135,6,0,P|83:54|104:98,1,100,4|2,0:0|0:0,0:0:0:0:
160,154,109599,2,0,B|188:154|188:154|203:138,1,50,2|8,3:0|1:2,0:0:0:0:
160,230,109909,2,0,B|188:230|188:230|203:245,1,50,2|2,3:0|0:0,0:0:0:0:
256,304,110218,1,2,3:0:0:0:
308,246,110373,5,4,3:0:0:0:
308,246,110527,2,0,L|325:263,2,25,2|2|2,3:0|3:0|0:0,0:0:0:0:
368,192,110837,1,2,3:0:0:0:
308,138,110991,5,4,3:0:0:0:
308,138,111146,2,0,L|325:120,2,25,2|2|2,3:0|3:0|0:0,0:0:0:0:
256,80,111455,1,2,3:0:0:0:
308,22,111610,6,0,L|408:22,1,100,4|2,0:0|0:0,0:0:0:0:
460,80,112074,2,0,B|495:44,1,50,2|8,3:0|1:2,0:0:0:0:
408,138,112383,2,0,B|408:188,1,50,2|8,3:0|1:2,0:0:0:0:
408,268,112692,1,2,3:0:0:0:
327,268,112847,5,4,3:0:0:0:
327,268,113001,2,0,L|327:292,2,25,2|2|2,3:0|3:0|0:0,0:0:0:0:
256,228,113311,1,2,3:0:0:0:
185,268,113465,5,8,1:2:0:0:
185,268,113620,2,0,L|184:292,2,25,2|2|2,3:0|3:0|0:0,0:0:0:0:
104,268,113929,1,2,3:0:0:0:
104,188,114084,6,0,B|136:148|136:148|184:148,1,100,4|2,3:0|0:0,0:0:0:0:
216,72,114548,2,0,L|216:22,1,50,2|8,3:0|1:2,0:0:0:0:
296,72,114857,2,0,L|296:22,1,50,2|0,3:0|0:0,0:0:0:0:
328,148,115166,1,2,3:0:0:0:
296,224,115321,5,4,3:0:0:0:
296,224,115476,2,0,L|321:224,2,25,2|2|2,3:0|3:0|0:0,0:0:0:0:
256,292,115785,1,2,3:0:0:0:
216,224,115940,5,8,1:2:0:0:
216,224,116094,2,0,L|191:224,2,25,2|2|2,3:0|3:0|0:0,0:0:0:0:
184,148,116404,1,2,3:0:0:0:
216,72,116558,6,0,P|256:47|296:72,1,100,4|2,3:0|0:0,0:0:0:0:
328,148,117022,1,2,3:0:0:0:
296,72,117177,2,0,L|325:31,1,50,8|0,1:2|0:0,0:0:0:0:
216,72,117486,2,0,L|186:31,1,50,2|0,0:0|0:0,0:0:0:0:
184,148,117795,6,0,P|144:173|104:148,1,100,4|2,3:0|0:0,0:0:0:0:
72,220,118259,2,0,L|47:220,2,25,2|2|8,3:0|3:0|1:2,0:0:0:0:
256,220,118723,1,2,0:0:0:0:
440,220,119032,5,4,0:0:0:0:
256,192,119187,12,4,121507,0:0:0:0:
440,220,143775,5,0,1:0:0:0:
440,220,144084,1,0,1:0:0:0:
387,274,144239,1,0,1:0:0:0:
334,220,144393,6,0,L|295:127,1,100,0|0,1:0|1:0,0:0:0:0:
256,56,144857,1,0,1:0:0:0:
256,56,145012,1,0,1:0:0:0:
216,127,145166,2,0,L|178:220,1,100,2|0,0:0|1:0,0:0:0:0:
125,274,145630,5,0,1:0:0:0:
178,328,145785,1,0,1:0:0:0:
256,312,145940,1,0,1:0:0:0:
334,328,146094,1,0,1:0:0:0:
387,274,146249,2,0,L|437:274,2,50,4|0|0,0:0|1:0|0:0,0:0:0:0:
412,116,146867,6,0,B|443:95|443:62|443:62|443:28,1,100,8|0,1:2|0:0,0:0:0:0:
362,27,147331,2,0,L|322:118,2,100,2|2|2,3:0|3:0|3:0,0:0:0:0:
281,27,148105,1,8,1:2:0:0:
281,27,148259,2,0,L|231:27,1,50,2|0,3:0|0:0,0:0:0:0:
150,27,148568,2,0,L|189:118,2,100,2|2|2,3:0|3:0|3:0,0:0:0:0:
69,27,149342,5,8,1:2:0:0:
69,27,149496,1,2,3:0:0:0:
256,160,149806,1,2,3:0:0:0:
443,27,150115,1,2,3:0:0:0:
256,160,150424,5,2,3:0:0:0:
256,160,150579,2,0,L|256:210,1,50,8|2,1:2|3:0,0:0:0:0:
218,275,150888,1,0,0:0:0:0:
294,275,151043,2,0,B|322:275|338:295|338:295|354:275|382:275,2,100,2|2|2,3:0|3:0|3:0,0:0:0:0:
256,340,151816,1,8,1:2:0:0:
218,275,151971,2,0,B|190:275|174:295|174:295|158:275|130:275,1,100,2|2,3:0|3:0,0:0:0:0:
256,340,152434,5,4,3:0:0:0:
294,275,152589,1,0,1:0:0:0:
256,210,152744,1,0,0:0:0:0:
218,275,152898,1,0,1:0:0:0:
294,275,153053,2,0,L|344:275,1,50,0|0,1:0|1:0,0:0:0:0:
218,275,153362,2,0,L|168:275,1,50,0|0,1:0|1:0,0:0:0:0:
256,210,153672,6,0,B|236:174|252:138|256:138|260:138|276:106|256:66,1,150,4|2,0:0|0:0,0:0:0:0:
206,5,154290,2,0,B|306:5,1,100,8|2,0:0|0:0,0:0:0:0:
379,147,154909,2,0,B|379:184|379:184|375:192|375:192|383:192|383:192|379:200|379:200|379:237,1,100,4|2,0:0|0:0,0:0:0:0:
435,293,155373,2,0,B|363:293|363:345|297:344,1,150,8|2,0:0|0:0,0:0:0:0:
133,147,156146,2,0,B|133:184|133:184|137:192|137:192|129:192|129:192|133:200|133:200|133:237,1,100,4|2,0:0|0:0,0:0:0:0:
77,293,156610,2,0,B|149:293|149:345|214:344,1,150,8|2,0:0|0:0,0:0:0:0:
379,147,157383,5,4,0:0:0:0:
256,248,157692,1,2,0:0:0:0:
133,147,158001,1,12,0:0:0:0:
256,280,158311,1,2,0:0:0:0:
379,147,158620,6,0,P|439:185|499:147,1,150,4|2,0:0|0:0,0:0:0:0:
487,71,159239,2,0,B|439:85|439:85|391:71,1,100,8|2,0:0|0:0,0:0:0:0:
391,255,159857,2,0,P|370:299|391:343,1,100,4|2,0:0|0:0,0:0:0:0:
451,299,160321,2,0,B|388:299|388:299|380:303|380:303|380:295|380:295|372:299|372:299|309:299,1,150,8|2,0:0|0:0,0:0:0:0:
121,255,161094,2,0,P|142:299|121:343,1,100,4|2,0:0|0:0,0:0:0:0:
61,299,161558,2,0,B|124:299|124:299|132:303|132:303|132:295|132:295|140:299|140:299|203:299,1,150,8|2,0:0|0:0,0:0:0:0:
391,255,162331,5,4,0:0:0:0:
256,172,162641,1,2,0:0:0:0:
121,255,162950,1,4,0:0:0:0:
256,140,163259,1,2,0:0:0:0:
391,255,163568,6,0,B|415:291|415:291|479:291|479:291|503:255,1,150,4|2,0:0|0:0,0:0:0:0:
447,195,164187,2,0,B|447:134|416:101,1,100,8|2,0:0|0:0,0:0:0:0:
256,102,164806,2,0,B|208:116|208:116|160:102,1,100,4|2,0:0|0:0,0:0:0:0:
208,40,165270,2,0,L|109:152,1,150,8|2,0:0|0:0,0:0:0:0:
256,282,166043,2,0,B|208:268|208:268|160:282,1,100,4|2,0:0|0:0,0:0:0:0:
208,344,166507,2,0,L|109:232,1,150,8|2,0:0|0:0,0:0:0:0:
256,102,167280,5,4,0:0:0:0:
388,192,167589,1,2,0:0:0:0:
256,282,167898,1,4,0:0:0:0:
124,192,168208,1,2,0:0:0:0:
256,102,168517,6,0,L|406:102,1,150,4|2,0:0|0:0,0:0:0:0:
486,102,169135,1,8,0:0:0:0:
352,192,169445,1,2,0:0:0:0:
486,282,169754,2,0,B|399:331,1,100,4|2,0:0|0:0,0:0:0:0:
319,331,170218,2,0,B|256:291|256:291|193:331,1,150,8|2,0:0|0:0,0:0:0:0:
26,282,170991,2,0,B|112:331,1,100,4|2,0:0|0:0,0:0:0:0:
193,331,171455,2,0,B|256:291|256:291|319:331,1,150,8|2,0:0|0:0,0:0:0:0:
319,171,172228,6,0,L|344:171,4,25,4|0|0|0|0,0:0|1:0|1:0|1:0|1:0,0:0:0:0:
256,120,172692,2,0,L|156:120,1,100,0|0,1:0|1:0,0:0:0:0:
93,69,173156,1,0,1:0:0:0:
93,69,173311,1,0,1:0:0:0:
30,120,173465,6,0,B|30:160|30:160|34:168|34:168|38:176|38:176|38:219,1,100,4|2,0:0|0:0,0:0:0:0:
156,120,174084,2,0,B|156:160|156:160|152:168|152:168|148:176|148:176|148:218,1,100,8|2,1:2|0:0,0:0:0:0:
256,336,174702,6,0,L|306:336,1,50,4|0,3:0|0:0,0:0:0:0:
436,336,175012,2,0,L|386:336,1,50,2|0,0:0|0:0,0:0:0:0:
386,255,175321,2,0,B|362:249|346:227|346:227|330:249|306:255,1,100,8|2,1:2|0:0,0:0:0:0:
160,192,175940,6,0,B|112:216|64:192,1,100,4|2,3:0|0:0,0:0:0:0:
112,128,176404,1,0,0:0:0:0:
64,64,176558,2,0,B|112:40|160:64,1,100,8|2,1:2|0:0,0:0:0:0:
208,128,177022,1,0,0:0:0:0:
256,64,177177,6,0,B|320:64|320:64|328:57|328:57|336:64|336:64|400:64,1,150,4|2,3:0|0:0,0:0:0:0:
448,128,177795,2,0,B|436:148|436:148|359:148,1,100,8|2,1:2|0:0,0:0:0:0:
448,256,178414,6,0,B|436:236|436:236|359:236,1,100,4|2,3:0|0:0,3:0:0:0:
293,192,178878,1,0,0:0:0:0:
360,148,179033,1,8,1:2:0:0:
219,192,179342,1,2,0:0:0:0:
78,236,179651,6,0,P|71:260|78:284,1,50,4|0,3:0|0:0,0:0:0:0:
141,376,179960,2,0,P|148:352|141:328,1,50,2|0,0:0|0:0,0:0:0:0:
204,236,180270,2,0,P|197:260|204:284,1,50,8|0,1:2|0:0,0:0:0:0:
267,376,180579,2,0,P|274:352|267:328,1,50,2|0,0:0|0:0,0:0:0:0:
330,284,180888,6,0,B|372:264|372:264|425:264,1,100,4|2,3:0|0:0,0:0:0:0:
460,192,181352,1,0,0:0:0:0:
425,120,181507,2,0,B|372:120|372:120|330:100,1,100,8|2,1:2|0:0,0:0:0:0:
176,144,182126,6,0,B|190:192|190:192|176:240,1,100,4|2,3:0|0:0,0:0:0:0:
112,192,182589,2,0,B|98:144|98:144|112:96,2,100,4|8|2,3:0|1:2|0:0,0:0:0:0:
176,144,183362,1,4,3:0:0:0:
176,144,183517,2,0,B|220:144|220:144|224:152|224:152|271:152,1,100,0|0,1:0|1:0,0:0:0:0:
271,232,183981,2,0,B|224:232|224:232|220:240|220:240|176:240,1,100,8|2,1:2|0:0,0:0:0:0:
271,152,184600,6,0,L|321:152,1,50,4|0,3:0|0:0,0:0:0:0:
271,232,184909,2,0,L|321:232,1,50,2|0,0:0|0:0,0:0:0:0:
388,192,185218,1,8,1:2:0:0:
321,46,185528,1,2,0:0:0:0:
456,152,185837,5,0,1:0:0:0:
456,152,185991,2,0,B|476:164|484:192|484:192|476:220|456:232,1,100,0|2,1:0|0:0,0:0:0:0:
456,312,186455,2,0,B|408:312|408:312|371:348,1,100,8|2,1:2|0:0,0:0:0:0:
313,292,186919,1,0,0:0:0:0:
256,349,187074,6,0,B|216:329|184:345|184:349|184:353|152:369|112:349,1,150,4|2,3:0|0:0,0:0:0:0:
31,348,187693,1,8,1:2:0:0:
31,192,188002,1,2,0:0:0:0:
31,36,188311,5,4,3:0:0:0:
31,36,188465,2,0,B|131:36,1,100,0|0,1:0|0:0,0:0:0:0:
211,36,188930,2,0,P|256:55|301:36,1,100,8|2,1:2|0:0,0:0:0:0:
381,36,189394,1,0,0:0:0:0:
381,36,189548,6,0,B|405:30|405:30|429:36,1,50,4|0,3:0|0:0,0:0:0:0:
477,116,189857,2,0,B|453:110|453:110|429:116,1,50,2|0,0:0|0:0,0:0:0:0:
381,195,190166,2,0,B|405:239|405:239|429:195,1,100,8|2,1:2|0:0,0:0:0:0:
256,296,190785,6,0,B|216:296|216:296|208:300|208:300|200:304|200:304|157:304,1,100,4|2,3:0|0:0,0:0:0:0:
101,360,191249,1,0,0:0:0:0:
44,304,191404,2,0,P|85:275|106:230,1,100,8|2,1:2|0:0,0:0:0:0:
36,192,191868,1,0,0:0:0:0:
106,153,192022,6,0,P|85:108|44:79,1,100,4|0,3:0|1:0,0:0:0:0:
101,24,192486,1,0,1:0:0:0:
157,80,192641,2,0,L|208:80,1,50,0|0,1:0|1:0,0:0:0:0:
263,136,192950,2,0,L|313:136,1,50,0|0,1:0|1:0,0:0:0:0:
368,192,193260,5,4,0:0:0:0:
368,192,193414,2,0,B|408:192|408:192|416:186|416:186|424:192|424:192|464:192,1,100,10|2,1:2|3:0,0:0:0:0:
416,264,193878,2,0,B|416:312|416:312|396:360,1,100,10|2,1:2|3:0,0:0:0:0:
256,284,194496,6,0,L|206:284,1,50,4|0,3:0|0:0,0:0:0:0:
98,228,194806,2,0,L|148:228,1,50,2|0,3:0|0:0,0:0:0:0:
256,172,195115,2,0,B|231:129|231:129|206:172,1,100,10|2,1:2|3:0,0:0:0:0:
256,20,195733,6,0,B|281:63|281:63|306:20,1,100,4|2,3:0|3:0,0:0:0:0:
386,19,196197,1,0,0:0:0:0:
466,19,196352,1,10,1:2:0:0:
466,192,196661,5,2,3:0:0:0:
466,267,196816,1,0,0:0:0:0:
466,342,196971,2,0,B|425:342|390:312|390:267|390:267|390:236,1,150,4|2,3:0|3:0,0:0:0:0:
309,236,197589,2,0,L|309:336,1,100,10|2,1:2|3:0,0:0:0:0:
203,236,198208,6,0,P|159:256|115:236,1,100,4|2,3:0|3:0,0:0:0:0:
48,192,198672,1,0,0:0:0:0:
115,148,198826,2,0,P|159:128|203:148,1,100,10|2,1:2|3:0,0:0:0:0:
256,88,199290,1,0,0:0:0:0:
309,148,199445,6,0,L|300:197,1,50,4|0,3:0|0:0,0:0:0:0:
203,148,199754,2,0,L|211:197,1,50,2|0,3:0|0:0,0:0:0:0:
160,256,200063,1,10,1:2:0:0:
256,384,200373,1,2,3:0:0:0:
352,256,200682,6,0,L|452:256,1,100,4|2,3:0|3:0,0:0:0:0:
500,192,201146,1,0,0:0:0:0:
452,128,201300,2,0,L|352:128,1,100,10|2,1:2|3:0,0:0:0:0:
204,192,201919,6,0,L|104:192,1,100,4|2,3:0|3:0,0:0:0:0:
36,236,202383,2,0,P|16:192|36:148,2,100,2|10|2,3:0|1:2|3:0,0:0:0:0:
104,280,203156,5,4,3:0:0:0:
104,280,203311,2,0,L|154:280,1,50,10|0,1:2|0:0,0:0:0:0:
256,340,203620,2,0,L|206:340,1,50,2|10,3:0|1:2,0:0:0:0:
308,280,203929,2,0,L|358:280,1,50,2|0,3:0|0:0,0:0:0:0:
410,340,204239,1,2,3:0:0:0:
462,280,204393,6,0,P|469:256|462:232,1,50,4|0,3:0|0:0,0:0:0:0:
410,124,204702,2,0,P|403:148|410:172,1,50,2|0,3:0|0:0,0:0:0:0:
358,280,205012,2,0,P|365:256|358:232,1,50,10|0,1:2|0:0,0:0:0:0:
306,124,205321,2,0,P|299:148|306:172,1,50,2|0,3:0|0:0,0:0:0:0:
254,280,205630,5,4,3:0:0:0:
254,280,205785,2,0,B|254:231|254:231|203:231,1,100,10|0,1:2|0:0,0:0:0:0:
122,231,206249,2,0,L|122:281,1,50,10|0,1:2|0:0,0:0:0:0:
41,231,206558,2,0,L|41:281,1,50,2|0,3:0|0:0,0:0:0:0:
41,153,206867,6,0,L|41:53,1,100,4|2,3:0|3:0,0:0:0:0:
121,53,207331,1,0,0:0:0:0:
121,53,207486,2,0,L|171:53,1,50,10|0,1:2|0:0,0:0:0:0:
278,108,207795,2,0,L|228:108,1,50,2|0,3:0|0:0,0:0:0:0:
341,53,208105,6,0,L|388:141,1,100,4|0,3:0|0:0,0:0:0:0:
452,192,208568,2,0,L|428:236,1,50,2|10,3:0|1:2,0:0:0:0:
485,293,208878,2,0,L|461:337,1,50,2|2,3:0|3:0,0:0:0:0:
381,337,209187,1,0,0:0:0:0:
300,337,209342,6,0,B|312:312|312:312|312:289,1,50,4|0,3:0|0:0,0:0:0:0:
212,337,209651,2,0,B|200:312|200:312|200:289,1,50,2|0,3:0|0:0,0:0:0:0:
256,232,209960,1,10,1:2:0:0:
256,232,210115,1,0,0:0:0:0:
256,232,210270,2,0,L|256:182,1,50,2|0,3:0|0:0,0:0:0:0:
212,116,210579,6,0,P|256:96|300:116,1,100,4|2,3:0|3:0,0:0:0:0:
344,50,211043,1,0,0:0:0:0:
388,116,211197,2,0,P|432:96|476:116,1,100,10|2,1:2|3:0,0:0:0:0:
448,192,211661,1,0,0:0:0:0:
476,267,211816,6,0,B|432:310|432:310|423:313|423:313|429:319|429:319|420:322|420:322|377:365,1,150,4|2,3:0|3:0,0:0:0:0:
296,366,212434,1,10,1:2:0:0:
256,212,212744,1,2,3:0:0:0:
216,366,213053,1,2,0:0:0:0:
256,212,213362,1,0,0:0:0:0:
