osu file format v14

[General]
AudioFilename: audio.mp3
AudioLeadIn: 0
PreviewTime: 84113
Countdown: 0
SampleSet: None
StackLeniency: 0.7
Mode: 3
LetterboxInBreaks: 0
SpecialStyle: 0
WidescreenStoryboard: 1

[Editor]
DistanceSpacing: 1.6
BeatDivisor: 4
GridSize: 4
TimelineZoom: 2.2

[Metadata]
Title:Juntos (Together) - From "McFarland, USA"
TitleUnicode:Juntos (Together) - From "McFarland, USA"
Artist:Juanes
ArtistUnicode:Juanes
Creator:Cuma Iseng
Version:Very Easy
Source:McFarland USA
Tags:
BeatmapID:2198884
BeatmapSetID:1052179

[Difficulty]
HPDrainRate:5
CircleSize:10
OverallDifficulty:3
ApproachRate:5
SliderMultiplier:1.4
SliderTickRate:1

[Events]
//Background and Video events
0,0,"McFarlandUSA54da9684557da.jpg",0,0
//Break Periods
//Storyboard Layer 0 (Background)
//Storyboard Layer 1 (Fail)
//Storyboard Layer 2 (Pass)
//Storyboard Layer 3 (Foreground)
//Storyboard Layer 4 (Overlay)
//Storyboard Sound Samples

[TimingPoints]
-10,618.556701030928,4,1,0,5,1,0
9886,-100,4,1,0,5,0,1
9925,-100,4,1,0,5,0,0
27206,-100,4,1,0,5,0,1
27245,-100,4,1,0,5,0,0
29680,-100,4,1,0,5,0,1
29719,-100,4,1,0,5,0,0
32154,-100,4,1,0,5,0,1
42013,-100,4,1,0,5,0,0
42051,-100,4,1,0,5,0,1
47000,-100,4,1,0,5,0,0
51948,-100,4,1,0,5,0,1
51987,-100,4,1,0,5,0,0
79165,-100,4,1,0,5,0,1
79203,-100,4,1,0,5,0,0
81639,-100,4,1,0,5,0,1
81678,-100,4,1,0,5,0,0
84113,-100,4,1,0,5,0,1
93971,-100,4,1,0,5,0,0
94010,-100,4,1,0,5,0,1
98959,-100,4,1,0,5,0,0
103907,-100,4,1,0,5,0,1
103946,-100,4,1,0,5,0,0
131124,-100,4,1,0,5,0,1
131162,-100,4,1,0,5,0,0
133598,-100,4,1,0,5,0,1
133636,-100,4,1,0,5,0,0
138546,-100,4,1,0,5,0,1
145930,-100,4,1,0,5,0,0
145969,-100,4,1,0,5,0,1
150917,-100,4,1,0,5,0,0
155866,-100,4,1,0,5,0,1
155904,-100,4,1,0,5,0,0
162051,-100,4,1,0,5,0,1
165763,-100,4,1,0,5,0,0
165801,-100,4,1,0,5,0,1
170711,-100,4,1,0,5,0,0
185557,-100,4,1,0,5,0,1
185595,-100,4,1,0,5,0,0

[HitObjects]
435,192,0,128,0,144:0:0:0:0:
384,192,144,128,0,299:0:0:0:0:
332,192,299,128,0,453:0:0:0:0:
281,192,453,128,0,608:0:0:0:0:
230,192,608,128,0,917:0:0:0:0:
179,192,917,128,0,1227:0:0:0:0:
25,192,1227,128,0,1845:0:0:0:0:
486,192,1536,128,0,1845:0:0:0:0:
76,192,1845,1,0,0:0:0:0:
128,192,1845,1,0,0:0:0:0:
384,192,1845,1,0,0:0:0:0:
435,192,1845,1,0,0:0:0:0:
179,192,2154,128,0,2309:0:0:0:0:
230,192,2309,128,0,2464:0:0:0:0:
435,192,2464,128,0,2618:0:0:0:0:
384,192,2618,128,0,2773:0:0:0:0:
332,192,2773,128,0,2928:0:0:0:0:
281,192,2928,128,0,3082:0:0:0:0:
230,192,3082,128,0,3392:0:0:0:0:
179,192,3392,128,0,3701:0:0:0:0:
25,192,3701,128,0,4319:0:0:0:0:
230,192,3701,1,0,0:0:0:0:
281,192,3855,1,0,0:0:0:0:
486,192,4010,128,0,4319:0:0:0:0:
332,192,4010,1,0,0:0:0:0:
384,192,4165,1,0,0:0:0:0:
281,192,4319,1,0,0:0:0:0:
435,192,4319,1,0,0:0:0:0:
76,192,4319,1,0,0:0:0:0:
128,192,4319,1,0,0:0:0:0:
332,192,4474,1,0,0:0:0:0:
384,192,4629,1,0,0:0:0:0:
179,192,4629,128,0,4783:0:0:0:0:
230,192,4783,128,0,4938:0:0:0:0:
435,192,4938,128,0,5093:0:0:0:0:
384,192,5093,128,0,5247:0:0:0:0:
332,192,5247,128,0,5402:0:0:0:0:
281,192,5402,128,0,5557:0:0:0:0:
230,192,5557,128,0,5866:0:0:0:0:
179,192,5866,128,0,6175:0:0:0:0:
25,192,6175,128,0,6794:0:0:0:0:
486,192,6484,128,0,6794:0:0:0:0:
281,192,6794,1,0,0:0:0:0:
435,192,6794,1,0,0:0:0:0:
76,192,6794,1,0,0:0:0:0:
128,192,6794,1,0,0:0:0:0:
179,192,6948,128,0,7103:0:0:0:0:
230,192,7103,128,0,7258:0:0:0:0:
281,192,7258,128,0,7412:0:0:0:0:
486,192,7412,128,0,7515:0:0:0:0:
435,192,7515,128,0,7618:0:0:0:0:
384,192,7618,128,0,7721:0:0:0:0:
332,192,7721,128,0,8031:0:0:0:0:
128,192,7721,1,0,0:0:0:0:
179,192,7876,1,0,0:0:0:0:
230,192,8031,1,0,0:0:0:0:
76,192,8185,128,0,8340:0:0:0:0:
128,192,8340,128,0,8495:0:0:0:0:
179,192,8495,128,0,8649:0:0:0:0:
435,192,8649,128,0,8752:0:0:0:0:
384,192,8752,128,0,8855:0:0:0:0:
332,192,8855,128,0,8959:0:0:0:0:
281,192,8959,128,0,9113:0:0:0:0:
25,192,8959,1,0,0:0:0:0:
230,192,8959,1,0,0:0:0:0:
486,192,8959,1,0,0:0:0:0:
384,192,9113,128,0,9268:0:0:0:0:
332,192,9268,128,0,9371:0:0:0:0:
179,192,9268,1,0,0:0:0:0:
281,192,9371,128,0,9474:0:0:0:0:
128,192,9422,1,0,0:0:0:0:
230,192,9474,128,0,9886:0:0:0:0:
25,192,9577,1,0,0:0:0:0:
76,192,9577,1,0,0:0:0:0:
179,192,9886,1,0,0:0:0:0:
384,192,9886,1,0,0:0:0:0:
486,192,9886,1,0,0:0:0:0:
76,192,10041,128,0,10196:0:0:0:0:
332,192,10041,128,0,10196:0:0:0:0:
384,192,10196,128,0,10350:0:0:0:0:
128,192,10196,128,0,10350:0:0:0:0:
25,192,10196,1,0,0:0:0:0:
435,192,10350,128,0,10505:0:0:0:0:
179,192,10350,128,0,10505:0:0:0:0:
486,192,10505,128,0,10660:0:0:0:0:
230,192,10505,128,0,10660:0:0:0:0:
332,192,10505,1,0,0:0:0:0:
281,192,10660,128,0,10969:0:0:0:0:
76,192,10660,128,0,10969:0:0:0:0:
435,192,10814,1,0,0:0:0:0:
332,192,10969,128,0,11278:0:0:0:0:
128,192,10969,128,0,11278:0:0:0:0:
486,192,11124,1,0,0:0:0:0:
179,192,11278,128,0,11587:0:0:0:0:
384,192,11278,128,0,11587:0:0:0:0:
25,192,11433,1,0,0:0:0:0:
435,192,11587,128,0,12051:0:0:0:0:
230,192,11587,128,0,12051:0:0:0:0:
128,192,11742,1,0,0:0:0:0:
25,192,12051,1,0,0:0:0:0:
486,192,12051,1,0,0:0:0:0:
76,192,12206,1,0,0:0:0:0:
435,192,12206,1,0,0:0:0:0:
128,192,12361,1,0,0:0:0:0:
384,192,12361,1,0,0:0:0:0:
281,192,12515,128,0,12670:0:0:0:0:
25,192,12515,128,0,12670:0:0:0:0:
332,192,12670,128,0,12825:0:0:0:0:
76,192,12670,128,0,12825:0:0:0:0:
486,192,12670,1,0,0:0:0:0:
384,192,12825,128,0,12979:0:0:0:0:
128,192,12825,128,0,12979:0:0:0:0:
435,192,12979,128,0,13134:0:0:0:0:
179,192,12979,128,0,13134:0:0:0:0:
25,192,12979,1,0,0:0:0:0:
486,192,13134,128,0,13288:0:0:0:0:
230,192,13134,128,0,13288:0:0:0:0:
281,192,13288,128,0,13443:0:0:0:0:
25,192,13288,128,0,13443:0:0:0:0:
128,192,13288,1,0,0:0:0:0:
332,192,13443,128,0,13598:0:0:0:0:
76,192,13443,128,0,13598:0:0:0:0:
230,192,13598,128,0,13907:0:0:0:0:
486,192,13598,128,0,13907:0:0:0:0:
384,192,13598,1,0,0:0:0:0:
435,192,13907,128,0,14216:0:0:0:0:
179,192,13907,128,0,14216:0:0:0:0:
128,192,13907,1,0,0:0:0:0:
76,192,14062,1,0,0:0:0:0:
25,192,14216,1,0,0:0:0:0:
76,192,14526,1,0,0:0:0:0:
332,192,14526,1,0,0:0:0:0:
128,192,14680,1,0,0:0:0:0:
384,192,14680,1,0,0:0:0:0:
179,192,14835,1,0,0:0:0:0:
435,192,14835,1,0,0:0:0:0:
281,192,14990,128,0,15144:0:0:0:0:
486,192,15144,128,0,15299:0:0:0:0:
128,192,15144,1,0,0:0:0:0:
435,192,15299,128,0,15453:0:0:0:0:
76,192,15299,1,0,0:0:0:0:
384,192,15453,128,0,15763:0:0:0:0:
25,192,15453,1,0,0:0:0:0:
281,192,15763,128,0,15917:0:0:0:0:
76,192,15763,1,0,0:0:0:0:
332,192,15917,128,0,16072:0:0:0:0:
128,192,15917,1,0,0:0:0:0:
486,192,16072,128,0,16381:0:0:0:0:
179,192,16072,1,0,0:0:0:0:
435,192,16381,128,0,16536:0:0:0:0:
230,192,16381,1,0,0:0:0:0:
384,192,16536,128,0,16845:0:0:0:0:
179,192,16536,1,0,0:0:0:0:
128,192,16691,1,0,0:0:0:0:
332,192,16845,128,0,17309:0:0:0:0:
179,192,17000,1,0,0:0:0:0:
230,192,17154,1,0,0:0:0:0:
281,192,17309,1,0,0:0:0:0:
128,192,17464,128,0,17773:0:0:0:0:
384,192,17618,1,0,0:0:0:0:
76,192,17773,128,0,18082:0:0:0:0:
435,192,17773,1,0,0:0:0:0:
486,192,17928,1,0,0:0:0:0:
25,192,18082,128,0,18237:0:0:0:0:
76,192,18237,128,0,18392:0:0:0:0:
332,192,18237,1,0,0:0:0:0:
230,192,18392,128,0,18546:0:0:0:0:
384,192,18392,1,0,0:0:0:0:
179,192,18546,128,0,18855:0:0:0:0:
435,192,18546,1,0,0:0:0:0:
486,192,18546,1,0,0:0:0:0:
332,192,18701,1,0,0:0:0:0:
384,192,18701,1,0,0:0:0:0:
128,192,18855,128,0,19010:0:0:0:0:
281,192,18855,1,0,0:0:0:0:
486,192,18855,1,0,0:0:0:0:
76,192,19010,128,0,19165:0:0:0:0:
435,192,19010,1,0,0:0:0:0:
230,192,19010,1,0,0:0:0:0:
25,192,19165,128,0,19474:0:0:0:0:
179,192,19165,1,0,0:0:0:0:
384,192,19165,1,0,0:0:0:0:
128,192,19474,128,0,19783:0:0:0:0:
230,192,19474,1,0,0:0:0:0:
435,192,19474,1,0,0:0:0:0:
281,192,19629,1,0,0:0:0:0:
486,192,19629,1,0,0:0:0:0:
384,192,19783,1,0,0:0:0:0:
76,192,19938,128,0,20093:0:0:0:0:
332,192,19938,128,0,20093:0:0:0:0:
384,192,20093,128,0,20247:0:0:0:0:
128,192,20093,128,0,20247:0:0:0:0:
25,192,20093,1,0,0:0:0:0:
435,192,20247,128,0,20402:0:0:0:0:
179,192,20247,128,0,20402:0:0:0:0:
486,192,20402,128,0,20557:0:0:0:0:
230,192,20402,128,0,20557:0:0:0:0:
332,192,20402,1,0,0:0:0:0:
281,192,20557,128,0,20866:0:0:0:0:
76,192,20557,128,0,20866:0:0:0:0:
435,192,20711,1,0,0:0:0:0:
332,192,20866,128,0,21175:0:0:0:0:
128,192,20866,128,0,21175:0:0:0:0:
486,192,21020,1,0,0:0:0:0:
179,192,21175,128,0,21484:0:0:0:0:
384,192,21175,128,0,21484:0:0:0:0:
25,192,21330,1,0,0:0:0:0:
230,192,21523,1,0,0:0:0:0:
435,192,21523,1,0,0:0:0:0:
486,192,21562,128,0,21871:0:0:0:0:
281,192,21562,128,0,21871:0:0:0:0:
230,192,21948,1,0,0:0:0:0:
435,192,21948,1,0,0:0:0:0:
230,192,22103,1,0,0:0:0:0:
435,192,22103,1,0,0:0:0:0:
128,192,22258,1,0,0:0:0:0:
384,192,22258,1,0,0:0:0:0:
281,192,22412,128,0,22567:0:0:0:0:
25,192,22412,128,0,22567:0:0:0:0:
332,192,22567,128,0,22721:0:0:0:0:
76,192,22567,128,0,22721:0:0:0:0:
486,192,22567,1,0,0:0:0:0:
384,192,22721,128,0,22876:0:0:0:0:
128,192,22721,128,0,22876:0:0:0:0:
435,192,22876,128,0,23031:0:0:0:0:
179,192,22876,128,0,23031:0:0:0:0:
25,192,22876,1,0,0:0:0:0:
486,192,23031,128,0,23185:0:0:0:0:
230,192,23031,128,0,23185:0:0:0:0:
281,192,23185,128,0,23340:0:0:0:0:
25,192,23185,128,0,23340:0:0:0:0:
128,192,23185,1,0,0:0:0:0:
332,192,23340,128,0,23495:0:0:0:0:
76,192,23340,128,0,23495:0:0:0:0:
230,192,23495,128,0,23804:0:0:0:0:
486,192,23495,128,0,23804:0:0:0:0:
384,192,23495,1,0,0:0:0:0:
435,192,23804,128,0,23959:0:0:0:0:
179,192,23804,128,0,23959:0:0:0:0:
25,192,23804,1,0,0:0:0:0:
128,192,23997,1,0,0:0:0:0:
384,192,23997,1,0,0:0:0:0:
76,192,24036,128,0,24268:0:0:0:0:
332,192,24036,128,0,24268:0:0:0:0:
25,192,24422,1,0,0:0:0:0:
281,192,24422,1,0,0:0:0:0:
25,192,24577,1,0,0:0:0:0:
281,192,24577,1,0,0:0:0:0:
179,192,24732,1,0,0:0:0:0:
435,192,24732,1,0,0:0:0:0:
281,192,24886,128,0,25041:0:0:0:0:
486,192,24886,128,0,25041:0:0:0:0:
435,192,25041,128,0,25196:0:0:0:0:
230,192,25041,128,0,25196:0:0:0:0:
25,192,25041,1,0,0:0:0:0:
384,192,25196,128,0,25350:0:0:0:0:
179,192,25196,128,0,25350:0:0:0:0:
332,192,25350,128,0,25660:0:0:0:0:
128,192,25350,128,0,25660:0:0:0:0:
486,192,25350,1,0,0:0:0:0:
281,192,25660,128,0,25814:0:0:0:0:
25,192,25660,128,0,25814:0:0:0:0:
435,192,25660,1,0,0:0:0:0:
332,192,25814,128,0,25969:0:0:0:0:
76,192,25814,128,0,25969:0:0:0:0:
384,192,25969,128,0,26124:0:0:0:0:
128,192,25969,128,0,26124:0:0:0:0:
486,192,25969,1,0,0:0:0:0:
179,192,26124,128,0,26433:0:0:0:0:
435,192,26124,128,0,26433:0:0:0:0:
25,192,26278,1,0,0:0:0:0:
384,192,26433,128,0,26742:0:0:0:0:
128,192,26433,128,0,26742:0:0:0:0:
486,192,26587,1,0,0:0:0:0:
332,192,26742,128,0,27206:0:0:0:0:
76,192,26742,128,0,27206:0:0:0:0:
435,192,26897,1,0,0:0:0:0:
435,192,27051,1,0,0:0:0:0:
25,192,27206,128,0,29680:0:0:0:0:
230,192,27206,1,0,0:0:0:0:
281,192,27206,1,0,0:0:0:0:
486,192,27206,1,0,0:0:0:0:
230,192,27670,1,0,0:0:0:0:
281,192,27670,1,0,0:0:0:0:
486,192,27670,1,0,0:0:0:0:
230,192,28134,1,0,0:0:0:0:
281,192,28134,1,0,0:0:0:0:
486,192,28134,1,0,0:0:0:0:
230,192,28598,1,0,0:0:0:0:
281,192,28598,1,0,0:0:0:0:
486,192,28598,1,0,0:0:0:0:
230,192,29062,1,0,0:0:0:0:
281,192,29062,1,0,0:0:0:0:
486,192,29062,1,0,0:0:0:0:
384,192,29371,1,0,0:0:0:0:
435,192,29371,1,0,0:0:0:0:
128,192,29371,1,0,0:0:0:0:
128,192,29526,1,0,0:0:0:0:
384,192,29526,1,0,0:0:0:0:
435,192,29526,1,0,0:0:0:0:
332,192,29680,1,0,0:0:0:0:
384,192,29680,1,0,0:0:0:0:
435,192,29680,1,0,0:0:0:0:
486,192,29680,1,0,0:0:0:0:
76,192,29990,1,0,0:0:0:0:
128,192,29990,1,0,0:0:0:0:
179,192,29990,1,0,0:0:0:0:
332,192,30144,1,0,0:0:0:0:
384,192,30144,1,0,0:0:0:0:
435,192,30144,1,0,0:0:0:0:
486,192,30144,1,0,0:0:0:0:
25,192,30453,1,0,0:0:0:0:
76,192,30453,1,0,0:0:0:0:
128,192,30453,1,0,0:0:0:0:
332,192,30608,1,0,0:0:0:0:
384,192,30608,1,0,0:0:0:0:
435,192,30608,1,0,0:0:0:0:
486,192,30608,1,0,0:0:0:0:
76,192,30917,1,0,0:0:0:0:
128,192,30917,1,0,0:0:0:0:
179,192,30917,1,0,0:0:0:0:
332,192,31072,1,0,0:0:0:0:
384,192,31072,1,0,0:0:0:0:
435,192,31072,1,0,0:0:0:0:
486,192,31072,1,0,0:0:0:0:
25,192,31381,1,0,0:0:0:0:
76,192,31381,1,0,0:0:0:0:
128,192,31381,1,0,0:0:0:0:
384,192,31536,1,0,0:0:0:0:
435,192,31536,1,0,0:0:0:0:
486,192,31536,1,0,0:0:0:0:
230,192,31845,1,0,0:0:0:0:
281,192,31845,1,0,0:0:0:0:
179,192,31845,128,0,32154:0:0:0:0:
332,192,31845,128,0,32154:0:0:0:0:
25,192,32154,128,0,32464:0:0:0:0:
384,192,32154,128,0,32464:0:0:0:0:
128,192,32154,1,0,0:0:0:0:
486,192,32154,1,0,0:0:0:0:
435,192,32464,128,0,32773:0:0:0:0:
76,192,32464,128,0,32773:0:0:0:0:
230,192,32464,1,0,0:0:0:0:
486,192,32773,128,0,33082:0:0:0:0:
230,192,32773,128,0,33082:0:0:0:0:
281,192,32773,1,0,0:0:0:0:
435,192,33082,128,0,33392:0:0:0:0:
179,192,33082,128,0,33392:0:0:0:0:
128,192,33082,1,0,0:0:0:0:
25,192,33392,128,0,33546:0:0:0:0:
281,192,33392,128,0,33546:0:0:0:0:
76,192,33546,128,0,33701:0:0:0:0:
332,192,33546,128,0,33701:0:0:0:0:
128,192,33701,128,0,33855:0:0:0:0:
384,192,33701,128,0,33855:0:0:0:0:
179,192,33855,128,0,34010:0:0:0:0:
435,192,33855,128,0,34010:0:0:0:0:
486,192,34010,128,0,34319:0:0:0:0:
230,192,34010,128,0,34319:0:0:0:0:
25,192,34010,1,0,0:0:0:0:
281,192,34010,1,0,0:0:0:0:
384,192,34319,128,0,34629:0:0:0:0:
76,192,34319,128,0,34629:0:0:0:0:
281,192,34629,128,0,34938:0:0:0:0:
25,192,34629,128,0,34938:0:0:0:0:
128,192,34629,1,0,0:0:0:0:
179,192,34938,128,0,35247:0:0:0:0:
435,192,34938,128,0,35247:0:0:0:0:
486,192,34938,1,0,0:0:0:0:
332,192,35247,128,0,35557:0:0:0:0:
76,192,35247,128,0,35557:0:0:0:0:
384,192,35247,1,0,0:0:0:0:
230,192,35557,128,0,35866:0:0:0:0:
486,192,35557,128,0,35866:0:0:0:0:
281,192,35557,1,0,0:0:0:0:
332,192,35866,128,0,36020:0:0:0:0:
25,192,35866,128,0,36020:0:0:0:0:
76,192,36020,128,0,36175:0:0:0:0:
384,192,36020,128,0,36175:0:0:0:0:
128,192,36175,128,0,36330:0:0:0:0:
435,192,36175,128,0,36330:0:0:0:0:
179,192,36330,128,0,36484:0:0:0:0:
486,192,36330,128,0,36484:0:0:0:0:
332,192,36484,128,0,36794:0:0:0:0:
76,192,36484,128,0,36794:0:0:0:0:
384,192,36484,1,0,0:0:0:0:
230,192,36484,1,0,0:0:0:0:
25,192,36794,128,0,37103:0:0:0:0:
281,192,36794,128,0,37103:0:0:0:0:
486,192,36794,1,0,0:0:0:0:
435,192,37103,128,0,38031:0:0:0:0:
179,192,37103,128,0,38031:0:0:0:0:
128,192,37412,128,0,38031:0:0:0:0:
384,192,37412,128,0,38031:0:0:0:0:
76,192,37721,128,0,38031:0:0:0:0:
332,192,37721,128,0,38031:0:0:0:0:
25,192,38031,1,0,0:0:0:0:
281,192,38031,1,0,0:0:0:0:
76,192,38185,1,0,0:0:0:0:
332,192,38185,1,0,0:0:0:0:
128,192,38340,1,0,0:0:0:0:
384,192,38340,1,0,0:0:0:0:
486,192,38649,128,0,38804:0:0:0:0:
230,192,38649,128,0,38804:0:0:0:0:
281,192,38804,128,0,38959:0:0:0:0:
25,192,38804,128,0,38959:0:0:0:0:
332,192,38959,128,0,39113:0:0:0:0:
76,192,38959,128,0,39113:0:0:0:0:
384,192,39113,128,0,39268:0:0:0:0:
128,192,39113,128,0,39268:0:0:0:0:
435,192,39268,128,0,39422:0:0:0:0:
179,192,39268,128,0,39422:0:0:0:0:
486,192,39422,128,0,39577:0:0:0:0:
230,192,39422,128,0,39577:0:0:0:0:
281,192,39577,128,0,39886:0:0:0:0:
25,192,39577,128,0,39886:0:0:0:0:
76,192,39886,128,0,40041:0:0:0:0:
332,192,39886,128,0,40041:0:0:0:0:
435,192,40041,128,0,40196:0:0:0:0:
179,192,40041,128,0,40196:0:0:0:0:
384,192,40196,128,0,40273:0:0:0:0:
128,192,40196,128,0,40273:0:0:0:0:
332,192,40273,128,0,40505:0:0:0:0:
76,192,40273,128,0,40505:0:0:0:0:
281,192,40505,128,0,40814:0:0:0:0:
25,192,40505,128,0,40814:0:0:0:0:
384,192,40505,1,0,0:0:0:0:
435,192,40660,1,0,0:0:0:0:
486,192,40814,1,0,0:0:0:0:
76,192,41124,128,0,41433:0:0:0:0:
281,192,41124,1,0,0:0:0:0:
332,192,41278,1,0,0:0:0:0:
128,192,41433,128,0,41742:0:0:0:0:
230,192,41433,1,0,0:0:0:0:
384,192,41433,1,0,0:0:0:0:
486,192,41433,1,0,0:0:0:0:
25,192,41587,1,0,0:0:0:0:
281,192,41587,1,0,0:0:0:0:
435,192,41587,1,0,0:0:0:0:
179,192,41742,128,0,42051:0:0:0:0:
76,192,41742,1,0,0:0:0:0:
332,192,41742,1,0,0:0:0:0:
486,192,41742,1,0,0:0:0:0:
384,192,42051,128,0,42361:0:0:0:0:
25,192,42051,128,0,42361:0:0:0:0:
128,192,42051,1,0,0:0:0:0:
486,192,42051,1,0,0:0:0:0:
76,192,42361,128,0,42670:0:0:0:0:
435,192,42361,128,0,42670:0:0:0:0:
179,192,42361,1,0,0:0:0:0:
230,192,42670,128,0,42979:0:0:0:0:
486,192,42670,128,0,42979:0:0:0:0:
281,192,42670,1,0,0:0:0:0:
179,192,42979,128,0,43288:0:0:0:0:
435,192,42979,128,0,43288:0:0:0:0:
76,192,42979,1,0,0:0:0:0:
281,192,43288,128,0,43443:0:0:0:0:
25,192,43288,128,0,43443:0:0:0:0:
332,192,43443,128,0,43598:0:0:0:0:
76,192,43443,128,0,43598:0:0:0:0:
384,192,43598,128,0,43752:0:0:0:0:
128,192,43598,128,0,43752:0:0:0:0:
435,192,43752,128,0,43907:0:0:0:0:
179,192,43752,128,0,43907:0:0:0:0:
25,192,43907,1,0,0:0:0:0:
230,192,43907,128,0,44216:0:0:0:0:
486,192,43907,128,0,44216:0:0:0:0:
281,192,43907,1,0,0:0:0:0:
76,192,44216,128,0,44526:0:0:0:0:
384,192,44216,128,0,44526:0:0:0:0:
128,192,44216,1,0,0:0:0:0:
25,192,44526,128,0,44835:0:0:0:0:
281,192,44526,128,0,44835:0:0:0:0:
332,192,44526,1,0,0:0:0:0:
435,192,44835,128,0,45144:0:0:0:0:
179,192,44835,128,0,45144:0:0:0:0:
486,192,44835,1,0,0:0:0:0:
76,192,45144,128,0,45453:0:0:0:0:
332,192,45144,128,0,45453:0:0:0:0:
384,192,45144,1,0,0:0:0:0:
486,192,45453,128,0,45763:0:0:0:0:
230,192,45453,128,0,45763:0:0:0:0:
281,192,45453,1,0,0:0:0:0:
25,192,45763,128,0,45917:0:0:0:0:
332,192,45763,128,0,45917:0:0:0:0:
179,192,45763,1,0,0:0:0:0:
384,192,45917,128,0,46072:0:0:0:0:
76,192,45917,128,0,46072:0:0:0:0:
435,192,46072,128,0,46227:0:0:0:0:
128,192,46072,128,0,46227:0:0:0:0:
486,192,46227,128,0,46381:0:0:0:0:
179,192,46227,128,0,46381:0:0:0:0:
384,192,46381,1,0,0:0:0:0:
76,192,46381,128,0,47000:0:0:0:0:
332,192,46381,128,0,47000:0:0:0:0:
25,192,46691,1,0,0:0:0:0:
281,192,46691,1,0,0:0:0:0:
128,192,47000,1,0,0:0:0:0:
486,192,47000,1,0,0:0:0:0:
179,192,47154,128,0,47309:0:0:0:0:
332,192,47309,128,0,47464:0:0:0:0:
25,192,47309,1,0,0:0:0:0:
384,192,47464,128,0,47618:0:0:0:0:
76,192,47464,1,0,0:0:0:0:
486,192,47618,128,0,47773:0:0:0:0:
128,192,47618,1,0,0:0:0:0:
435,192,47773,128,0,48082:0:0:0:0:
179,192,47928,1,0,0:0:0:0:
281,192,48082,128,0,48237:0:0:0:0:
128,192,48082,1,0,0:0:0:0:
486,192,48237,128,0,48392:0:0:0:0:
76,192,48237,1,0,0:0:0:0:
435,192,48392,128,0,48701:0:0:0:0:
25,192,48546,1,0,0:0:0:0:
230,192,48701,128,0,48855:0:0:0:0:
76,192,48701,1,0,0:0:0:0:
486,192,48855,128,0,49165:0:0:0:0:
128,192,48855,1,0,0:0:0:0:
281,192,48855,1,0,0:0:0:0:
332,192,48855,1,0,0:0:0:0:
384,192,49165,128,0,49474:0:0:0:0:
76,192,49165,1,0,0:0:0:0:
230,192,49165,1,0,0:0:0:0:
128,192,49474,1,0,0:0:0:0:
332,192,49474,1,0,0:0:0:0:
25,192,49629,128,0,49783:0:0:0:0:
76,192,49783,128,0,49938:0:0:0:0:
486,192,49783,1,0,0:0:0:0:
230,192,49938,128,0,50093:0:0:0:0:
435,192,49938,1,0,0:0:0:0:
179,192,50093,128,0,50247:0:0:0:0:
384,192,50093,1,0,0:0:0:0:
128,192,50247,128,0,50557:0:0:0:0:
281,192,50402,1,0,0:0:0:0:
25,192,50557,128,0,50711:0:0:0:0:
332,192,50557,1,0,0:0:0:0:
76,192,50711,128,0,51020:0:0:0:0:
384,192,50711,1,0,0:0:0:0:
486,192,50711,1,0,0:0:0:0:
230,192,50711,1,0,0:0:0:0:
179,192,51020,128,0,51330:0:0:0:0:
25,192,51020,1,0,0:0:0:0:
332,192,51020,1,0,0:0:0:0:
435,192,51020,1,0,0:0:0:0:
384,192,51330,128,0,51484:0:0:0:0:
128,192,51330,1,0,0:0:0:0:
281,192,51330,1,0,0:0:0:0:
486,192,51330,1,0,0:0:0:0:
230,192,51484,1,0,0:0:0:0:
76,192,51484,1,0,0:0:0:0:
384,192,51639,128,0,51948:0:0:0:0:
25,192,51639,1,0,0:0:0:0:
435,192,51639,1,0,0:0:0:0:
435,192,51948,128,0,52103:0:0:0:0:
76,192,51948,1,0,0:0:0:0:
128,192,51948,1,0,0:0:0:0:
486,192,51948,1,0,0:0:0:0:
384,192,52103,128,0,52258:0:0:0:0:
332,192,52258,128,0,52412:0:0:0:0:
281,192,52412,128,0,52567:0:0:0:0:
230,192,52567,128,0,52876:0:0:0:0:
179,192,52876,128,0,53185:0:0:0:0:
25,192,53185,128,0,53804:0:0:0:0:
486,192,53495,128,0,53804:0:0:0:0:
76,192,53804,1,0,0:0:0:0:
128,192,53804,1,0,0:0:0:0:
384,192,53804,1,0,0:0:0:0:
435,192,53804,1,0,0:0:0:0:
179,192,54113,128,0,54268:0:0:0:0:
230,192,54268,128,0,54422:0:0:0:0:
435,192,54422,128,0,54577:0:0:0:0:
384,192,54577,128,0,54732:0:0:0:0:
332,192,54732,128,0,54886:0:0:0:0:
281,192,54886,128,0,55041:0:0:0:0:
230,192,55041,128,0,55350:0:0:0:0:
179,192,55350,128,0,55660:0:0:0:0:
25,192,55660,128,0,56278:0:0:0:0:
281,192,55660,1,0,0:0:0:0:
486,192,55969,128,0,56278:0:0:0:0:
281,192,55969,1,0,0:0:0:0:
281,192,56124,1,0,0:0:0:0:
281,192,56278,1,0,0:0:0:0:
435,192,56278,1,0,0:0:0:0:
76,192,56278,1,0,0:0:0:0:
332,192,56587,128,0,56742:0:0:0:0:
230,192,56587,1,0,0:0:0:0:
384,192,56742,128,0,56897:0:0:0:0:
435,192,56897,128,0,57051:0:0:0:0:
384,192,57051,128,0,57206:0:0:0:0:
332,192,57206,128,0,57361:0:0:0:0:
281,192,57361,128,0,57515:0:0:0:0:
230,192,57515,128,0,57825:0:0:0:0:
179,192,57825,128,0,58134:0:0:0:0:
25,192,58134,128,0,58752:0:0:0:0:
486,192,58443,128,0,58752:0:0:0:0:
281,192,58752,1,0,0:0:0:0:
435,192,58752,1,0,0:0:0:0:
76,192,58752,1,0,0:0:0:0:
128,192,58752,1,0,0:0:0:0:
179,192,58907,128,0,59062:0:0:0:0:
230,192,59062,128,0,59216:0:0:0:0:
281,192,59216,128,0,59371:0:0:0:0:
486,192,59371,128,0,59474:0:0:0:0:
435,192,59474,128,0,59564:0:0:0:0:
384,192,59564,128,0,59680:0:0:0:0:
332,192,59680,128,0,59990:0:0:0:0:
128,192,59680,1,0,0:0:0:0:
179,192,59835,1,0,0:0:0:0:
230,192,59990,1,0,0:0:0:0:
76,192,60144,128,0,60299:0:0:0:0:
128,192,60299,128,0,60453:0:0:0:0:
179,192,60453,128,0,60608:0:0:0:0:
435,192,60608,128,0,60711:0:0:0:0:
230,192,60608,1,0,0:0:0:0:
384,192,60711,128,0,60801:0:0:0:0:
179,192,60763,1,0,0:0:0:0:
332,192,60801,128,0,60917:0:0:0:0:
281,192,60917,128,0,61072:0:0:0:0:
25,192,60917,1,0,0:0:0:0:
128,192,60917,1,0,0:0:0:0:
486,192,60917,1,0,0:0:0:0:
384,192,61072,128,0,61227:0:0:0:0:
332,192,61227,128,0,61330:0:0:0:0:
179,192,61227,1,0,0:0:0:0:
281,192,61330,128,0,61420:0:0:0:0:
128,192,61381,1,0,0:0:0:0:
230,192,61420,128,0,61845:0:0:0:0:
25,192,61536,1,0,0:0:0:0:
76,192,61536,1,0,0:0:0:0:
179,192,61845,1,0,0:0:0:0:
384,192,61845,1,0,0:0:0:0:
76,192,62000,128,0,62154:0:0:0:0:
332,192,62000,128,0,62154:0:0:0:0:
384,192,62154,128,0,62309:0:0:0:0:
128,192,62154,128,0,62309:0:0:0:0:
25,192,62154,1,0,0:0:0:0:
435,192,62309,128,0,62464:0:0:0:0:
179,192,62309,128,0,62464:0:0:0:0:
486,192,62464,128,0,62618:0:0:0:0:
230,192,62464,128,0,62618:0:0:0:0:
332,192,62464,1,0,0:0:0:0:
281,192,62618,128,0,62928:0:0:0:0:
76,192,62618,128,0,62928:0:0:0:0:
435,192,62773,1,0,0:0:0:0:
332,192,62928,128,0,63237:0:0:0:0:
128,192,62928,128,0,63237:0:0:0:0:
486,192,63082,1,0,0:0:0:0:
179,192,63237,128,0,63546:0:0:0:0:
384,192,63237,128,0,63546:0:0:0:0:
25,192,63392,1,0,0:0:0:0:
435,192,63546,128,0,64010:0:0:0:0:
230,192,63546,128,0,64010:0:0:0:0:
76,192,63546,128,0,63701:0:0:0:0:
128,192,63701,128,0,64010:0:0:0:0:
25,192,64010,1,0,0:0:0:0:
486,192,64010,1,0,0:0:0:0:
25,192,64165,1,0,0:0:0:0:
486,192,64165,1,0,0:0:0:0:
281,192,64474,128,0,64629:0:0:0:0:
25,192,64474,128,0,64629:0:0:0:0:
332,192,64629,128,0,64783:0:0:0:0:
76,192,64629,128,0,64783:0:0:0:0:
486,192,64629,1,0,0:0:0:0:
384,192,64783,128,0,64938:0:0:0:0:
128,192,64783,128,0,64938:0:0:0:0:
435,192,64938,128,0,65093:0:0:0:0:
179,192,64938,128,0,65093:0:0:0:0:
25,192,64938,1,0,0:0:0:0:
486,192,65093,128,0,65247:0:0:0:0:
230,192,65093,128,0,65247:0:0:0:0:
281,192,65247,128,0,65402:0:0:0:0:
25,192,65247,128,0,65402:0:0:0:0:
128,192,65247,1,0,0:0:0:0:
332,192,65402,128,0,65557:0:0:0:0:
76,192,65402,128,0,65557:0:0:0:0:
230,192,65557,128,0,65866:0:0:0:0:
486,192,65557,128,0,65866:0:0:0:0:
384,192,65557,1,0,0:0:0:0:
435,192,65866,128,0,66484:0:0:0:0:
179,192,65866,128,0,66484:0:0:0:0:
128,192,65866,1,0,0:0:0:0:
76,192,66020,128,0,66175:0:0:0:0:
25,192,66175,128,0,66484:0:0:0:0:
128,192,66484,1,0,0:0:0:0:
486,192,66484,1,0,0:0:0:0:
128,192,66639,1,0,0:0:0:0:
486,192,66639,1,0,0:0:0:0:
281,192,66948,128,0,67103:0:0:0:0:
486,192,67103,128,0,67258:0:0:0:0:
128,192,67103,1,0,0:0:0:0:
435,192,67258,128,0,67412:0:0:0:0:
76,192,67258,1,0,0:0:0:0:
384,192,67412,128,0,67721:0:0:0:0:
25,192,67412,1,0,0:0:0:0:
281,192,67721,128,0,67876:0:0:0:0:
76,192,67721,1,0,0:0:0:0:
332,192,67876,128,0,68031:0:0:0:0:
128,192,67876,1,0,0:0:0:0:
486,192,68031,128,0,68340:0:0:0:0:
179,192,68031,1,0,0:0:0:0:
435,192,68340,128,0,68495:0:0:0:0:
230,192,68340,1,0,0:0:0:0:
384,192,68495,128,0,68804:0:0:0:0:
179,192,68495,128,0,68649:0:0:0:0:
128,192,68649,128,0,68959:0:0:0:0:
332,192,68804,128,0,69268:0:0:0:0:
25,192,68959,1,0,0:0:0:0:
25,192,69113,1,0,0:0:0:0:
128,192,69422,128,0,69732:0:0:0:0:
384,192,69577,1,0,0:0:0:0:
76,192,69732,128,0,70041:0:0:0:0:
435,192,69732,1,0,0:0:0:0:
486,192,69886,1,0,0:0:0:0:
25,192,70041,128,0,70196:0:0:0:0:
76,192,70196,128,0,70350:0:0:0:0:
332,192,70196,1,0,0:0:0:0:
230,192,70350,128,0,70505:0:0:0:0:
384,192,70350,1,0,0:0:0:0:
179,192,70505,128,0,70814:0:0:0:0:
435,192,70505,1,0,0:0:0:0:
128,192,70814,128,0,70969:0:0:0:0:
486,192,70814,1,0,0:0:0:0:
76,192,70969,128,0,71124:0:0:0:0:
435,192,70969,1,0,0:0:0:0:
25,192,71124,128,0,71433:0:0:0:0:
384,192,71124,1,0,0:0:0:0:
230,192,71124,1,0,0:0:0:0:
179,192,71278,1,0,0:0:0:0:
332,192,71278,1,0,0:0:0:0:
128,192,71433,128,0,71742:0:0:0:0:
230,192,71433,1,0,0:0:0:0:
384,192,71433,1,0,0:0:0:0:
281,192,71587,1,0,0:0:0:0:
435,192,71587,1,0,0:0:0:0:
384,192,71742,1,0,0:0:0:0:
486,192,71742,1,0,0:0:0:0:
25,192,71742,1,0,0:0:0:0:
25,192,71897,128,0,72593:0:0:0:0:
281,192,71897,128,0,72593:0:0:0:0:
332,192,72051,128,0,72747:0:0:0:0:
76,192,72051,128,0,72747:0:0:0:0:
384,192,72206,128,0,72902:0:0:0:0:
128,192,72206,128,0,72902:0:0:0:0:
435,192,72361,128,0,73057:0:0:0:0:
179,192,72361,128,0,73057:0:0:0:0:
486,192,72515,128,0,73211:0:0:0:0:
230,192,72515,128,0,73211:0:0:0:0:
25,192,72670,128,0,73366:0:0:0:0:
281,192,72670,128,0,73366:0:0:0:0:
332,192,72825,128,0,73520:0:0:0:0:
76,192,72825,128,0,73520:0:0:0:0:
128,192,72979,128,0,73675:0:0:0:0:
384,192,72979,128,0,73675:0:0:0:0:
435,192,73134,128,0,73830:0:0:0:0:
179,192,73134,128,0,73830:0:0:0:0:
486,192,73288,128,0,73984:0:0:0:0:
230,192,73288,128,0,73984:0:0:0:0:
25,192,73443,128,0,73984:0:0:0:0:
281,192,73443,128,0,73984:0:0:0:0:
76,192,73598,128,0,74062:0:0:0:0:
332,192,73598,128,0,74062:0:0:0:0:
128,192,73752,128,0,74062:0:0:0:0:
384,192,73752,128,0,74062:0:0:0:0:
179,192,73907,128,0,74062:0:0:0:0:
435,192,73907,128,0,74062:0:0:0:0:
486,192,74062,1,0,0:0:0:0:
230,192,74062,1,0,0:0:0:0:
25,192,74062,1,0,0:0:0:0:
281,192,74062,1,0,0:0:0:0:
486,192,74371,128,0,75067:0:0:0:0:
230,192,74371,128,0,75067:0:0:0:0:
179,192,74526,128,0,75221:0:0:0:0:
435,192,74526,128,0,75221:0:0:0:0:
128,192,74680,128,0,75376:0:0:0:0:
384,192,74680,128,0,75376:0:0:0:0:
76,192,74835,128,0,75531:0:0:0:0:
332,192,74835,128,0,75531:0:0:0:0:
25,192,74990,128,0,75685:0:0:0:0:
281,192,74990,128,0,75685:0:0:0:0:
486,192,75144,128,0,75840:0:0:0:0:
230,192,75144,128,0,75840:0:0:0:0:
179,192,75299,128,0,75995:0:0:0:0:
435,192,75299,128,0,75995:0:0:0:0:
384,192,75453,128,0,76149:0:0:0:0:
128,192,75453,128,0,76149:0:0:0:0:
76,192,75608,128,0,76304:0:0:0:0:
332,192,75608,128,0,76304:0:0:0:0:
25,192,75763,128,0,76459:0:0:0:0:
281,192,75763,128,0,76459:0:0:0:0:
486,192,75917,128,0,76459:0:0:0:0:
230,192,75917,128,0,76459:0:0:0:0:
435,192,76072,128,0,76536:0:0:0:0:
179,192,76072,128,0,76536:0:0:0:0:
384,192,76227,128,0,76536:0:0:0:0:
128,192,76227,128,0,76536:0:0:0:0:
332,192,76381,128,0,76536:0:0:0:0:
76,192,76381,128,0,76536:0:0:0:0:
25,192,76536,1,0,0:0:0:0:
281,192,76536,1,0,0:0:0:0:
486,192,76536,1,0,0:0:0:0:
230,192,76536,1,0,0:0:0:0:
486,192,76845,128,0,77541:0:0:0:0:
25,192,76845,128,0,77541:0:0:0:0:
435,192,77000,128,0,77696:0:0:0:0:
76,192,77000,128,0,77696:0:0:0:0:
384,192,77154,128,0,77850:0:0:0:0:
128,192,77154,128,0,77850:0:0:0:0:
332,192,77309,128,0,78005:0:0:0:0:
179,192,77309,128,0,78005:0:0:0:0:
281,192,77464,128,0,78160:0:0:0:0:
230,192,77464,128,0,78160:0:0:0:0:
486,192,77618,128,0,78778:0:0:0:0:
25,192,77618,128,0,78778:0:0:0:0:
435,192,77773,128,0,78624:0:0:0:0:
76,192,77773,128,0,78624:0:0:0:0:
384,192,77928,128,0,78469:0:0:0:0:
128,192,77928,128,0,78469:0:0:0:0:
332,192,78082,128,0,78314:0:0:0:0:
179,192,78082,128,0,78314:0:0:0:0:
281,192,78237,128,0,78933:0:0:0:0:
230,192,78237,128,0,78933:0:0:0:0:
179,192,78392,128,0,79010:0:0:0:0:
332,192,78392,128,0,79010:0:0:0:0:
128,192,78546,128,0,78933:0:0:0:0:
384,192,78546,128,0,78933:0:0:0:0:
76,192,78701,128,0,79010:0:0:0:0:
435,192,78701,128,0,79010:0:0:0:0:
25,192,78855,128,0,79010:0:0:0:0:
486,192,78855,128,0,79010:0:0:0:0:
230,192,79010,1,0,0:0:0:0:
281,192,79010,1,0,0:0:0:0:
128,192,79010,1,0,0:0:0:0:
384,192,79010,1,0,0:0:0:0:
281,192,79165,1,0,0:0:0:0:
486,192,79165,1,0,0:0:0:0:
25,192,79165,128,0,81639:0:0:0:0:
230,192,79165,1,0,0:0:0:0:
486,192,79629,1,0,0:0:0:0:
281,192,79629,1,0,0:0:0:0:
230,192,79629,1,0,0:0:0:0:
486,192,80093,1,0,0:0:0:0:
281,192,80093,1,0,0:0:0:0:
230,192,80093,1,0,0:0:0:0:
486,192,80557,1,0,0:0:0:0:
281,192,80557,1,0,0:0:0:0:
230,192,80557,1,0,0:0:0:0:
486,192,81020,1,0,0:0:0:0:
281,192,81020,1,0,0:0:0:0:
230,192,81020,1,0,0:0:0:0:
128,192,81330,1,0,0:0:0:0:
435,192,81330,1,0,0:0:0:0:
384,192,81330,1,0,0:0:0:0:
435,192,81484,1,0,0:0:0:0:
384,192,81484,1,0,0:0:0:0:
128,192,81484,1,0,0:0:0:0:
435,192,81639,1,0,0:0:0:0:
486,192,81639,1,0,0:0:0:0:
332,192,81639,1,0,0:0:0:0:
384,192,81639,1,0,0:0:0:0:
179,192,81948,1,0,0:0:0:0:
128,192,81948,1,0,0:0:0:0:
76,192,81948,1,0,0:0:0:0:
435,192,82103,1,0,0:0:0:0:
486,192,82103,1,0,0:0:0:0:
332,192,82103,1,0,0:0:0:0:
384,192,82103,1,0,0:0:0:0:
128,192,82412,1,0,0:0:0:0:
76,192,82412,1,0,0:0:0:0:
25,192,82412,1,0,0:0:0:0:
435,192,82567,1,0,0:0:0:0:
486,192,82567,1,0,0:0:0:0:
332,192,82567,1,0,0:0:0:0:
384,192,82567,1,0,0:0:0:0:
179,192,82876,1,0,0:0:0:0:
128,192,82876,1,0,0:0:0:0:
76,192,82876,1,0,0:0:0:0:
435,192,83031,1,0,0:0:0:0:
486,192,83031,1,0,0:0:0:0:
332,192,83031,1,0,0:0:0:0:
384,192,83031,1,0,0:0:0:0:
128,192,83340,1,0,0:0:0:0:
76,192,83340,1,0,0:0:0:0:
25,192,83340,1,0,0:0:0:0:
486,192,83495,1,0,0:0:0:0:
435,192,83495,1,0,0:0:0:0:
384,192,83495,1,0,0:0:0:0:
179,192,83804,128,0,84113:0:0:0:0:
332,192,83804,128,0,84113:0:0:0:0:
230,192,83804,1,0,0:0:0:0:
281,192,83804,1,0,0:0:0:0:
128,192,84113,1,0,0:0:0:0:
486,192,84113,1,0,0:0:0:0:
25,192,84113,128,0,84422:0:0:0:0:
384,192,84113,128,0,84422:0:0:0:0:
230,192,84422,1,0,0:0:0:0:
76,192,84422,128,0,84732:0:0:0:0:
435,192,84422,128,0,84732:0:0:0:0:
281,192,84732,1,0,0:0:0:0:
230,192,84732,128,0,85041:0:0:0:0:
486,192,84732,128,0,85041:0:0:0:0:
128,192,85041,1,0,0:0:0:0:
179,192,85041,128,0,85350:0:0:0:0:
435,192,85041,128,0,85350:0:0:0:0:
281,192,85350,128,0,85505:0:0:0:0:
25,192,85350,128,0,85505:0:0:0:0:
332,192,85505,128,0,85660:0:0:0:0:
76,192,85505,128,0,85660:0:0:0:0:
384,192,85660,128,0,85814:0:0:0:0:
128,192,85660,128,0,85814:0:0:0:0:
435,192,85814,128,0,85969:0:0:0:0:
179,192,85814,128,0,85969:0:0:0:0:
25,192,85969,1,0,0:0:0:0:
281,192,85969,1,0,0:0:0:0:
486,192,85969,128,0,86278:0:0:0:0:
230,192,85969,128,0,86278:0:0:0:0:
76,192,86278,128,0,86587:0:0:0:0:
384,192,86278,128,0,86587:0:0:0:0:
128,192,86587,1,0,0:0:0:0:
25,192,86587,128,0,86897:0:0:0:0:
281,192,86587,128,0,86897:0:0:0:0:
486,192,86897,1,0,0:0:0:0:
435,192,86897,128,0,87206:0:0:0:0:
179,192,86897,128,0,87206:0:0:0:0:
384,192,87206,1,0,0:0:0:0:
76,192,87206,128,0,87515:0:0:0:0:
332,192,87206,128,0,87515:0:0:0:0:
281,192,87515,1,0,0:0:0:0:
486,192,87515,128,0,87825:0:0:0:0:
230,192,87515,128,0,87825:0:0:0:0:
25,192,87825,128,0,87979:0:0:0:0:
332,192,87825,128,0,87979:0:0:0:0:
384,192,87979,128,0,88134:0:0:0:0:
76,192,87979,128,0,88134:0:0:0:0:
435,192,88134,128,0,88288:0:0:0:0:
128,192,88134,128,0,88288:0:0:0:0:
486,192,88288,128,0,88443:0:0:0:0:
179,192,88288,128,0,88443:0:0:0:0:
384,192,88443,1,0,0:0:0:0:
230,192,88443,1,0,0:0:0:0:
332,192,88443,128,0,88752:0:0:0:0:
76,192,88443,128,0,88752:0:0:0:0:
486,192,88752,1,0,0:0:0:0:
281,192,88752,128,0,89062:0:0:0:0:
25,192,88752,128,0,89062:0:0:0:0:
179,192,89062,128,0,89990:0:0:0:0:
435,192,89062,128,0,89990:0:0:0:0:
384,192,89371,128,0,89990:0:0:0:0:
128,192,89371,128,0,89990:0:0:0:0:
332,192,89680,128,0,89990:0:0:0:0:
76,192,89680,128,0,89990:0:0:0:0:
281,192,89990,1,0,0:0:0:0:
25,192,89990,1,0,0:0:0:0:
332,192,90144,1,0,0:0:0:0:
76,192,90144,1,0,0:0:0:0:
384,192,90299,1,0,0:0:0:0:
128,192,90299,1,0,0:0:0:0:
230,192,90608,128,0,90763:0:0:0:0:
486,192,90608,128,0,90763:0:0:0:0:
25,192,90763,128,0,90917:0:0:0:0:
281,192,90763,128,0,90917:0:0:0:0:
76,192,90917,128,0,91072:0:0:0:0:
332,192,90917,128,0,91072:0:0:0:0:
128,192,91072,128,0,91227:0:0:0:0:
384,192,91072,128,0,91227:0:0:0:0:
179,192,91227,128,0,91381:0:0:0:0:
435,192,91227,128,0,91381:0:0:0:0:
230,192,91381,128,0,91536:0:0:0:0:
486,192,91381,128,0,91536:0:0:0:0:
25,192,91536,128,0,91845:0:0:0:0:
281,192,91536,128,0,91845:0:0:0:0:
332,192,91845,128,0,92000:0:0:0:0:
76,192,91845,128,0,92000:0:0:0:0:
179,192,92000,128,0,92154:0:0:0:0:
435,192,92000,128,0,92154:0:0:0:0:
128,192,92154,128,0,92232:0:0:0:0:
384,192,92154,128,0,92232:0:0:0:0:
76,192,92232,128,0,92464:0:0:0:0:
332,192,92232,128,0,92464:0:0:0:0:
384,192,92464,1,0,0:0:0:0:
25,192,92464,128,0,92773:0:0:0:0:
281,192,92464,128,0,92773:0:0:0:0:
435,192,92618,1,0,0:0:0:0:
486,192,92773,1,0,0:0:0:0:
281,192,93082,1,0,0:0:0:0:
76,192,93082,128,0,93392:0:0:0:0:
332,192,93237,1,0,0:0:0:0:
384,192,93392,1,0,0:0:0:0:
486,192,93392,1,0,0:0:0:0:
128,192,93392,128,0,93701:0:0:0:0:
230,192,93392,1,0,0:0:0:0:
435,192,93546,1,0,0:0:0:0:
281,192,93546,1,0,0:0:0:0:
25,192,93546,1,0,0:0:0:0:
332,192,93701,1,0,0:0:0:0:
486,192,93701,1,0,0:0:0:0:
179,192,93701,128,0,94010:0:0:0:0:
76,192,93701,1,0,0:0:0:0:
128,192,94010,1,0,0:0:0:0:
486,192,94010,1,0,0:0:0:0:
384,192,94010,128,0,94319:0:0:0:0:
25,192,94010,128,0,94319:0:0:0:0:
179,192,94319,1,0,0:0:0:0:
435,192,94319,128,0,94629:0:0:0:0:
76,192,94319,128,0,94629:0:0:0:0:
281,192,94629,1,0,0:0:0:0:
486,192,94629,128,0,94938:0:0:0:0:
230,192,94629,128,0,94938:0:0:0:0:
76,192,94938,1,0,0:0:0:0:
435,192,94938,128,0,95247:0:0:0:0:
179,192,94938,128,0,95247:0:0:0:0:
25,192,95247,128,0,95402:0:0:0:0:
281,192,95247,128,0,95402:0:0:0:0:
76,192,95402,128,0,95557:0:0:0:0:
332,192,95402,128,0,95557:0:0:0:0:
128,192,95557,128,0,95711:0:0:0:0:
384,192,95557,128,0,95711:0:0:0:0:
179,192,95711,128,0,95866:0:0:0:0:
435,192,95711,128,0,95866:0:0:0:0:
486,192,95866,128,0,96175:0:0:0:0:
281,192,95866,1,0,0:0:0:0:
25,192,95866,1,0,0:0:0:0:
230,192,95866,128,0,96175:0:0:0:0:
128,192,96175,1,0,0:0:0:0:
384,192,96175,128,0,96484:0:0:0:0:
76,192,96175,128,0,96484:0:0:0:0:
332,192,96484,1,0,0:0:0:0:
281,192,96484,128,0,96794:0:0:0:0:
25,192,96484,128,0,96794:0:0:0:0:
486,192,96794,1,0,0:0:0:0:
179,192,96794,128,0,97103:0:0:0:0:
435,192,96794,128,0,97103:0:0:0:0:
384,192,97103,1,0,0:0:0:0:
332,192,97103,128,0,97412:0:0:0:0:
76,192,97103,128,0,97412:0:0:0:0:
281,192,97412,1,0,0:0:0:0:
230,192,97412,128,0,97721:0:0:0:0:
486,192,97412,128,0,97721:0:0:0:0:
179,192,97721,1,0,0:0:0:0:
332,192,97721,128,0,97876:0:0:0:0:
25,192,97721,128,0,97876:0:0:0:0:
76,192,97876,128,0,98031:0:0:0:0:
384,192,97876,128,0,98031:0:0:0:0:
128,192,98031,128,0,98185:0:0:0:0:
435,192,98031,128,0,98185:0:0:0:0:
179,192,98185,128,0,98340:0:0:0:0:
486,192,98185,128,0,98340:0:0:0:0:
332,192,98340,128,0,98959:0:0:0:0:
76,192,98340,128,0,98959:0:0:0:0:
384,192,98340,1,0,0:0:0:0:
281,192,98649,1,0,0:0:0:0:
25,192,98649,1,0,0:0:0:0:
486,192,98959,1,0,0:0:0:0:
128,192,98959,1,0,0:0:0:0:
179,192,99113,128,0,99268:0:0:0:0:
25,192,99268,1,0,0:0:0:0:
332,192,99268,128,0,99422:0:0:0:0:
76,192,99422,1,0,0:0:0:0:
384,192,99422,128,0,99577:0:0:0:0:
128,192,99577,1,0,0:0:0:0:
486,192,99577,128,0,99732:0:0:0:0:
435,192,99732,128,0,100041:0:0:0:0:
179,192,99886,1,0,0:0:0:0:
128,192,100041,1,0,0:0:0:0:
281,192,100041,128,0,100196:0:0:0:0:
76,192,100196,1,0,0:0:0:0:
486,192,100196,128,0,100350:0:0:0:0:
435,192,100350,128,0,100660:0:0:0:0:
25,192,100505,1,0,0:0:0:0:
76,192,100660,1,0,0:0:0:0:
230,192,100660,128,0,100814:0:0:0:0:
281,192,100814,1,0,0:0:0:0:
332,192,100814,1,0,0:0:0:0:
486,192,100814,128,0,101124:0:0:0:0:
128,192,100814,1,0,0:0:0:0:
230,192,101124,1,0,0:0:0:0:
76,192,101124,1,0,0:0:0:0:
384,192,101124,128,0,101433:0:0:0:0:
332,192,101433,1,0,0:0:0:0:
128,192,101433,1,0,0:0:0:0:
25,192,101587,128,0,101742:0:0:0:0:
486,192,101742,1,0,0:0:0:0:
76,192,101742,128,0,101897:0:0:0:0:
435,192,101897,1,0,0:0:0:0:
230,192,101897,128,0,102051:0:0:0:0:
384,192,102051,1,0,0:0:0:0:
179,192,102051,128,0,102206:0:0:0:0:
128,192,102206,128,0,102515:0:0:0:0:
281,192,102361,1,0,0:0:0:0:
332,192,102515,1,0,0:0:0:0:
25,192,102515,128,0,102670:0:0:0:0:
486,192,102670,1,0,0:0:0:0:
230,192,102670,1,0,0:0:0:0:
76,192,102670,128,0,102979:0:0:0:0:
384,192,102670,1,0,0:0:0:0:
25,192,102979,1,0,0:0:0:0:
435,192,102979,1,0,0:0:0:0:
179,192,102979,128,0,103288:0:0:0:0:
281,192,103288,1,0,0:0:0:0:
486,192,103288,1,0,0:0:0:0:
128,192,103288,1,0,0:0:0:0:
76,192,103443,1,0,0:0:0:0:
230,192,103443,1,0,0:0:0:0:
435,192,103443,1,0,0:0:0:0:
25,192,103598,1,0,0:0:0:0:
179,192,103598,1,0,0:0:0:0:
384,192,103598,1,0,0:0:0:0:
281,192,103907,128,0,104526:0:0:0:0:
76,192,103907,1,0,0:0:0:0:
332,192,103907,1,0,0:0:0:0:
486,192,103907,1,0,0:0:0:0:
128,192,104216,1,0,0:0:0:0:
179,192,104371,1,0,0:0:0:0:
332,192,104526,128,0,104835:0:0:0:0:
25,192,104526,1,0,0:0:0:0:
76,192,104680,1,0,0:0:0:0:
384,192,104835,128,0,105144:0:0:0:0:
128,192,104835,1,0,0:0:0:0:
486,192,105144,128,0,105763:0:0:0:0:
230,192,105144,1,0,0:0:0:0:
179,192,105453,1,0,0:0:0:0:
128,192,105608,1,0,0:0:0:0:
76,192,105608,1,0,0:0:0:0:
435,192,105763,128,0,106072:0:0:0:0:
332,192,105763,1,0,0:0:0:0:
281,192,105763,1,0,0:0:0:0:
384,192,106072,128,0,106381:0:0:0:0:
179,192,106072,1,0,0:0:0:0:
230,192,106072,1,0,0:0:0:0:
281,192,106381,128,0,107000:0:0:0:0:
25,192,106381,1,0,0:0:0:0:
486,192,106381,1,0,0:0:0:0:
76,192,106691,1,0,0:0:0:0:
179,192,106845,1,0,0:0:0:0:
332,192,107000,128,0,107309:0:0:0:0:
128,192,107000,1,0,0:0:0:0:
76,192,107154,1,0,0:0:0:0:
486,192,107309,128,0,107618:0:0:0:0:
76,192,107309,1,0,0:0:0:0:
435,192,107618,128,0,108855:0:0:0:0:
25,192,107618,1,0,0:0:0:0:
230,192,107618,1,0,0:0:0:0:
76,192,107773,1,0,0:0:0:0:
281,192,107773,1,0,0:0:0:0:
332,192,107773,1,0,0:0:0:0:
25,192,107928,1,0,0:0:0:0:
230,192,107928,1,0,0:0:0:0:
25,192,108082,1,0,0:0:0:0:
230,192,108082,1,0,0:0:0:0:
384,192,108237,1,0,0:0:0:0:
128,192,108546,1,0,0:0:0:0:
25,192,108855,128,0,109474:0:0:0:0:
179,192,108855,1,0,0:0:0:0:
486,192,108855,1,0,0:0:0:0:
281,192,109165,1,0,0:0:0:0:
332,192,109319,1,0,0:0:0:0:
76,192,109474,128,0,109783:0:0:0:0:
486,192,109474,1,0,0:0:0:0:
435,192,109629,1,0,0:0:0:0:
128,192,109783,128,0,110093:0:0:0:0:
384,192,109783,1,0,0:0:0:0:
230,192,110093,128,0,110711:0:0:0:0:
281,192,110093,1,0,0:0:0:0:
332,192,110402,1,0,0:0:0:0:
384,192,110557,1,0,0:0:0:0:
435,192,110557,1,0,0:0:0:0:
179,192,110711,128,0,111020:0:0:0:0:
486,192,110711,1,0,0:0:0:0:
25,192,110711,1,0,0:0:0:0:
128,192,111020,128,0,111330:0:0:0:0:
281,192,111020,1,0,0:0:0:0:
435,192,111020,1,0,0:0:0:0:
25,192,111330,128,0,111948:0:0:0:0:
230,192,111330,1,0,0:0:0:0:
384,192,111330,1,0,0:0:0:0:
281,192,111639,1,0,0:0:0:0:
332,192,111794,1,0,0:0:0:0:
76,192,111948,128,0,112258:0:0:0:0:
486,192,111948,1,0,0:0:0:0:
435,192,112103,1,0,0:0:0:0:
230,192,112258,128,0,112567:0:0:0:0:
435,192,112258,1,0,0:0:0:0:
179,192,112567,128,0,113804:0:0:0:0:
76,192,112567,1,0,0:0:0:0:
332,192,112567,1,0,0:0:0:0:
486,192,112567,1,0,0:0:0:0:
25,192,112773,1,0,0:0:0:0:
281,192,112773,1,0,0:0:0:0:
435,192,112773,1,0,0:0:0:0:
281,192,112979,1,0,0:0:0:0:
435,192,112979,1,0,0:0:0:0:
25,192,112979,1,0,0:0:0:0:
25,192,113185,1,0,0:0:0:0:
435,192,113185,1,0,0:0:0:0:
281,192,113185,1,0,0:0:0:0:
281,192,113340,1,0,0:0:0:0:
435,192,113340,1,0,0:0:0:0:
25,192,113340,1,0,0:0:0:0:
25,192,113495,1,0,0:0:0:0:
435,192,113495,1,0,0:0:0:0:
281,192,113495,1,0,0:0:0:0:
76,192,113804,128,0,113959:0:0:0:0:
332,192,113804,128,0,113959:0:0:0:0:
25,192,113804,1,0,0:0:0:0:
486,192,113804,1,0,0:0:0:0:
128,192,113959,128,0,114113:0:0:0:0:
384,192,113959,128,0,114113:0:0:0:0:
179,192,114113,128,0,114268:0:0:0:0:
435,192,114113,128,0,114268:0:0:0:0:
25,192,114113,1,0,0:0:0:0:
230,192,114268,128,0,114422:0:0:0:0:
486,192,114268,128,0,114422:0:0:0:0:
281,192,114422,128,0,114732:0:0:0:0:
25,192,114422,128,0,114732:0:0:0:0:
384,192,114422,1,0,0:0:0:0:
332,192,114732,128,0,115041:0:0:0:0:
76,192,114732,128,0,115041:0:0:0:0:
435,192,114732,1,0,0:0:0:0:
486,192,115041,128,0,115660:0:0:0:0:
230,192,115041,128,0,115660:0:0:0:0:
179,192,115041,1,0,0:0:0:0:
128,192,115350,1,0,0:0:0:0:
76,192,115505,1,0,0:0:0:0:
384,192,115505,1,0,0:0:0:0:
435,192,115660,128,0,116278:0:0:0:0:
179,192,115660,128,0,116278:0:0:0:0:
332,192,115660,1,0,0:0:0:0:
25,192,115660,1,0,0:0:0:0:
384,192,115969,128,0,116278:0:0:0:0:
128,192,115969,128,0,116278:0:0:0:0:
230,192,115969,1,0,0:0:0:0:
25,192,115969,1,0,0:0:0:0:
332,192,116124,128,0,116278:0:0:0:0:
76,192,116124,128,0,116278:0:0:0:0:
486,192,116278,1,0,0:0:0:0:
281,192,116278,1,0,0:0:0:0:
25,192,116433,128,0,116587:0:0:0:0:
76,192,116587,128,0,116742:0:0:0:0:
332,192,116587,1,0,0:0:0:0:
230,192,116742,128,0,116897:0:0:0:0:
384,192,116742,1,0,0:0:0:0:
179,192,116897,128,0,117206:0:0:0:0:
435,192,116897,1,0,0:0:0:0:
128,192,117206,128,0,117361:0:0:0:0:
332,192,117206,1,0,0:0:0:0:
384,192,117206,1,0,0:0:0:0:
281,192,117515,1,0,0:0:0:0:
25,192,117515,1,0,0:0:0:0:
486,192,117670,128,0,117825:0:0:0:0:
332,192,117670,1,0,0:0:0:0:
384,192,117670,1,0,0:0:0:0:
179,192,117670,128,0,117979:0:0:0:0:
435,192,117825,128,0,117979:0:0:0:0:
128,192,117825,128,0,118134:0:0:0:0:
281,192,117979,128,0,118134:0:0:0:0:
76,192,117979,128,0,118288:0:0:0:0:
332,192,118134,128,0,118443:0:0:0:0:
179,192,118134,128,0,118752:0:0:0:0:
128,192,118288,128,0,118752:0:0:0:0:
384,192,118443,128,0,118752:0:0:0:0:
76,192,118443,128,0,118752:0:0:0:0:
25,192,118598,128,0,118752:0:0:0:0:
486,192,118752,128,0,118907:0:0:0:0:
230,192,118752,128,0,118907:0:0:0:0:
281,192,118752,1,0,0:0:0:0:
435,192,118907,128,0,119062:0:0:0:0:
179,192,118907,128,0,119062:0:0:0:0:
128,192,119062,128,0,119216:0:0:0:0:
384,192,119062,128,0,119216:0:0:0:0:
486,192,119062,1,0,0:0:0:0:
76,192,119216,128,0,119371:0:0:0:0:
332,192,119216,128,0,119371:0:0:0:0:
281,192,119371,128,0,119680:0:0:0:0:
25,192,119371,128,0,119680:0:0:0:0:
435,192,119371,1,0,0:0:0:0:
230,192,119680,128,0,119990:0:0:0:0:
486,192,119680,128,0,119990:0:0:0:0:
128,192,119680,1,0,0:0:0:0:
179,192,119990,128,0,120608:0:0:0:0:
435,192,119990,128,0,120608:0:0:0:0:
332,192,119990,1,0,0:0:0:0:
25,192,120299,1,0,0:0:0:0:
486,192,120299,1,0,0:0:0:0:
281,192,120453,1,0,0:0:0:0:
332,192,120453,1,0,0:0:0:0:
128,192,120608,128,0,121227:0:0:0:0:
384,192,120608,128,0,121227:0:0:0:0:
25,192,120608,1,0,0:0:0:0:
486,192,120608,1,0,0:0:0:0:
76,192,120917,128,0,121227:0:0:0:0:
332,192,120917,128,0,121227:0:0:0:0:
230,192,120917,1,0,0:0:0:0:
25,192,121072,128,0,121227:0:0:0:0:
281,192,121072,128,0,121227:0:0:0:0:
179,192,121072,1,0,0:0:0:0:
435,192,121227,1,0,0:0:0:0:
486,192,121227,1,0,0:0:0:0:
25,192,121381,128,0,121536:0:0:0:0:
281,192,121381,128,0,121536:0:0:0:0:
76,192,121536,128,0,121691:0:0:0:0:
332,192,121536,128,0,121691:0:0:0:0:
128,192,121691,128,0,121845:0:0:0:0:
384,192,121691,128,0,121845:0:0:0:0:
179,192,121845,128,0,122154:0:0:0:0:
435,192,121845,128,0,122154:0:0:0:0:
230,192,122154,128,0,122464:0:0:0:0:
486,192,122154,128,0,122464:0:0:0:0:
25,192,122618,128,0,122773:0:0:0:0:
281,192,122618,128,0,122773:0:0:0:0:
76,192,122773,128,0,122928:0:0:0:0:
332,192,122773,128,0,122928:0:0:0:0:
128,192,122928,128,0,123082:0:0:0:0:
384,192,122928,128,0,123082:0:0:0:0:
486,192,123082,128,0,123392:0:0:0:0:
230,192,123082,128,0,123392:0:0:0:0:
435,192,123392,128,0,123701:0:0:0:0:
179,192,123392,128,0,123701:0:0:0:0:
25,192,123701,1,0,0:0:0:0:
486,192,123701,1,0,0:0:0:0:
76,192,123701,128,0,123855:0:0:0:0:
332,192,123701,128,0,123855:0:0:0:0:
230,192,123701,1,0,0:0:0:0:
384,192,123855,128,0,124010:0:0:0:0:
128,192,123855,128,0,124010:0:0:0:0:
281,192,124010,1,0,0:0:0:0:
435,192,124010,128,0,124165:0:0:0:0:
179,192,124010,128,0,124165:0:0:0:0:
486,192,124165,128,0,124319:0:0:0:0:
230,192,124165,128,0,124319:0:0:0:0:
384,192,124319,1,0,0:0:0:0:
25,192,124319,128,0,124629:0:0:0:0:
281,192,124319,128,0,124629:0:0:0:0:
435,192,124629,1,0,0:0:0:0:
76,192,124629,128,0,124938:0:0:0:0:
332,192,124629,128,0,124938:0:0:0:0:
179,192,124938,1,0,0:0:0:0:
230,192,124938,128,0,125557:0:0:0:0:
486,192,124938,128,0,125557:0:0:0:0:
128,192,125247,1,0,0:0:0:0:
384,192,125402,1,0,0:0:0:0:
76,192,125402,1,0,0:0:0:0:
332,192,125557,1,0,0:0:0:0:
25,192,125557,1,0,0:0:0:0:
435,192,125557,128,0,126175:0:0:0:0:
179,192,125557,128,0,126175:0:0:0:0:
230,192,125866,1,0,0:0:0:0:
25,192,125866,1,0,0:0:0:0:
384,192,125866,128,0,126175:0:0:0:0:
128,192,125866,128,0,126175:0:0:0:0:
76,192,126020,128,0,126175:0:0:0:0:
332,192,126020,128,0,126175:0:0:0:0:
281,192,126175,1,0,0:0:0:0:
486,192,126175,1,0,0:0:0:0:
25,192,126330,128,0,126484:0:0:0:0:
332,192,126484,1,0,0:0:0:0:
76,192,126484,128,0,126639:0:0:0:0:
384,192,126639,1,0,0:0:0:0:
230,192,126639,128,0,126794:0:0:0:0:
435,192,126794,1,0,0:0:0:0:
179,192,126794,128,0,127103:0:0:0:0:
384,192,127103,1,0,0:0:0:0:
332,192,127103,1,0,0:0:0:0:
128,192,127103,128,0,127258:0:0:0:0:
25,192,127412,1,0,0:0:0:0:
281,192,127412,1,0,0:0:0:0:
384,192,127567,1,0,0:0:0:0:
179,192,127567,128,0,127876:0:0:0:0:
486,192,127567,128,0,127721:0:0:0:0:
332,192,127567,1,0,0:0:0:0:
128,192,127721,128,0,128031:0:0:0:0:
435,192,127721,128,0,127876:0:0:0:0:
76,192,127876,128,0,128185:0:0:0:0:
281,192,127876,128,0,128031:0:0:0:0:
179,192,128031,128,0,128649:0:0:0:0:
332,192,128031,128,0,128340:0:0:0:0:
128,192,128185,128,0,128649:0:0:0:0:
76,192,128340,128,0,128649:0:0:0:0:
384,192,128340,128,0,128495:0:0:0:0:
25,192,128495,128,0,128649:0:0:0:0:
281,192,128649,1,0,0:0:0:0:
230,192,128649,128,0,128804:0:0:0:0:
486,192,128649,128,0,128804:0:0:0:0:
179,192,128804,128,0,128959:0:0:0:0:
435,192,128804,128,0,128959:0:0:0:0:
486,192,128959,1,0,0:0:0:0:
384,192,128959,128,0,129113:0:0:0:0:
128,192,128959,128,0,129113:0:0:0:0:
332,192,129113,128,0,129268:0:0:0:0:
76,192,129113,128,0,129268:0:0:0:0:
435,192,129268,1,0,0:0:0:0:
25,192,129268,128,0,129577:0:0:0:0:
281,192,129268,128,0,129577:0:0:0:0:
128,192,129577,1,0,0:0:0:0:
486,192,129577,128,0,129886:0:0:0:0:
230,192,129577,128,0,129886:0:0:0:0:
332,192,129886,1,0,0:0:0:0:
435,192,129886,128,0,130505:0:0:0:0:
179,192,129886,128,0,130505:0:0:0:0:
486,192,130196,1,0,0:0:0:0:
25,192,130196,1,0,0:0:0:0:
332,192,130350,1,0,0:0:0:0:
281,192,130350,1,0,0:0:0:0:
25,192,130505,1,0,0:0:0:0:
486,192,130505,1,0,0:0:0:0:
128,192,130505,128,0,131124:0:0:0:0:
384,192,130505,128,0,131124:0:0:0:0:
230,192,130814,1,0,0:0:0:0:
332,192,130814,128,0,131124:0:0:0:0:
76,192,130814,128,0,131124:0:0:0:0:
179,192,130969,1,0,0:0:0:0:
281,192,130969,128,0,131124:0:0:0:0:
486,192,131124,1,0,0:0:0:0:
435,192,131124,1,0,0:0:0:0:
25,192,131124,128,0,133598:0:0:0:0:
230,192,131124,1,0,0:0:0:0:
486,192,131587,1,0,0:0:0:0:
281,192,131587,1,0,0:0:0:0:
230,192,131587,1,0,0:0:0:0:
486,192,132051,1,0,0:0:0:0:
281,192,132051,1,0,0:0:0:0:
230,192,132051,1,0,0:0:0:0:
486,192,132515,1,0,0:0:0:0:
281,192,132515,1,0,0:0:0:0:
230,192,132515,1,0,0:0:0:0:
486,192,132979,1,0,0:0:0:0:
281,192,132979,1,0,0:0:0:0:
230,192,132979,1,0,0:0:0:0:
128,192,133288,1,0,0:0:0:0:
435,192,133288,1,0,0:0:0:0:
384,192,133288,1,0,0:0:0:0:
435,192,133443,1,0,0:0:0:0:
384,192,133443,1,0,0:0:0:0:
128,192,133443,1,0,0:0:0:0:
435,192,133598,1,0,0:0:0:0:
486,192,133598,1,0,0:0:0:0:
332,192,133598,1,0,0:0:0:0:
384,192,133598,1,0,0:0:0:0:
179,192,133907,1,0,0:0:0:0:
128,192,133907,1,0,0:0:0:0:
76,192,133907,1,0,0:0:0:0:
435,192,134062,1,0,0:0:0:0:
486,192,134062,1,0,0:0:0:0:
332,192,134062,1,0,0:0:0:0:
384,192,134062,1,0,0:0:0:0:
128,192,134371,1,0,0:0:0:0:
76,192,134371,1,0,0:0:0:0:
25,192,134371,1,0,0:0:0:0:
435,192,134526,1,0,0:0:0:0:
486,192,134526,1,0,0:0:0:0:
332,192,134526,1,0,0:0:0:0:
384,192,134526,1,0,0:0:0:0:
179,192,134835,1,0,0:0:0:0:
128,192,134835,1,0,0:0:0:0:
76,192,134835,1,0,0:0:0:0:
435,192,134990,1,0,0:0:0:0:
486,192,134990,1,0,0:0:0:0:
332,192,134990,1,0,0:0:0:0:
384,192,134990,1,0,0:0:0:0:
128,192,135299,1,0,0:0:0:0:
76,192,135299,1,0,0:0:0:0:
25,192,135299,1,0,0:0:0:0:
486,192,135453,1,0,0:0:0:0:
435,192,135453,1,0,0:0:0:0:
384,192,135453,1,0,0:0:0:0:
332,192,135763,128,0,136072:0:0:0:0:
179,192,135763,128,0,136072:0:0:0:0:
384,192,136072,128,0,136381:0:0:0:0:
25,192,136072,1,0,0:0:0:0:
435,192,136381,128,0,136691:0:0:0:0:
25,192,136381,1,0,0:0:0:0:
76,192,136381,1,0,0:0:0:0:
128,192,136381,1,0,0:0:0:0:
486,192,136691,128,0,137000:0:0:0:0:
25,192,136691,1,0,0:0:0:0:
435,192,137000,128,0,137309:0:0:0:0:
25,192,137000,1,0,0:0:0:0:
76,192,137000,1,0,0:0:0:0:
128,192,137000,1,0,0:0:0:0:
281,192,137309,128,0,137464:0:0:0:0:
25,192,137309,1,0,0:0:0:0:
76,192,137309,1,0,0:0:0:0:
128,192,137309,1,0,0:0:0:0:
332,192,137464,128,0,137618:0:0:0:0:
76,192,137464,1,0,0:0:0:0:
128,192,137464,1,0,0:0:0:0:
25,192,137464,1,0,0:0:0:0:
384,192,137618,128,0,137773:0:0:0:0:
25,192,137618,1,0,0:0:0:0:
128,192,137618,1,0,0:0:0:0:
76,192,137618,1,0,0:0:0:0:
435,192,137773,128,0,137928:0:0:0:0:
76,192,137773,1,0,0:0:0:0:
128,192,137773,1,0,0:0:0:0:
25,192,137773,1,0,0:0:0:0:
486,192,137928,128,0,138237:0:0:0:0:
25,192,137928,1,0,0:0:0:0:
128,192,137928,1,0,0:0:0:0:
76,192,137928,1,0,0:0:0:0:
384,192,138237,128,0,138546:0:0:0:0:
76,192,138237,1,0,0:0:0:0:
128,192,138237,1,0,0:0:0:0:
25,192,138237,1,0,0:0:0:0:
128,192,138546,1,0,0:0:0:0:
25,192,138546,128,0,138855:0:0:0:0:
281,192,138546,128,0,138855:0:0:0:0:
435,192,138546,1,0,0:0:0:0:
332,192,138546,1,0,0:0:0:0:
486,192,138855,1,0,0:0:0:0:
435,192,138855,128,0,139165:0:0:0:0:
179,192,138855,128,0,139165:0:0:0:0:
384,192,139165,1,0,0:0:0:0:
76,192,139165,128,0,139474:0:0:0:0:
332,192,139165,128,0,139474:0:0:0:0:
281,192,139474,1,0,0:0:0:0:
486,192,139474,128,0,139783:0:0:0:0:
230,192,139474,128,0,139783:0:0:0:0:
25,192,139783,128,0,139938:0:0:0:0:
332,192,139783,128,0,139938:0:0:0:0:
384,192,139938,128,0,140093:0:0:0:0:
76,192,139938,128,0,140093:0:0:0:0:
435,192,140093,128,0,140247:0:0:0:0:
128,192,140093,128,0,140247:0:0:0:0:
486,192,140247,128,0,140402:0:0:0:0:
179,192,140247,128,0,140402:0:0:0:0:
384,192,140402,1,0,0:0:0:0:
230,192,140402,1,0,0:0:0:0:
332,192,140402,128,0,140711:0:0:0:0:
76,192,140402,128,0,140711:0:0:0:0:
486,192,140711,1,0,0:0:0:0:
281,192,140711,128,0,141020:0:0:0:0:
25,192,140711,128,0,141020:0:0:0:0:
179,192,141020,128,0,141948:0:0:0:0:
435,192,141020,128,0,141948:0:0:0:0:
384,192,141330,128,0,141948:0:0:0:0:
128,192,141330,128,0,141948:0:0:0:0:
332,192,141639,128,0,141948:0:0:0:0:
76,192,141639,128,0,141948:0:0:0:0:
281,192,141948,1,0,0:0:0:0:
25,192,141948,1,0,0:0:0:0:
332,192,142103,1,0,0:0:0:0:
76,192,142103,1,0,0:0:0:0:
384,192,142258,1,0,0:0:0:0:
128,192,142258,1,0,0:0:0:0:
230,192,142567,128,0,142721:0:0:0:0:
486,192,142567,128,0,142721:0:0:0:0:
25,192,142721,128,0,142876:0:0:0:0:
281,192,142721,128,0,142876:0:0:0:0:
76,192,142876,128,0,143031:0:0:0:0:
332,192,142876,128,0,143031:0:0:0:0:
128,192,143031,128,0,143185:0:0:0:0:
384,192,143031,128,0,143185:0:0:0:0:
179,192,143185,128,0,143340:0:0:0:0:
435,192,143185,128,0,143340:0:0:0:0:
230,192,143340,128,0,143495:0:0:0:0:
486,192,143340,128,0,143495:0:0:0:0:
25,192,143495,128,0,143804:0:0:0:0:
281,192,143495,128,0,143804:0:0:0:0:
332,192,143804,128,0,143959:0:0:0:0:
76,192,143804,128,0,143959:0:0:0:0:
179,192,143959,128,0,144113:0:0:0:0:
435,192,143959,128,0,144113:0:0:0:0:
128,192,144113,128,0,144191:0:0:0:0:
384,192,144113,128,0,144191:0:0:0:0:
76,192,144191,128,0,144422:0:0:0:0:
332,192,144191,128,0,144422:0:0:0:0:
384,192,144422,1,0,0:0:0:0:
25,192,144422,128,0,144732:0:0:0:0:
281,192,144422,128,0,144732:0:0:0:0:
435,192,144577,1,0,0:0:0:0:
486,192,144732,1,0,0:0:0:0:
281,192,145041,1,0,0:0:0:0:
76,192,145041,128,0,145350:0:0:0:0:
332,192,145196,1,0,0:0:0:0:
384,192,145350,1,0,0:0:0:0:
486,192,145350,1,0,0:0:0:0:
128,192,145350,128,0,145660:0:0:0:0:
230,192,145350,1,0,0:0:0:0:
435,192,145505,1,0,0:0:0:0:
281,192,145505,1,0,0:0:0:0:
25,192,145505,1,0,0:0:0:0:
332,192,145660,1,0,0:0:0:0:
486,192,145660,1,0,0:0:0:0:
179,192,145660,128,0,145969:0:0:0:0:
76,192,145660,1,0,0:0:0:0:
128,192,145969,1,0,0:0:0:0:
486,192,145969,1,0,0:0:0:0:
384,192,145969,128,0,146278:0:0:0:0:
25,192,145969,128,0,146278:0:0:0:0:
179,192,146278,1,0,0:0:0:0:
435,192,146278,128,0,146587:0:0:0:0:
76,192,146278,128,0,146587:0:0:0:0:
281,192,146587,1,0,0:0:0:0:
486,192,146587,128,0,146897:0:0:0:0:
230,192,146587,128,0,146897:0:0:0:0:
76,192,146897,1,0,0:0:0:0:
435,192,146897,128,0,147206:0:0:0:0:
179,192,146897,128,0,147206:0:0:0:0:
25,192,147206,128,0,147361:0:0:0:0:
281,192,147206,128,0,147361:0:0:0:0:
76,192,147361,128,0,147515:0:0:0:0:
332,192,147361,128,0,147515:0:0:0:0:
128,192,147515,128,0,147670:0:0:0:0:
384,192,147515,128,0,147670:0:0:0:0:
179,192,147670,128,0,147825:0:0:0:0:
435,192,147670,128,0,147825:0:0:0:0:
486,192,147825,128,0,148134:0:0:0:0:
281,192,147825,1,0,0:0:0:0:
25,192,147825,1,0,0:0:0:0:
230,192,147825,128,0,148134:0:0:0:0:
128,192,148134,1,0,0:0:0:0:
384,192,148134,128,0,148443:0:0:0:0:
76,192,148134,128,0,148443:0:0:0:0:
332,192,148443,1,0,0:0:0:0:
281,192,148443,128,0,148752:0:0:0:0:
25,192,148443,128,0,148752:0:0:0:0:
486,192,148752,1,0,0:0:0:0:
179,192,148752,128,0,149062:0:0:0:0:
435,192,148752,128,0,149062:0:0:0:0:
384,192,149062,1,0,0:0:0:0:
332,192,149062,128,0,149371:0:0:0:0:
76,192,149062,128,0,149371:0:0:0:0:
281,192,149371,1,0,0:0:0:0:
230,192,149371,128,0,149680:0:0:0:0:
486,192,149371,128,0,149680:0:0:0:0:
179,192,149680,1,0,0:0:0:0:
332,192,149680,128,0,149835:0:0:0:0:
25,192,149680,128,0,149835:0:0:0:0:
76,192,149835,128,0,149990:0:0:0:0:
384,192,149835,128,0,149990:0:0:0:0:
128,192,149990,128,0,150144:0:0:0:0:
435,192,149990,128,0,150144:0:0:0:0:
179,192,150144,128,0,150299:0:0:0:0:
486,192,150144,128,0,150299:0:0:0:0:
332,192,150299,128,0,150917:0:0:0:0:
76,192,150299,128,0,150917:0:0:0:0:
384,192,150299,1,0,0:0:0:0:
281,192,150608,1,0,0:0:0:0:
25,192,150608,1,0,0:0:0:0:
486,192,150917,1,0,0:0:0:0:
128,192,150917,1,0,0:0:0:0:
179,192,151072,128,0,151227:0:0:0:0:
25,192,151227,1,0,0:0:0:0:
332,192,151227,128,0,151381:0:0:0:0:
76,192,151381,1,0,0:0:0:0:
384,192,151381,128,0,151536:0:0:0:0:
128,192,151536,1,0,0:0:0:0:
486,192,151536,128,0,151691:0:0:0:0:
435,192,151691,128,0,152000:0:0:0:0:
179,192,151845,1,0,0:0:0:0:
128,192,152000,1,0,0:0:0:0:
281,192,152000,128,0,152154:0:0:0:0:
76,192,152154,1,0,0:0:0:0:
486,192,152154,128,0,152309:0:0:0:0:
435,192,152309,128,0,152618:0:0:0:0:
25,192,152464,1,0,0:0:0:0:
76,192,152618,1,0,0:0:0:0:
230,192,152618,128,0,152773:0:0:0:0:
281,192,152773,1,0,0:0:0:0:
332,192,152773,1,0,0:0:0:0:
486,192,152773,128,0,153082:0:0:0:0:
128,192,152773,1,0,0:0:0:0:
230,192,153082,1,0,0:0:0:0:
76,192,153082,1,0,0:0:0:0:
384,192,153082,128,0,153392:0:0:0:0:
332,192,153392,1,0,0:0:0:0:
128,192,153392,1,0,0:0:0:0:
25,192,153546,128,0,153701:0:0:0:0:
486,192,153701,1,0,0:0:0:0:
76,192,153701,128,0,153855:0:0:0:0:
435,192,153855,1,0,0:0:0:0:
230,192,153855,128,0,154010:0:0:0:0:
384,192,154010,1,0,0:0:0:0:
179,192,154010,128,0,154165:0:0:0:0:
128,192,154165,128,0,154474:0:0:0:0:
281,192,154319,1,0,0:0:0:0:
332,192,154474,1,0,0:0:0:0:
25,192,154474,128,0,154629:0:0:0:0:
486,192,154629,1,0,0:0:0:0:
230,192,154629,1,0,0:0:0:0:
76,192,154629,128,0,154938:0:0:0:0:
384,192,154629,1,0,0:0:0:0:
435,192,154783,1,0,0:0:0:0:
179,192,154783,1,0,0:0:0:0:
25,192,154938,1,0,0:0:0:0:
384,192,154938,1,0,0:0:0:0:
128,192,154938,128,0,155247:0:0:0:0:
281,192,155247,1,0,0:0:0:0:
486,192,155247,1,0,0:0:0:0:
179,192,155247,1,0,0:0:0:0:
76,192,155402,1,0,0:0:0:0:
230,192,155402,1,0,0:0:0:0:
435,192,155402,1,0,0:0:0:0:
25,192,155557,1,0,0:0:0:0:
179,192,155557,1,0,0:0:0:0:
384,192,155557,1,0,0:0:0:0:
128,192,155866,128,0,156175:0:0:0:0:
25,192,155866,1,0,0:0:0:0:
384,192,155866,1,0,0:0:0:0:
486,192,155866,128,0,156175:0:0:0:0:
76,192,156175,128,0,156484:0:0:0:0:
435,192,156175,128,0,156484:0:0:0:0:
281,192,156175,1,0,0:0:0:0:
25,192,156484,128,0,156794:0:0:0:0:
281,192,156484,128,0,156794:0:0:0:0:
230,192,156484,1,0,0:0:0:0:
76,192,156794,128,0,157103:0:0:0:0:
332,192,156794,128,0,157103:0:0:0:0:
384,192,156794,1,0,0:0:0:0:
486,192,157103,128,0,157258:0:0:0:0:
230,192,157103,128,0,157258:0:0:0:0:
435,192,157258,128,0,157412:0:0:0:0:
179,192,157258,128,0,157412:0:0:0:0:
384,192,157412,128,0,157567:0:0:0:0:
128,192,157412,128,0,157567:0:0:0:0:
332,192,157567,128,0,157721:0:0:0:0:
76,192,157567,128,0,157721:0:0:0:0:
281,192,157721,128,0,158031:0:0:0:0:
25,192,157721,128,0,158031:0:0:0:0:
230,192,157721,1,0,0:0:0:0:
486,192,157721,1,0,0:0:0:0:
128,192,158031,128,0,158340:0:0:0:0:
435,192,158031,128,0,158340:0:0:0:0:
486,192,158340,128,0,158649:0:0:0:0:
384,192,158340,1,0,0:0:0:0:
230,192,158340,128,0,158649:0:0:0:0:
76,192,158649,128,0,158959:0:0:0:0:
25,192,158649,1,0,0:0:0:0:
332,192,158649,128,0,158959:0:0:0:0:
179,192,158959,128,0,159268:0:0:0:0:
435,192,158959,128,0,159268:0:0:0:0:
128,192,158959,1,0,0:0:0:0:
281,192,159268,128,0,159577:0:0:0:0:
25,192,159268,128,0,159577:0:0:0:0:
230,192,159268,1,0,0:0:0:0:
179,192,159577,128,0,159732:0:0:0:0:
486,192,159577,128,0,159732:0:0:0:0:
435,192,159732,128,0,159886:0:0:0:0:
128,192,159732,128,0,159886:0:0:0:0:
384,192,159886,128,0,160041:0:0:0:0:
76,192,159886,128,0,160041:0:0:0:0:
332,192,160041,128,0,160196:0:0:0:0:
25,192,160041,128,0,160196:0:0:0:0:
128,192,160196,1,0,0:0:0:0:
281,192,160196,1,0,0:0:0:0:
179,192,160196,128,0,160505:0:0:0:0:
435,192,160196,128,0,160505:0:0:0:0:
230,192,160505,128,0,160814:0:0:0:0:
25,192,160505,1,0,0:0:0:0:
486,192,160505,128,0,160814:0:0:0:0:
76,192,160814,128,0,161742:0:0:0:0:
332,192,160814,128,0,161742:0:0:0:0:
384,192,161124,128,0,161742:0:0:0:0:
128,192,161124,128,0,161742:0:0:0:0:
435,192,161433,128,0,161742:0:0:0:0:
179,192,161433,128,0,161742:0:0:0:0:
230,192,161742,128,0,162051:0:0:0:0:
486,192,161742,128,0,162051:0:0:0:0:
179,192,161897,128,0,162051:0:0:0:0:
435,192,161897,128,0,162051:0:0:0:0:
384,192,162051,1,0,0:0:0:0:
128,192,162051,1,0,0:0:0:0:
25,192,162361,128,0,162515:0:0:0:0:
281,192,162361,128,0,162515:0:0:0:0:
230,192,162515,128,0,162670:0:0:0:0:
486,192,162515,128,0,162670:0:0:0:0:
179,192,162670,128,0,162825:0:0:0:0:
435,192,162670,128,0,162825:0:0:0:0:
128,192,162825,128,0,162979:0:0:0:0:
384,192,162825,128,0,162979:0:0:0:0:
76,192,162979,128,0,163134:0:0:0:0:
332,192,162979,128,0,163134:0:0:0:0:
25,192,163134,128,0,163288:0:0:0:0:
281,192,163134,128,0,163288:0:0:0:0:
230,192,163288,128,0,163598:0:0:0:0:
486,192,163288,128,0,163598:0:0:0:0:
435,192,163598,128,0,163752:0:0:0:0:
179,192,163598,128,0,163752:0:0:0:0:
76,192,163752,128,0,163907:0:0:0:0:
332,192,163752,128,0,163907:0:0:0:0:
128,192,163907,128,0,163984:0:0:0:0:
384,192,163907,128,0,163984:0:0:0:0:
179,192,163984,128,0,164216:0:0:0:0:
435,192,163984,128,0,164216:0:0:0:0:
230,192,164216,128,0,164526:0:0:0:0:
486,192,164216,128,0,164526:0:0:0:0:
128,192,164216,1,0,0:0:0:0:
76,192,164371,1,0,0:0:0:0:
25,192,164526,1,0,0:0:0:0:
76,192,164680,1,0,0:0:0:0:
384,192,164680,1,0,0:0:0:0:
435,192,164835,128,0,165144:0:0:0:0:
230,192,164835,1,0,0:0:0:0:
179,192,164990,1,0,0:0:0:0:
128,192,165144,1,0,0:0:0:0:
25,192,165144,1,0,0:0:0:0:
384,192,165144,128,0,165453:0:0:0:0:
281,192,165144,1,0,0:0:0:0:
76,192,165299,1,0,0:0:0:0:
486,192,165299,1,0,0:0:0:0:
230,192,165299,1,0,0:0:0:0:
179,192,165453,1,0,0:0:0:0:
25,192,165453,1,0,0:0:0:0:
332,192,165453,128,0,165763:0:0:0:0:
435,192,165453,1,0,0:0:0:0:
76,192,165608,1,0,0:0:0:0:
384,192,165608,1,0,0:0:0:0:
128,192,165763,128,0,166072:0:0:0:0:
486,192,165763,128,0,166072:0:0:0:0:
281,192,165763,1,0,0:0:0:0:
25,192,165763,1,0,0:0:0:0:
332,192,166072,1,0,0:0:0:0:
435,192,166072,128,0,166381:0:0:0:0:
76,192,166072,128,0,166381:0:0:0:0:
230,192,166381,1,0,0:0:0:0:
281,192,166381,128,0,166691:0:0:0:0:
25,192,166381,128,0,166691:0:0:0:0:
332,192,166691,128,0,167000:0:0:0:0:
76,192,166691,128,0,167000:0:0:0:0:
435,192,166691,1,0,0:0:0:0:
230,192,167000,128,0,167154:0:0:0:0:
486,192,167000,128,0,167154:0:0:0:0:
179,192,167154,128,0,167309:0:0:0:0:
435,192,167154,128,0,167309:0:0:0:0:
128,192,167309,128,0,167464:0:0:0:0:
384,192,167309,128,0,167464:0:0:0:0:
76,192,167464,128,0,167618:0:0:0:0:
332,192,167464,128,0,167618:0:0:0:0:
25,192,167618,128,0,167928:0:0:0:0:
230,192,167618,1,0,0:0:0:0:
486,192,167618,1,0,0:0:0:0:
281,192,167618,128,0,167928:0:0:0:0:
384,192,167928,1,0,0:0:0:0:
435,192,167928,128,0,168237:0:0:0:0:
128,192,167928,128,0,168237:0:0:0:0:
486,192,168237,128,0,168546:0:0:0:0:
230,192,168237,128,0,168546:0:0:0:0:
179,192,168237,1,0,0:0:0:0:
332,192,168546,128,0,168855:0:0:0:0:
25,192,168546,1,0,0:0:0:0:
76,192,168546,128,0,168855:0:0:0:0:
435,192,168855,128,0,169165:0:0:0:0:
179,192,168855,128,0,169165:0:0:0:0:
128,192,168855,1,0,0:0:0:0:
281,192,169165,128,0,169474:0:0:0:0:
230,192,169165,1,0,0:0:0:0:
25,192,169165,128,0,169474:0:0:0:0:
486,192,169474,128,0,169629:0:0:0:0:
179,192,169474,128,0,169629:0:0:0:0:
332,192,169474,1,0,0:0:0:0:
128,192,169629,128,0,169783:0:0:0:0:
435,192,169629,128,0,169783:0:0:0:0:
76,192,169783,128,0,169938:0:0:0:0:
384,192,169783,128,0,169938:0:0:0:0:
25,192,169938,128,0,170093:0:0:0:0:
332,192,169938,128,0,170093:0:0:0:0:
435,192,170093,128,0,170711:0:0:0:0:
179,192,170093,128,0,170711:0:0:0:0:
128,192,170093,1,0,0:0:0:0:
486,192,170402,1,0,0:0:0:0:
230,192,170402,1,0,0:0:0:0:
384,192,170711,1,0,0:0:0:0:
25,192,170711,1,0,0:0:0:0:
332,192,170866,128,0,171020:0:0:0:0:
179,192,171020,128,0,171175:0:0:0:0:
486,192,171020,1,0,0:0:0:0:
128,192,171175,128,0,171330:0:0:0:0:
435,192,171175,1,0,0:0:0:0:
25,192,171330,128,0,171484:0:0:0:0:
384,192,171330,1,0,0:0:0:0:
76,192,171484,128,0,171794:0:0:0:0:
332,192,171639,1,0,0:0:0:0:
230,192,171794,128,0,171948:0:0:0:0:
384,192,171794,1,0,0:0:0:0:
25,192,171948,128,0,172103:0:0:0:0:
435,192,171948,1,0,0:0:0:0:
76,192,172103,128,0,172412:0:0:0:0:
486,192,172258,1,0,0:0:0:0:
281,192,172412,128,0,172567:0:0:0:0:
435,192,172412,1,0,0:0:0:0:
25,192,172567,128,0,172876:0:0:0:0:
384,192,172567,1,0,0:0:0:0:
230,192,172567,1,0,0:0:0:0:
179,192,172567,1,0,0:0:0:0:
435,192,172876,1,0,0:0:0:0:
281,192,172876,1,0,0:0:0:0:
128,192,172876,128,0,173185:0:0:0:0:
384,192,173185,1,0,0:0:0:0:
179,192,173185,1,0,0:0:0:0:
486,192,173340,128,0,173495:0:0:0:0:
435,192,173495,128,0,173649:0:0:0:0:
25,192,173495,1,0,0:0:0:0:
281,192,173649,128,0,173804:0:0:0:0:
76,192,173649,1,0,0:0:0:0:
332,192,173804,128,0,173959:0:0:0:0:
128,192,173804,1,0,0:0:0:0:
384,192,173959,128,0,174268:0:0:0:0:
230,192,174113,1,0,0:0:0:0:
486,192,174268,128,0,174422:0:0:0:0:
179,192,174268,1,0,0:0:0:0:
25,192,174422,1,0,0:0:0:0:
128,192,174422,1,0,0:0:0:0:
281,192,174422,1,0,0:0:0:0:
435,192,174422,128,0,174732:0:0:0:0:
332,192,174732,128,0,175041:0:0:0:0:
76,192,174732,1,0,0:0:0:0:
486,192,174732,1,0,0:0:0:0:
230,192,174732,1,0,0:0:0:0:
25,192,175041,1,0,0:0:0:0:
230,192,175041,1,0,0:0:0:0:
384,192,175041,1,0,0:0:0:0:
281,192,175196,1,0,0:0:0:0:
435,192,175196,1,0,0:0:0:0:
76,192,175196,1,0,0:0:0:0:
332,192,175350,1,0,0:0:0:0:
486,192,175350,1,0,0:0:0:0:
128,192,175350,1,0,0:0:0:0:
435,192,175660,128,0,175814:0:0:0:0:
486,192,175660,1,0,0:0:0:0:
128,192,175660,1,0,0:0:0:0:
76,192,175660,1,0,0:0:0:0:
384,192,175814,128,0,175969:0:0:0:0:
332,192,175969,128,0,176124:0:0:0:0:
281,192,176124,128,0,176278:0:0:0:0:
230,192,176278,128,0,176587:0:0:0:0:
179,192,176587,128,0,176897:0:0:0:0:
25,192,176897,128,0,177515:0:0:0:0:
486,192,177206,128,0,177515:0:0:0:0:
128,192,177515,1,0,0:0:0:0:
435,192,177515,1,0,0:0:0:0:
384,192,177515,1,0,0:0:0:0:
76,192,177515,1,0,0:0:0:0:
179,192,177825,128,0,177979:0:0:0:0:
230,192,177979,128,0,178134:0:0:0:0:
435,192,178134,128,0,178288:0:0:0:0:
384,192,178288,128,0,178443:0:0:0:0:
332,192,178443,128,0,178598:0:0:0:0:
281,192,178598,128,0,178752:0:0:0:0:
230,192,178752,128,0,179062:0:0:0:0:
179,192,179062,128,0,179371:0:0:0:0:
281,192,179371,1,0,0:0:0:0:
25,192,179371,128,0,179990:0:0:0:0:
281,192,179680,1,0,0:0:0:0:
486,192,179680,128,0,179990:0:0:0:0:
281,192,179835,1,0,0:0:0:0:
435,192,179990,1,0,0:0:0:0:
281,192,179990,1,0,0:0:0:0:
76,192,179990,1,0,0:0:0:0:
230,192,180299,1,0,0:0:0:0:
332,192,180299,128,0,180453:0:0:0:0:
384,192,180453,128,0,180608:0:0:0:0:
435,192,180608,128,0,180763:0:0:0:0:
384,192,180763,128,0,180917:0:0:0:0:
332,192,180917,128,0,181072:0:0:0:0:
281,192,181072,128,0,181227:0:0:0:0:
230,192,181227,128,0,181536:0:0:0:0:
179,192,181536,128,0,181845:0:0:0:0:
25,192,181845,128,0,182464:0:0:0:0:
486,192,182154,128,0,182464:0:0:0:0:
76,192,182464,1,0,0:0:0:0:
128,192,182464,1,0,0:0:0:0:
281,192,182464,1,0,0:0:0:0:
435,192,182464,1,0,0:0:0:0:
179,192,182618,128,0,182773:0:0:0:0:
230,192,182773,128,0,182928:0:0:0:0:
281,192,182928,128,0,183082:0:0:0:0:
486,192,183082,128,0,183185:0:0:0:0:
435,192,183185,128,0,183276:0:0:0:0:
384,192,183276,128,0,183392:0:0:0:0:
128,192,183392,1,0,0:0:0:0:
332,192,183392,128,0,183701:0:0:0:0:
179,192,183546,1,0,0:0:0:0:
230,192,183701,1,0,0:0:0:0:
76,192,183855,128,0,184010:0:0:0:0:
128,192,184010,128,0,184165:0:0:0:0:
179,192,184165,128,0,184319:0:0:0:0:
435,192,184319,128,0,184422:0:0:0:0:
230,192,184319,1,0,0:0:0:0:
384,192,184422,128,0,184513:0:0:0:0:
179,192,184474,1,0,0:0:0:0:
332,192,184513,128,0,184629:0:0:0:0:
486,192,184629,1,0,0:0:0:0:
128,192,184629,1,0,0:0:0:0:
25,192,184629,1,0,0:0:0:0:
281,192,184629,128,0,184783:0:0:0:0:
384,192,184783,128,0,184938:0:0:0:0:
179,192,184938,1,0,0:0:0:0:
332,192,184938,128,0,185041:0:0:0:0:
281,192,185041,128,0,185131:0:0:0:0:
128,192,185093,1,0,0:0:0:0:
230,192,185131,128,0,185557:0:0:0:0:
76,192,185247,1,0,0:0:0:0:
25,192,185247,1,0,0:0:0:0:
384,192,185557,1,0,0:0:0:0:
179,192,185557,1,0,0:0:0:0:
486,192,185557,1,0,0:0:0:0:
25,192,185557,1,0,0:0:0:0:
