osu file format v14

[General]
AudioFilename: audio.mp3
AudioLeadIn: 0
PreviewTime: -1
Countdown: 1
SampleSet: Soft
StackLeniency: 0.7
Mode: 0
LetterboxInBreaks: 0
WidescreenStoryboard: 0

[Editor]
DistanceSpacing: 2.6
BeatDivisor: 8
GridSize: 4
TimelineZoom: 1

[Metadata]
Title:Ross Capicchioni
TitleUnicode:Ross Capicchioni
Artist:Joyner Lucas
ArtistUnicode:Joyner Lucas
Creator:Yuuki Konno
Version:
Source:
Tags:
BeatmapID:1294417
BeatmapSetID:613535

[Difficulty]
HPDrainRate:5
CircleSize:4
OverallDifficulty:6
ApproachRate:9.3
SliderMultiplier:1.4
SliderTickRate:1

[Events]
//Background and Video events
//Break Periods
//Storyboard Layer 0 (Background)
//Storyboard Layer 1 (Fail)
//Storyboard Layer 2 (Pass)
//Storyboard Layer 3 (Foreground)
//Storyboard Sound Samples

[TimingPoints]
6437,705.882352941176,4,2,0,100,1,0
6437,-100,4,2,0,75,0,0
17731,-100,4,2,0,75,0,0
19142,-100,4,2,0,70,0,0
20554,-100,4,2,0,60,0,0
21966,-100,4,2,0,50,0,0
23378,-111.111111111111,4,2,0,40,0,0
24789,-125,4,2,0,40,0,0
26201,-133.333333333333,4,2,0,40,0,0
26907,-133.333333333333,4,2,0,30,0,0
27613,-133.333333333333,4,2,0,20,0,0
28319,-133.333333333333,4,2,0,10,0,0
29025,-80,4,2,0,40,0,0

[HitObjects]
256,84,6437,5,2,0:0:0:0:
116,184,7848,2,0,L|116:216,1,17.5,0|2,0:0|0:0,0:0:0:0:
364,212,9260,2,0,L|364:260,1,35,0|2,0:0|0:0,0:0:0:0:
320,56,10672,5,2,0:0:0:0:
136,240,11378,1,0,0:0:0:0:
164,228,11731,1,0,0:0:0:0:
200,212,12084,2,0,P|260:188|336:216,1,140,2|0,0:0|0:0,0:0:0:0:
324,24,13539,2,0,P|264:48|188:20,1,140,2|0,0:0|0:0,0:0:0:0:
112,208,14907,2,0,P|136:148|108:72,1,140,2|0,0:0|0:0,0:0:0:0:
400,208,16319,2,0,P|376:148|404:72,1,140,2|0,0:0|0:0,0:0:0:0:
504,172,17378,5,0,0:0:0:0:
447,14,17731,2,0,P|363:10|315:58,1,140,2|0,0:0|0:0,0:0:0:0:
88,196,19142,2,0,P|172:200|220:152,1,140,2|0,0:0|0:0,0:0:0:0:
476,76,20554,2,0,L|360:180,1,140,2|0,0:0|0:0,0:0:0:0:
107,259,21966,2,0,L|223:155,1,140,2|0,0:0|0:0,0:0:0:0:
320,76,23025,5,0,0:0:0:0:
296,184,23378,2,0,L|260:316,1,125.999996154785,2|0,0:0|0:0,0:0:0:0:
140,332,24436,1,0,0:0:0:0:
112,224,24789,2,0,L|144:96,1,112,2|0,0:0|0:0,0:0:0:0:
236,56,25848,1,0,0:0:0:0:
280,152,26201,6,0,L|268:220,1,52.5000020027161,2|0,0:0|0:0,0:0:0:0:
344,280,26907,2,0,L|356:212,1,52.5000020027161,2|0,0:0|0:0,0:0:0:0:
436,164,27613,2,0,L|424:232,1,52.5000020027161,2|0,0:0|0:0,0:0:0:0:
500,292,28319,2,0,L|512:224,1,52.5000020027161,2|0,0:0|0:0,0:0:0:0:
472,68,29025,6,0,P|400:100|316:40,1,175,0|8,0:0|0:0,0:0:0:0:
240,28,29907,1,0,0:0:0:0:
260,112,30084,2,0,L|280:144,2,21.875,8|0|0,0:0|0:0|0:0,0:0:0:0:
176,92,30436,2,0,P|136:120|172:228,1,175,8|0,0:0|0:0,0:0:0:0:
480,208,31848,6,0,P|440:268|340:252,1,175,0|8,0:0|0:0,0:0:0:0:
396,184,32731,1,0,0:0:0:0:
308,180,32907,2,0,L|272:180,2,21.875,8|0|0,0:0|0:0|0:0,0:0:0:0:
400,92,33260,1,8,0:0:0:0:
176,92,33613,1,0,0:0:0:0:
208,172,33789,1,0,0:0:0:0:
88,104,33966,2,0,P|44:112|16:160,1,87.5,2|0,0:0|0:0,0:0:0:0:
107,279,34672,6,0,P|115:215|219:175,1,175,0|8,0:0|0:0,0:0:0:0:
276,228,35554,1,0,0:0:0:0:
200,272,35731,2,0,L|180:240,2,21.875,8|0|0,0:0|0:0|0:0,0:0:0:0:
276,316,36084,2,0,P|336:288|344:176,1,175,8|0,0:0|0:0,0:0:0:0:
136,48,37495,6,0,P|76:76|68:188,1,175,0|8,0:0|0:0,0:0:0:0:
140,136,38378,1,0,0:0:0:0:
136,224,38554,2,0,L|148:248,2,21.875,8|0|0,0:0|0:0|0:0,0:0:0:0:
228,136,38907,1,8,0:0:0:0:
359,229,39260,5,0,0:0:0:0:
307,297,39436,1,0,0:0:0:0:
307,161,39613,2,0,P|267:137|219:137,1,87.5,2|0,0:0|0:0,0:0:0:0:
221,292,40319,6,0,P|317:288|361:216,1,175,0|8,0:0|0:0,0:0:0:0:
272,220,41201,1,0,0:0:0:0:
328,152,41378,2,0,L|344:128,2,21.875,8|0|0,0:0|0:0|0:0,0:0:0:0:
240,136,41731,2,0,P|184:212|220:292,1,175,8|0,0:0|0:0,0:0:0:0:
424,168,43142,6,0,P|480:92|444:12,1,175,0|8,0:0|0:0,0:0:0:0:
360,4,44025,1,0,0:0:0:0:
376,100,44201,2,0,L|408:76,2,21.875,8|0|0,0:0|0:0|0:0,0:0:0:0:
288,64,44554,1,8,0:0:0:0:
208,240,44907,1,0,0:0:0:0:
140,172,45084,1,0,0:0:0:0:
140,316,45260,2,0,P|184:344|232:336,1,87.5,2|0,0:0|0:0,0:0:0:0:
352,180,45966,6,0,P|400:216|392:328,1,175,0|8,0:0|0:0,0:0:0:0:
308,268,46848,1,0,0:0:0:0:
228,336,47025,2,0,L|200:328,2,21.875,8|0|0,0:0|0:0|0:0,0:0:0:0:
210,241,47378,2,0,P|230:205|362:185,1,175,8|0,0:0|0:0,0:0:0:0:
272,40,48789,6,0,P|252:76|120:96,1,175,0|8,3:0|3:0,3:0:0:0:
60,180,49672,1,0,0:0:0:0:
160,208,49848,2,0,L|196:200,2,21.875,8|0|0,0:0|0:0|0:0,0:0:0:0:
84,280,50201,1,8,0:0:0:0:
288,224,50554,1,0,0:0:0:0:
236,132,50731,1,0,0:0:0:0:
220,300,50907,1,2,0:0:0:0:
164,212,51084,2,0,L|152:192,2,21.875,8|0|0,0:0|0:0|0:0,0:0:0:0:
64,176,51436,1,8,0:0:0:0:
84,280,51613,6,0,P|112:316|160:328,1,87.5,8|0,0:0|0:0,0:0:0:0:
236,132,52319,5,0,0:0:0:0:
164,212,52495,2,0,P|128:224|104:220,2,43.75,8|0|0,0:0|0:0|0:0,0:0:0:0:
120,116,53025,2,0,P|76:160|48:80,1,175,8|0,0:0|0:0,0:0:0:0:
360,136,54436,6,0,P|404:92|432:172,1,175
360,240,55319,1,0,0:0:0:0:
284,168,55495,2,0,L|260:144,2,21.875,8|0|0,0:0|0:0|0:0,0:0:0:0:
248,268,55848,1,8,0:0:0:0:
268,60,56201,1,0,0:0:0:0:
188,132,56378,1,0,0:0:0:0:
364,96,56554,2,0,B|392:104|392:104|400:124|400:124|436:128,1,87.5,2|0,0:0|0:0,0:0:0:0:
248,268,57260,6,0,P|184:284|88:220,1,175,0|8,0:0|0:0,0:0:0:0:
184,176,58142,1,0,0:0:0:0:
88,132,58319,2,0,L|68:104,2,21.875,8|0|0,0:0|0:0|0:0,0:0:0:0:
180,76,58672,2,0,P|232:84|284:192,1,175,8|0,0:0|0:0,0:0:0:0:
392,292,60084,6,0,P|340:284|288:176,1,175,0|8,0:0|0:0,0:0:0:0:
380,140,60966,1,0,0:0:0:0:
284,100,61142,2,0,L|252:92,2,21.875,8|0|0,0:0|0:0|0:0,0:0:0:0:
368,32,61495,1,8,0:0:0:0:
172,108,61848,1,0,0:0:0:0:
252,180,62025,1,0,0:0:0:0:
76,144,62201,2,0,B|48:152|48:152|40:172|40:172|4:176,1,87.5,2|0,0:0|0:0,0:0:0:0:
193,312,62907,6,0,P|259:263|248:174,1,175,0|8,0:0|0:0,0:0:0:0:
140,192,63789,1,2,0:0:0:0:
184,88,63966,2,0,L|196:48,2,21.875,8|0|0,0:0|0:0|0:0,0:0:0:0:
72,108,64319,1,8,0:0:0:0:
28,212,64495,1,2,0:0:0:0:
76,316,64672,1,8,0:0:0:0:
184,356,64848,1,2,0:0:0:0:
288,308,65025,6,0,P|320:268|288:152,1,175,8|0,0:0|0:0,0:0:0:0:
208,232,65907,2,0,P|188:260|184:272,1,43.75,8|0,0:0|0:0,0:0:0:0:
108,184,66260,1,0,0:0:0:0:
200,116,66436,1,8,0:0:0:0:
296,180,66613,1,0,0:0:0:0:
208,232,66789,2,0,L|192:256,2,21.875,8|0|0,0:0|0:0|0:0,0:0:0:0:
300,296,67142,1,8,0:0:0:0:
464,136,67495,1,0,0:0:0:0:
412,236,67672,1,0,0:0:0:0:
392,64,67848,2,0,P|360:48|304:64,1,87.5,2|0,0:0|0:0,0:0:0:0:
