osu file format v14

[General]
AudioFilename: audio.mp3
AudioLeadIn: 0
PreviewTime: 154270
Countdown: 0
SampleSet: None
StackLeniency: 0.2
Mode: 0
LetterboxInBreaks: 0
WidescreenStoryboard: 1

[Editor]
Bookmarks: 95545,173395,193795,299395,311095,317395,346195,365395,384595
DistanceSpacing: 2.9
BeatDivisor: 16
GridSize: 4
TimelineZoom: 1.1

[Metadata]
Title:I'm Not Racist
TitleUnicode:I'm Not Racist
Artist:Joyner Lucas
ArtistUnicode:Joyner Lucas
Creator:LukerMaster
Version:Understanding
Source:
Tags:rap usa america
BeatmapID:2071985
BeatmapSetID:990599

[Difficulty]
HPDrainRate:5
CircleSize:4.5
OverallDifficulty:8.5
ApproachRate:9.5
SliderMultiplier:3.59999990463257
SliderTickRate:1

[Events]
//Background and Video events
0,0,"inrbg.jpg",0,0
//Break Periods
2,173745,193420
2,365745,384070
//Storyboard Layer 0 (Background)
//Storyboard Layer 1 (Fail)
//Storyboard Layer 2 (Pass)
//Storyboard Layer 3 (Foreground)
//Storyboard Sound Samples

[TimingPoints]
595,1200,4,2,1,45,1,0
595,-200,4,2,1,45,0,0
3145,-166.666666666667,4,2,1,45,0,0
4345,-111.111111111111,4,2,1,45,0,0
5170,-166.666666666667,4,2,1,45,0,0
8095,-111.111111111111,4,2,1,45,0,0
14695,-83.3333333333333,4,2,1,45,0,0
17170,-62.5,4,2,1,45,0,0
18520,-50,4,2,1,45,0,0
18820,-41.6666666666667,4,2,1,45,0,0
21145,-111.111111111111,4,2,1,45,0,0
22195,-166.666666666667,4,2,1,45,0,0
24520,-111.111111111111,4,2,1,45,0,0
25045,-83.3333333333333,4,2,1,45,0,0
25870,-62.5,4,2,1,45,0,0
26320,-90.9090909090909,4,2,1,45,0,0
27445,-142.857142857143,4,2,1,45,0,0
27670,-76.9230769230769,4,2,1,45,0,0
28270,-52.6315789473684,4,2,1,45,0,0
28495,-83.3333333333333,4,2,1,45,0,0
28795,-166.666666666667,4,2,1,45,0,0
29170,-200,4,2,1,45,0,0
30370,-200,4,2,1,30,0,0
32320,-100,4,2,1,45,0,0
34720,-83.3333333333333,4,2,1,45,0,0
41470,-83.3333333333333,4,2,1,60,0,0
42445,-66.6666666666667,4,2,1,70,0,0
42745,-55.5555555555556,4,2,1,75,0,0
43345,-45.4545454545455,4,2,1,80,0,0
45670,-35.7142857142857,4,2,1,90,0,0
46345,-35.7142857142857,4,2,1,90,0,0
48745,-32.258064516129,4,2,1,100,0,0
49195,-27.7777777777778,4,2,1,100,0,0
54595,-71.4285714285714,4,2,1,50,0,0
57970,-100,4,2,1,100,0,0
58120,-100,4,2,1,5,0,0
59245,-133.333333333333,4,2,1,40,0,0
62395,-111.111111111111,4,2,1,40,0,0
64720,-71.4285714285714,4,2,1,40,0,0
65170,-52.6315789473684,4,2,1,60,0,0
65770,-41.6666666666667,4,2,1,75,0,0
66670,-29.4117647058824,4,2,1,100,0,0
67345,-25,4,2,1,100,0,0
69370,-125,4,2,1,40,0,0
73270,-100,4,2,1,50,0,0
75670,-40,4,2,1,50,0,0
75970,-66.6666666666667,4,2,1,50,0,0
77395,-133.333333333333,4,2,1,50,0,0
79045,-100,4,2,1,50,0,0
86545,-133.333333333333,4,2,1,50,0,0
89395,-83.3333333333333,4,2,1,50,0,0
96370,-55.5555555555556,4,2,1,50,0,0
102595,-41.6666666666667,4,2,1,70,0,0
104620,-31.25,4,2,1,85,0,0
105745,-27.7777777777778,4,2,1,100,0,0
107170,-50,4,2,1,70,0,0
108595,-41.6666666666667,4,2,1,70,0,0
113545,-38.4615384615385,4,2,1,70,0,0
113695,-35.7142857142857,4,2,1,70,0,0
115795,-33.3333333333333,4,2,1,85,0,0
118645,-25,4,2,1,85,0,0
118945,-28.5714285714286,4,2,1,85,0,0
119095,-33.3333333333333,4,2,1,85,0,0
119245,-40,4,2,1,85,0,0
121795,-33.3333333333333,4,2,1,85,0,0
122770,-40,4,2,1,85,0,0
122995,-31.25,4,2,1,85,0,0
124345,-27.7777777777778,4,2,1,85,0,0
124645,-25,4,2,1,85,0,0
124945,-28.5714285714286,4,2,1,70,0,0
127045,-71.4285714285714,4,2,1,70,0,0
129745,-55.5555555555556,4,2,1,70,0,0
130645,-45.4545454545455,4,2,1,70,0,0
131245,-66.6666666666667,4,2,1,70,0,0
133345,-40,4,2,1,85,0,0
133795,-28.5714285714286,4,2,1,85,0,0
134770,-28.5714285714286,4,2,1,100,0,0
136495,-125,4,2,1,70,0,0
137770,-83.3333333333333,4,2,1,70,0,0
140095,-83.3333333333333,4,2,1,70,0,0
140470,-66.6666666666667,4,2,1,70,0,0
141145,-71.4285714285714,4,2,1,70,0,0
142645,-58.8235294117647,4,2,1,70,0,0
143995,-40,4,2,1,70,0,0
145795,-100,4,2,1,60,0,0
146845,-66.6666666666667,4,2,1,60,0,0
147595,-100,4,2,1,60,0,0
149320,-50,4,2,1,60,0,0
149995,-66.6666666666667,4,2,1,60,0,0
152320,-55.5555555555556,4,2,1,60,0,0
153295,-45.4545454545455,4,2,1,60,0,0
154045,-33.3333333333333,4,2,1,60,0,0
154570,-25,4,2,1,60,0,0
155245,-25,4,2,1,100,0,0
158545,-33.3333333333333,4,2,1,100,0,0
160120,-25,4,2,1,100,0,0
160720,-45.4545454545455,4,2,1,100,0,0
160795,-50,4,2,1,100,0,0
160945,-40,4,2,1,100,0,0
161320,-28.5714285714286,4,2,1,100,0,0
161845,-40,4,2,1,100,0,0
162295,-50,4,2,1,100,0,0
163345,-20,4,2,1,100,0,0
164095,-50,4,2,1,70,0,0
165895,-100,4,2,1,70,0,0
167170,-83.3333333333333,4,2,1,70,0,0
168370,-125,4,2,1,70,0,0
172870,-166.666666666667,4,2,1,70,0,0
173170,-166.666666666667,4,2,1,5,0,0
173395,-166.666666666667,4,2,1,40,0,0
193945,-83.3333333333334,4,2,1,70,0,0
196120,-58.8235294117647,4,2,1,70,0,0
196420,-47.6190476190476,4,2,1,70,0,0
198445,-66.6666666666667,4,2,1,70,0,0
200920,-55.5555555555556,4,2,1,70,0,0
201745,-45.4545454545455,4,2,1,70,0,0
203170,-66.6666666666667,4,2,1,70,0,0
206845,-55.5555555555556,4,2,1,70,0,0
207370,-62.5,4,2,1,70,0,0
208420,-55.5555555555556,4,2,1,70,0,0
208645,-58.8235294117647,4,2,1,70,0,0
209245,-47.6190476190476,4,2,1,70,0,0
209545,-55.5555555555556,4,2,1,70,0,0
211645,-45.4545454545455,4,2,1,70,0,0
213145,-125,4,2,1,70,0,0
214645,-83.3333333333333,4,2,1,70,0,0
219520,-100,4,2,1,70,0,0
220645,-66.6666666666667,4,2,1,70,0,0
222970,-58.8235294117647,4,2,1,70,0,0
225745,-52.6315789473684,4,2,1,70,0,0
228145,-43.4782608695652,4,2,1,70,0,0
228445,-55.5555555555556,4,2,1,70,0,0
229345,-38.4615384615385,4,2,1,70,0,0
229645,-29.4117647058824,4,2,1,70,0,0
230845,-29.4117647058824,4,2,1,100,0,0
233695,-100,4,2,1,70,0,0
235795,-83.3333333333333,4,2,1,70,0,0
236395,-55.5555555555556,4,2,1,70,0,0
237220,-62.5,4,2,1,70,0,0
238495,-55.5555555555556,4,2,1,70,0,0
239920,-47.6190476190476,4,2,1,70,0,0
240745,-38.4615384615385,4,2,1,70,0,0
241045,-31.25,4,2,1,90,0,0
243745,-38.4615384615385,4,2,1,90,0,0
243895,-50,4,2,1,90,0,0
244045,-38.4615384615385,4,2,1,90,0,0
244195,-29.4117647058824,4,2,1,90,0,0
245170,-32.2580645161291,4,2,1,90,0,0
245395,-33.3333333333334,4,2,1,90,0,0
247420,-28.5714285714287,4,2,1,90,0,0
249295,-38.4615384615388,4,2,1,90,0,0
250195,-38.4615384615388,4,2,1,20,0,0
250345,-38.4615384615388,4,2,1,35,0,0
250495,-38.4615384615388,4,2,1,50,0,0
250870,-76.9230769230781,4,2,1,50,0,0
251845,-76.9230769230781,4,2,1,70,0,0
254995,-62.5000000000008,4,2,1,70,0,0
255820,-45.4545454545459,4,2,1,70,0,0
257320,-66.6666666666676,4,2,1,70,0,0
260545,-142.857142857147,4,2,1,50,0,0
260770,-90.9090909090926,4,2,1,50,0,0
262420,-90.9090909090926,4,2,1,70,0,0
263320,-76.9230769230781,4,2,1,70,0,0
263620,-58.8235294117654,4,2,1,70,0,0
264895,-50.0000000000005,4,2,1,70,0,0
265120,-41.666666666667,4,2,1,70,0,0
266695,-41.666666666667,4,2,1,85,0,0
268420,-33.3333333333336,4,2,1,85,0,0
270820,-50.0000000000005,4,2,1,85,0,0
271495,-33.3333333333336,4,2,1,85,0,0
271645,-28.5714285714287,4,2,1,85,0,0
271945,-40.0000000000003,4,2,1,85,0,0
272095,-50.0000000000005,4,2,1,85,0,0
272245,-33.3333333333336,4,2,1,85,0,0
272545,-28.5714285714287,4,2,1,85,0,0
272695,-25.0000000000001,4,2,1,85,0,0
273070,-33.3333333333336,4,2,1,85,0,0
275320,-50.0000000000005,4,2,1,85,0,0
275620,-33.3333333333336,4,2,1,85,0,0
276295,-50.0000000000005,4,2,1,85,0,0
276445,-40.0000000000003,4,2,1,85,0,0
276595,-27.7777777777779,4,2,1,85,0,0
276895,-33.3333333333336,4,2,1,85,0,0
277045,-50.0000000000005,4,2,1,85,0,0
277420,-33.3333333333336,4,2,1,85,0,0
278320,-25.0000000000001,4,2,1,85,0,0
279895,-66.6666666666667,4,2,1,50,0,0
283645,-50,4,2,1,70,0,0
284245,-62.5,4,2,1,70,0,0
284545,-41.6666666666667,4,2,1,70,0,0
284845,-62.5,4,2,1,70,0,0
286045,-50,4,2,1,70,0,0
287170,-41.6666666666667,4,2,1,70,0,0
287845,-33.3333333333333,4,2,1,70,0,0
289045,-100,4,2,1,70,0,0
290470,-76.9230769230769,4,2,1,70,0,0
291745,-62.5,4,2,1,70,0,0
292270,-55.5555555555556,4,2,1,70,0,0
292945,-45.4545454545455,4,2,1,70,0,0
293395,-38.4615384615385,4,2,1,70,0,0
294145,-43.4782608695652,4,2,1,70,0,0
295345,-35.7142857142857,4,2,1,70,0,0
295870,-33.3333333333333,4,2,1,80,0,0
297220,-50,4,2,1,80,0,0
297370,-66.6666666666667,4,2,1,80,0,0
297520,-45.4545454545455,4,2,1,80,0,0
297670,-45.4545454545455,4,2,1,85,0,0
298120,-38.4615384615385,4,2,1,85,0,0
298270,-25,4,2,1,100,0,0
298570,-33.3333333333333,4,2,1,100,0,0
300145,-50,4,2,1,100,0,0
300245,-50,4,2,1,100,0,0
300595,-33.3333333333333,4,2,1,100,0,0
303145,-30.3030303030303,4,2,1,100,0,0
303595,-66.6666666666667,4,2,1,100,0,0
303745,-31.25,4,2,1,100,0,0
304720,-40,4,2,1,100,0,0
304870,-31.25,4,2,1,100,0,0
305020,-38.4615384615385,4,2,1,100,0,0
306820,-50,4,2,1,100,0,0
306970,-43.4782608695652,4,2,1,100,0,0
307795,-31.25,4,2,1,100,0,0
308995,-27.7777777777778,4,2,1,100,0,0
310195,-31.25,4,2,1,100,0,0
310495,-27.7777777777778,4,2,1,100,0,0
310795,-31.25,4,2,1,100,0,0
311095,-38.4615384615385,4,2,1,100,0,0
311245,-55.5555555555556,4,2,1,100,0,0
311395,-27.027027027027,4,2,1,100,0,0
311845,-30.3030303030303,4,2,1,100,0,0
313270,-41.6666666666667,4,2,1,100,0,0
313720,-29.4117647058824,4,2,1,100,0,0
316795,-29.4117647058824,4,2,1,90,0,0
317320,-29.4117647058824,4,2,1,85,0,0
318970,-50.0000000000002,4,2,1,55,0,0
319420,-62.5000000000004,4,2,1,55,0,0
319795,-83.333333333334,4,2,1,55,0,0
320395,-71.4285714285719,4,2,1,60,0,0
321970,-58.8235294117651,4,2,1,60,0,0
322195,-41.6666666666668,4,2,1,60,0,0
322645,-58.8235294117651,4,2,1,70,0,0
323920,-35.7142857142858,4,2,1,70,0,0
324445,-52.6315789473687,4,2,1,70,0,0
325495,-43.4782608695654,4,2,1,70,0,0
325720,-52.6315789473687,4,2,1,70,0,0
326545,-45.4545454545457,4,2,1,65,0,0
326845,-40.0000000000002,4,2,1,60,0,0
327070,-58.8235294117651,4,2,1,70,0,0
330970,-76.9230769230775,4,2,1,70,0,0
331270,-50.0000000000002,4,2,1,70,0,0
333370,-40.0000000000002,4,2,1,70,0,0
334645,-62.5000000000004,4,2,1,70,0,0
334795,-47.6190476190478,4,2,1,70,0,0
335320,-41.6666666666668,4,2,1,70,0,0
337045,-100.000000000001,4,2,1,70,0,0
338320,-71.4285714285719,4,2,1,70,0,0
340195,-55.5555555555559,4,2,1,70,0,0
340795,-47.6190476190478,4,2,1,70,0,0
343945,-40.0000000000002,4,2,1,70,0,0
344995,-40.0000000000002,4,2,1,90,0,0
345670,-33.3333333333334,4,2,1,90,0,0
346870,-66.6666666666667,4,2,1,65,0,0
348145,-83.3333333333333,4,2,1,65,0,0
349645,-47.6190476190476,4,2,1,65,0,0
349945,-83.3333333333333,4,2,1,65,0,0
350770,-100,4,2,1,65,0,0
358870,-83.3333333333333,4,2,1,65,0,0
362845,-55.5555555555556,4,2,1,65,0,0
365170,-76.9230769230769,4,2,1,65,0,0
365395,-76.9230769230769,4,2,1,25,0,0
365545,-76.9230769230769,4,2,1,10,0,0

[Colours]
Combo1 : 191,10,48
Combo2 : 0,40,104
Combo3 : 255,255,255

[HitObjects]
408,248,1795,5,0,0:0:0:0:
396,256,1870,2,0,L|360:264,1,33.7499991059303
312,216,2170,2,0,L|272:212,1,33.7499991059303
228,272,2620,2,0,P|240:280|260:284,1,33.7499991059303
200,192,2995,5,0,0:0:0:0:
152,300,3145,2,0,L|160:336,1,26.9999984607697
88,136,3445,1,0,0:0:0:0:
60,208,3595,1,0,0:0:0:0:
164,120,3745,2,0,L|180:156,1,26.9999984607697
224,288,4045,2,0,L|232:260,1,26.9999984607697
256,132,4345,6,0,B|284:128|284:128|264:168,1,60.7499965367319
236,248,4645,1,0,0:0:0:0:
180,140,4795,1,0,0:0:0:0:
344,164,4945,2,0,L|392:160,1,40.4999976911546
400,180,5245,6,0,L|432:184,1,26.9999984607697
456,232,6445,2,0,P|432:224|412:220,1,40.4999976911546
344,256,6895,2,0,L|280:260,1,53.9999969215394
132,276,7495,1,0,0:0:0:0:
212,268,7645,1,0,0:0:0:0:
160,168,7795,2,0,L|164:200,1,26.9999984607697
224,280,8095,2,0,L|232:220,2,60.7499965367319
144,288,8695,5,0,0:0:0:0:
400,324,8845,1,0,0:0:0:0:
316,348,8995,1,0,0:0:0:0:
336,268,9145,2,0,L|344:228,1,40.4999976911546
392,144,9445,2,0,L|408:188,1,40.4999976911546
324,96,9745,1,0,0:0:0:0:
248,148,9895,1,0,0:0:0:0:
152,80,10045,2,0,P|136:108|132:124,1,40.4999976911546
96,72,11170,6,0,L|108:140,1,60.7499965367319
103,155,11545,1,0,0:0:0:0:
280,116,11620,1,0,0:0:0:0:
300,124,11695,2,0,L|288:188,1,60.7499965367319
232,232,11995,2,0,P|232:256|240:280,1,40.4999976911546
364,172,12220,1,0,0:0:0:0:
380,160,12295,2,0,L|444:152,1,60.7499965367319
392,140,13045,6,0,L|448:144,1,40.4999976911546
396,264,13420,1,0,0:0:0:0:
336,88,13570,1,0,0:0:0:0:
304,212,13720,2,0,L|256:224,1,40.4999976911546
116,136,14020,5,0,0:0:0:0:
204,76,14170,2,0,L|248:80,1,40.4999976911546
108,148,14470,2,0,L|56:152,1,40.4999976911546
48,168,14695,2,0,L|112:160,1,53.9999969215394
168,200,15295,1,0,0:0:0:0:
180,212,15370,6,0,L|244:220,1,53.9999969215394
353,139,15670,1,0,0:0:0:0:
302,274,15820,1,0,0:0:0:0:
264,134,15970,2,0,L|248:78,1,53.9999969215394
376,225,16270,2,0,L|436:224,1,53.9999969215394,2|0,0:0|0:0,0:0:0:0:
492,272,16570,1,0,0:0:0:0:
344,312,16720,1,0,0:0:0:0:
380,152,16870,1,0,0:0:0:0:
424,232,17020,6,0,L|416:272,1,26.9999984607697
412,216,17170,2,0,L|416:288,1,71.9999980926514
400,204,17470,5,0,0:0:0:0:
248,232,17620,1,0,0:0:0:0:
432,128,17770,2,0,P|468:136|520:136,1,71.9999980926514
256,76,18070,2,0,P|220:68|168:68,1,71.9999980926514
416,56,18370,1,0,0:0:0:0:
208,144,18520,6,0,P|152:144|112:128,1,89.9999976158143
344,108,18820,2,0,P|364:144|312:128,1,107.999993843079
336,24,19195,1,0,0:0:0:0:
304,224,19345,2,0,P|304:272|320:296,1,53.9999969215394
316,288,19645,5,4,0:0:0:0:
324,296,20995,1,2,0:0:0:0:
316,308,21145,6,0,L|272:312,1,40.4999976911546
152,292,21595,1,0,0:0:0:0:
144,284,22195,2,0,P|136:264|136:248,1,26.9999984607697
200,232,22420,2,0,L|212:196,1,26.9999984607697
176,140,22645,1,0,0:0:0:0:
104,156,22795,1,0,0:0:0:0:
124,84,22945,1,0,0:0:0:0:
184,136,23095,2,0,L|216:132,1,26.9999984607697
264,80,23395,5,2,0:0:0:0:
280,88,23470,1,0,0:0:0:0:
296,96,23695,2,0,L|328:92,1,26.9999984607697
368,152,23920,2,0,L|400:148,1,26.9999984607697
328,252,24445,5,0,0:0:0:0:
308,264,24520,2,0,L|260:268,1,40.4999976911546
196,264,24745,2,0,L|204:320,1,40.4999976911546
120,260,25045,2,0,L|128:316,1,53.9999969215394
44,256,25270,1,0,0:0:0:0:
136,124,25420,1,0,0:0:0:0:
132,328,25570,6,0,L|68:336,1,53.9999969215394
276,240,25795,5,2,0:0:0:0:
328,288,25870,2,0,L|416:296,1,71.9999980926514
468,308,26095,2,0,P|456:260|464:220,1,71.9999980926514
480,168,26320,2,0,P|484:136|480:116,1,49.500000199318
472,104,26770,5,0,0:0:0:0:
320,128,26920,2,0,L|268:120,1,49.500000199318
340,56,27145,2,0,L|412:40,1,74.2500002989769
312,144,27445,6,0,L|268:152,1,31.4999982042313
224,200,27670,2,0,L|160:176,1,58.499995772362
268,73,27970,1,0,0:0:0:0:
172,22,28120,2,0,L|135:24,1,29.249997886181,0|2,0:0|0:0,0:0:0:0:
103,95,28270,6,0,L|91:187,1,85.4999954519273
44,240,28495,2,0,L|56:304,1,53.9999969215394
144,364,28795,2,0,L|180:352,1,26.9999984607697
212,296,29170,6,0,L|240:300,1,22.4999994039536
248,312,30370,2,0,L|272:308,1,22.4999994039536
288,316,32245,5,0,0:0:0:0:
304,304,32320,2,0,L|316:252,1,44.9999988079071
252,232,32545,2,0,P|252:208|244:176,1,44.9999988079071
216,120,32845,6,0,L|304:132,1,67.4999982118607
352,160,33145,1,0,0:0:0:0:
368,156,33295,2,0,L|416:148,1,44.9999988079071
472,200,33520,2,0,L|460:288,1,67.4999982118607
468,280,34270,5,0,0:0:0:0:
448,288,34345,1,0,0:0:0:0:
428,296,34420,2,0,L|380:292,1,44.9999988079071
268,324,34720,2,0,P|296:320|328:328,1,53.9999969215394
196,348,35020,2,0,L|188:284,1,53.9999969215394
176,280,35245,2,0,L|168:352,1,53.9999969215394
116,228,35545,5,0,0:0:0:0:
268,200,35695,1,0,0:0:0:0:
284,212,35770,1,0,0:0:0:0:
320,328,35920,2,0,L|332:272,1,53.9999969215394
424,188,36820,5,0,0:0:0:0:
416,180,36895,2,0,P|420:136|428:120,1,53.9999969215394
368,28,37195,2,0,P|364:72|356:88,1,53.9999969215394
352,92,37420,2,0,L|272:80,1,80.9999953823091
152,120,37795,2,0,L|220:108,1,53.9999969215394
320,168,38095,1,0,0:0:0:0:
128,212,38245,1,0,0:0:0:0:
288,244,38395,2,0,L|360:252,1,53.9999969215394
104,208,38695,5,0,0:0:0:0:
344,160,38845,1,0,0:0:0:0:
356,156,40045,2,0,P|360:128|356:96,1,53.9999969215394
228,64,40345,2,0,P|272:80|292:80,1,53.9999969215394
376,160,40645,1,0,0:0:0:0:
396,164,40720,1,0,0:0:0:0:
288,212,40870,2,0,L|232:216,1,53.9999969215394
224,224,41470,6,0,L|156:212,1,53.9999969215394
112,164,41770,1,0,0:0:0:0:
240,304,41920,2,0,L|300:296,1,53.9999969215394
168,288,42145,1,0,0:0:0:0:
344,228,42295,1,0,0:0:0:0:
156,296,42445,2,0,L|80:288,1,67.5000007867814
56,216,42745,2,0,P|48:184|64:120,1,80.9999953823091
116,84,42970,2,0,L|168:76,1,40.4999976911546
340,84,43195,1,0,0:0:0:0:
104,60,43345,6,0,L|216:48,1,99.0000003986359
216,52,43945,1,0,0:0:0:0:
244,240,44095,1,0,0:0:0:0:
340,84,44245,1,0,0:0:0:0:
160,152,44395,2,0,P|148:180|176:156,1,99.0000003986359
119,87,44620,2,0,P|91:111|75:143,1,49.500000199318
152,260,44770,1,0,0:0:0:0:
280,32,44995,6,0,P|220:28|168:40,1,99.0000003986359
176,168,45220,1,0,0:0:0:0:
324,112,45370,1,0,0:0:0:0:
136,92,45520,2,0,P|107:84|71:93,1,49.500000199318
100,164,45670,6,0,B|48:172|4:200|4:200|84:244,1,188.999989225388
296,294,46120,2,0,B|275:252|275:252|256:220|215:235|223:274,1,125.999992816925
232,168,46345,2,0,B|268:155|305:180|305:180|330:155|330:155|367:180|404:168,1,188.999989225388
381,100,46645,2,0,P|349:84|317:84,1,62.9999964084627
400,312,46870,6,0,B|488:296|488:296|448:280,1,125.999992816925
328,288,47095,2,0,B|240:304|240:304|280:320,1,125.999992816925
344,360,47320,1,0,0:0:0:0:
368,376,47395,1,0,0:0:0:0:
248,232,47545,2,0,L|120:256,1,125.999992816925,0|0,1:0|0:0,0:0:0:0:
56,328,47845,1,0,0:0:0:0:
136,120,47995,1,0,0:0:0:0:
184,304,48145,6,0,B|200:368|200:368|232:296,1,125.999992816925,0|0,1:0|0:0,0:0:0:0:
272,128,48445,1,2,0:0:0:0:
328,344,48595,2,0,P|360:352|400:352,1,62.9999964084627
200,160,48745,6,0,B|152:136|96:176|56:128|104:88|152:136,1,139.499997368813,4|0,1:0|3:0,0:0:0:0:
392,155,49045,1,4,3:0:0:0:
87,213,49195,2,0,P|48:192|108:49,1,242.999986146927
376,168,49645,5,8,1:0:0:0:
160,264,49795,2,0,B|104:248|40:256|40:256|80:224,1,161.999990764618,8|2,1:0|0:0,0:0:0:0:
192,136,50095,2,0,B|233:95|258:36|258:36|266:86,1,161.999990764618,4|4,3:0|3:0,0:0:0:0:
360,176,50395,1,8,1:0:0:0:
296,240,50470,2,0,B|310:296|349:347|349:347|301:329,1,161.999990764618
104,208,50770,6,0,B|144:200|144:200|184:216,1,80.9999953823091,2|0,0:0|0:0,0:0:0:0:
152,304,50920,2,0,B|112:312|112:312|72:296,1,80.9999953823091
160,96,51070,1,4,1:0:0:0:
232,336,51220,1,4,3:0:0:0:
160,104,51370,6,0,L|240:112,1,80.9999953823091,4|0,3:0|0:0,0:0:0:0:
392,176,51520,2,0,L|472:184,1,80.9999953823091,0|0,1:0|0:0,0:0:0:0:
136,88,51670,2,0,B|384:80|384:80|336:88|296:128,1,323.999981529237,4|0,3:0|0:0,0:0:0:0:
208,192,52045,2,0,P|184:232|176:272,1,80.9999953823091
184,360,52195,5,2,1:2:0:0:
200,368,52345,2,0,B|312:352|312:352|240:320,1,161.999990764618
96,264,52570,2,0,B|16:280|16:280|104:312,1,161.999990764618
440,320,52945,6,0,B|400:232|408:184|408:184|464:144|472:64|472:64|392:56|368:144,1,404.999976911546,4|0,1:0|0:0,0:0:0:0:
335,115,54595,6,0,P|375:115|359:139,1,62.9999964084627,2|0,0:0|0:0,0:0:0:0:
336,192,54895,1,0,0:0:0:0:
320,200,54970,1,0,0:0:0:0:
208,160,55120,2,0,L|144:176,1,62.9999964084627
112,232,55645,5,0,0:0:0:0:
136,168,55720,2,0,L|120:96,1,62.9999964084627
264,32,55945,2,0,L|248:112,1,62.9999964084627
312,208,56245,1,0,0:0:0:0:
288,272,56320,1,0,0:0:0:0:
160,296,56470,2,0,P|208:280|240:288,1,62.9999964084627
336,328,56770,2,0,L|432:320,1,94.499994612694,0|2,0:0|0:0,0:0:0:0:
432,216,57145,6,0,L|448:136,1,62.9999964084627
432,72,57370,1,0,0:0:0:0:
438,91,57595,2,0,L|446:171,1,62.9999964084627
375,175,57970,6,0,L|375:119,1,44.9999988079071
376,40,59245,1,0,0:0:0:0:
368,32,59320,2,0,P|344:24|328:24,1,33.7500003933907
240,64,59620,2,0,L|192:56,1,33.7500003933907
144,88,59845,2,0,L|96:104,1,50.625000590086
160,232,60745,5,0,0:0:0:0:
168,240,60820,2,0,L|232:232,1,50.625000590086
336,264,61195,1,0,0:0:0:0:
232,328,61345,1,0,0:0:0:0:
160,304,61945,5,0,0:0:0:0:
152,296,62020,2,0,B|112:288|112:288|96:288,1,50.625000590086
0,288,62395,2,0,P|8:248|8:232,1,40.4999976911546
48,192,62620,2,0,L|40:136,1,40.4999976911546
72,88,62845,1,0,0:0:0:0:
184,136,62995,1,0,0:0:0:0:
200,144,63070,1,0,0:0:0:0:
216,152,63145,2,0,L|288:144,1,60.7499965367319
352,160,63520,2,0,L|424:168,1,60.7499965367319
488,240,64120,1,0,0:0:0:0:
480,248,64270,6,0,P|448:240|424:240,1,40.4999976911546
368,288,64570,1,0,0:0:0:0:
288,264,64720,2,0,P|256:248|296:248,1,94.499994612694
360,280,65020,1,0,0:0:0:0:
288,336,65170,2,0,P|239:329|208:304,1,85.4999954519273
117,288,65395,2,0,P|157:254|162:204,1,85.4999954519273
164,223,65770,6,0,B|183:184|183:184|173:161|173:161|196:117,1,107.999993843079
248,72,65995,2,0,L|312:80,1,53.9999969215394
104,32,66220,2,0,L|264:0,1,161.999990764618
47,95,66670,5,0,1:0:0:0:
456,128,66895,1,0,0:0:0:0:
408,184,66970,1,0,0:0:0:0:
336,192,67045,2,0,P|296:168|280:104,1,107.999993843079,0|0,0:0|0:3,0:0:0:0:
330,32,67345,5,0,0:0:0:0:
224,352,67495,1,0,0:0:0:0:
224,352,69370,6,0,P|256:336|272:336,1,35.9999990463257
352,336,69670,2,0,L|392:344,1,35.9999990463257
216,256,69970,2,0,L|280:248,1,53.9999985694885
288,248,70795,5,0,0:0:0:0:
304,240,70870,1,0,0:0:0:0:
320,232,70945,2,0,L|360:240,1,35.9999990463257
432,264,71245,2,0,L|480:256,1,35.9999990463257
432,136,71545,2,0,P|424:168|432:200,1,53.9999985694885
496,168,71845,1,0,0:0:0:0:
376,88,71995,2,0,L|328:80,1,35.9999990463257
280,112,72220,2,0,B|264:120|264:120|240:120,1,35.9999990463257
184,88,72445,2,0,P|160:80|144:80,1,35.9999990463257
88,120,73270,6,0,P|80:160|80:176,1,44.9999988079071
120,224,73495,1,0,0:0:0:0:
64,336,73645,1,0,0:0:0:0:
192,320,73795,1,0,0:0:0:0:
112,224,73945,1,0,0:0:0:0:
132,360,74095,2,0,L|208:364,1,67.4999982118607
264,336,74395,5,0,0:0:0:0:
364,328,74545,1,0,0:0:0:0:
252,260,74695,2,0,L|200:264,1,44.9999988079071
304,204,74920,2,0,L|384:216,1,67.4999982118607
376,216,75445,6,0,P|384:180|384:160,1,44.9999988079071
384,100,75670,6,0,B|332:104|332:104|268:84,1,112.499997019768,2|0,0:0|0:0,0:0:0:0:
204,108,75970,2,0,B|208:148|208:148|196:184,1,67.5000007867814
140,216,76195,1,0,0:0:0:0:
132,220,76270,1,0,0:0:0:0:
40,144,76420,2,0,L|48:216,1,67.5000007867814
124,224,76720,2,0,L|104:304,2,67.5000007867814
212,336,77170,2,0,L|196:264,1,67.5000007867814
268,276,77395,2,0,L|268:232,1,33.7500003933907
248,232,79045,6,0,B|268:224|268:224|296:224,1,44.9999988079071
412,252,79345,1,0,0:0:0:0:
272,304,79495,2,0,P|228:304|212:296,1,44.9999988079071
192,224,79720,2,0,P|236:224|252:232,1,44.9999988079071
248,232,80320,6,0,L|276:224,1,22.4999994039536
288,156,80470,2,0,L|344:164,1,44.9999988079071
384,104,80770,2,0,L|436:92,2,44.9999988079071
328,56,81145,1,0,0:0:0:0:
212,92,81295,2,0,L|160:88,1,44.9999988079071
192,240,81595,1,0,0:0:0:0:
96,120,81745,1,0,0:0:0:0:
112,252,81895,2,0,P|112:284|108:308,1,44.9999988079071
36,260,82120,2,0,P|36:228|40:204,1,44.9999988079071
40,208,82645,6,0,L|36:176,1,22.4999994039536
108,176,82795,2,0,L|116:120,1,44.9999988079071
192,136,83095,2,0,L|240:104,2,44.9999988079071
168,208,83620,5,0,0:0:0:0:
288,240,83770,2,0,P|328:236|340:224,1,44.9999988079071
372,172,83995,2,0,P|380:136|376:96,1,67.4999982118607
244,20,84370,1,0,0:0:0:0:
304,128,84520,1,0,0:0:0:0:
368,16,84670,1,0,0:0:0:0:
196,88,84820,1,0,0:0:0:0:
376,112,84970,1,0,0:0:0:0:
204,184,85120,2,0,L|128:172,1,67.4999982118607
68,192,85420,5,0,0:0:0:0:
76,208,85495,1,0,0:0:0:0:
104,40,85720,2,0,L|96:96,1,44.9999988079071
144,248,86020,1,0,0:0:0:0:
196,104,86170,1,0,0:0:0:0:
248,284,86320,2,0,P|224:308|204:320,1,44.9999988079071
328,328,86545,2,0,L|284:340,1,33.7500003933907
400,336,86845,2,0,L|448:328,1,33.7500003933907
452,292,88120,5,0,0:0:0:0:
444,280,88195,2,0,L|436:248,1,33.7500003933907,2|0,0:0|0:0,0:0:0:0:
408,184,88420,1,0,0:0:0:0:
440,68,88570,1,0,0:0:0:0:
388,192,88720,2,0,P|348:204|308:196,1,67.5000007867814
308,200,89395,6,0,P|268:188|248:188,1,53.9999969215394
200,232,89620,2,0,L|136:220,1,53.9999969215394
100,164,89845,1,0,0:0:0:0:
132,320,89995,1,0,0:0:0:0:
192,160,90145,2,0,B|204:112|204:112|200:72,1,80.9999953823091
156,24,90445,1,0,0:0:0:0:
284,84,90595,6,0,L|324:88,1,26.9999984607697,2|0,0:0|0:0,0:0:0:0:
376,120,90745,2,0,L|440:112,1,53.9999969215394
484,64,90970,1,0,0:0:0:0:
444,224,91120,2,0,L|352:208,1,80.9999953823091
180,168,91720,6,0,P|164:136|160:112,1,53.9999969215394
196,60,91945,1,0,0:0:0:0:
328,76,92095,1,0,0:0:0:0:
460,92,92245,2,0,L|452:168,1,53.9999969215394
384,264,92545,2,0,L|376:196,1,53.9999969215394
316,80,92845,6,0,P|312:128|312:148,1,53.9999969215394,0|2,0:0|0:0,0:0:0:0:
432,288,93145,1,0,0:0:0:0:
432,127,93295,1,0,0:0:0:0:
292,208,93445,1,0,0:0:0:0:
385,208,93595,1,0,0:0:0:0:
385,208,94120,6,0,P|352:216|328:212,1,53.9999969215394
224,136,94420,2,0,P|191:128|167:132,1,53.9999969215394
88,232,94720,2,0,L|96:300,1,53.9999969215394
216,348,95020,2,0,B|224:304|224:304|216:256,1,80.9999953823091
208,256,95320,5,0,0:0:0:0:
196,244,95395,1,2,0:0:0:0:
56,163,95545,1,0,0:0:0:0:
56,324,95695,1,0,0:0:0:0:
196,244,95845,1,0,0:0:0:0:
103,244,95995,2,0,L|32:252,1,53.9999969215394
40,240,96370,6,0,L|32:184,1,40.4999976911546
108,168,96520,2,0,L|132:80,1,80.9999953823091
208,120,96745,2,0,L|296:80,2,80.9999953823091
343,63,97795,5,2,0:0:0:0:
352,76,98020,5,0,0:0:0:0:
360,88,98095,1,0,0:0:0:0:
472,28,98245,2,0,B|484:80|484:80|472:120,1,80.9999953823091
439,171,98470,2,0,B|439:220|403:246|413:295|461:297|481:269|458:230,1,161.999990764618
353,235,98845,2,0,L|267:246,1,80.9999953823091
120,208,99145,1,0,0:0:0:0:
276,168,99295,1,0,0:0:0:0:
88,288,99445,2,0,L|8:280,1,80.9999953823091
144,356,99670,2,0,L|64:364,1,80.9999953823091
220,380,99895,5,0,0:0:0:0:
272,184,100045,1,0,0:0:0:0:
336,360,100195,2,0,P|376:368|428:352,1,80.9999953823091,2|0,0:0|0:0,0:0:0:0:
372,284,100420,2,0,B|360:236|360:236|368:192,1,80.9999953823091
408,140,100645,1,0,0:0:0:0:
232,80,100795,1,0,0:0:0:0:
424,144,100945,2,0,P|472:128|408:80,1,161.999990764618
328,88,101320,6,0,P|276:92|244:88,1,80.9999953823091,0|0,1:0|0:0,0:0:0:0:
104,16,101620,1,0,0:0:0:0:
324,164,101770,2,0,P|340:204|336:248,1,80.9999953823091
88,164,102070,2,0,P|72:124|76:80,1,80.9999953823091
120,24,102595,6,0,B|176:20|176:20|236:36,1,107.999993843079,0|0,1:0|0:0,0:0:0:0:
288,80,102820,1,0,0:0:0:0:
296,96,102970,2,0,L|272:220,1,107.999993843079
364,344,103270,2,0,L|388:220,1,107.999993843079
432,24,103645,5,0,0:0:0:0:
224,120,103795,2,0,B|180:136|180:136|108:120,1,107.999993843079,0|0,1:0|0:0,0:0:0:0:
80,56,104095,2,0,P|104:48|148:48,1,53.9999969215394
80,232,104245,2,0,P|56:240|12:240,1,53.9999969215394,8|0,1:0|0:0,0:0:0:0:
236,128,104395,2,0,B|360:136,1,107.999993843079,2|0,0:0|0:0,0:0:0:0:
496,200,104620,6,0,L|344:224,1,143.999996185303,8|0,1:0|0:0,0:0:0:0:
256,304,104845,2,0,P|228:260|228:224,1,71.9999980926514
280,52,104995,1,2,0:0:0:0:
164,151,105070,1,0,0:0:0:0:
353,66,105145,1,0,0:0:0:0:
191,354,105370,6,0,B|156:335|156:335|126:294,1,71.9999980926514,0|0,1:0|0:0,0:0:0:0:
462,55,105520,2,0,L|458:139,1,71.9999980926514
200,215,105745,2,0,L|378:199,1,161.999990764618,4|0,1:0|0:0,0:0:0:0:
459,127,106045,5,0,0:0:0:0:
21,175,106195,1,0,0:0:0:0:
397,283,106345,2,0,B|422:260|454:273|473:298|453:321|421:331|385:323|385:323|354:316|328:309|297:333,1,242.999986146927,4|0,0:0|0:0,0:0:0:0:
296,333,107170,6,0,P|278:296|289:228,1,89.9999976158143
340,197,107395,2,0,P|355:152|349:129,1,44.9999988079071
357,81,107545,2,0,B|293:56|293:56|384:48,1,134.999996423721,0|0,1:0|0:0,0:0:0:0:
432,72,107845,2,0,L|492:88,1,44.9999988079071
232,88,107995,2,0,P|224:52|228:36,1,44.9999988079071
256,316,108145,5,8,1:0:0:0:
256,336,108295,1,0,0:0:0:0:
256,356,108445,1,0,0:0:0:0:
160,192,108595,2,0,P|124:192|160:220,1,107.999993843079,4|0,0:0|0:0,0:0:0:0:
323,236,108895,2,0,P|355:228|391:232,1,53.9999969215394
172,116,109045,2,0,P|128:108|108:112,1,53.9999969215394
367,80,109195,2,0,L|351:140,1,53.9999969215394
256,324,109345,5,8,1:0:0:0:
256,344,109495,1,0,0:0:0:0:
256,364,109645,1,0,0:0:0:0:
148,252,109795,2,0,B|124:192|124:192|112:292,1,161.999990764618,2|0,0:0|0:0,0:0:0:0:
76,352,110095,2,0,P|44:312|40:288,1,53.9999969215394
200,176,110245,2,0,P|240:180|268:176,1,53.9999969215394
411,249,110395,2,0,P|371:245|343:249,1,53.9999969215394
256,332,110545,5,8,1:0:0:0:
256,352,110695,1,0,0:0:0:0:
256,372,110845,1,0,0:0:0:0:
124,200,110995,6,0,P|124:152|164:104,1,107.999993843079,4|0,0:1|0:0,0:0:0:0:
348,76,111295,1,0,0:0:0:0:
200,172,111445,1,0,0:0:0:0:
124,32,111595,2,0,P|172:28|200:36,1,53.9999969215394
260,248,111745,2,0,L|248:360,1,107.999993843079,8|0,1:0|0:0,0:0:0:0:
240,368,111970,6,0,P|236:336|224:308,1,53.9999969215394
300,176,112195,1,4,3:0:0:0:
356,224,112270,1,0,0:0:0:0:
412,268,112345,2,0,L|476:256,1,53.9999969215394
400,80,112495,1,0,0:0:0:0:
380,344,112645,1,0,0:0:0:0:
280,96,112795,2,0,P|260:64|236:44,1,53.9999969215394
264,256,112945,2,0,L|280:372,1,107.999993843079,8|0,1:0|0:0,0:0:0:0:
108,240,113245,6,0,L|116:184,1,53.9999969215394
420,224,113395,2,0,L|404:168,1,53.9999969215394,4|0,1:0|0:0,0:0:0:0:
96,228,113545,2,0,L|120:152,1,58.499995772362
428,196,113695,2,0,L|404:116,1,62.9999964084627
248,24,113845,2,0,P|264:88|264:156,1,125.999992816925
252,268,114145,2,0,L|200:388,1,125.999992816925,8|0,1:0|0:0,0:0:0:0:
192,376,114445,6,0,L|264:364,1,62.9999964084627
412,314,114595,2,0,L|340:306,1,62.9999964084627,4|0,3:0|0:0,0:0:0:0:
172,264,114745,1,0,0:0:0:0:
420,180,114895,6,0,P|420:212|400:252,1,62.9999964084627
96,280,115045,2,0,P|96:248|116:208,1,62.9999964084627
364,124,115195,1,0,0:0:0:0:
240,292,115345,2,0,L|148:384,1,125.999992816925,8|0,1:0|0:0,0:0:0:0:
152,380,115795,6,0,L|148:300,1,67.5000007867814,4|0,1:0|0:0,0:0:0:0:
68,228,115945,2,0,L|80:152,1,67.5000007867814
144,36,116095,2,0,L|156:116,1,67.5000007867814
48,236,116245,2,0,B|72:104|72:104|28:180,1,202.500002360344
256,192,116545,5,8,1:0:0:0:
256,192,116695,1,0,0:0:0:0:
156,20,116995,6,0,P|144:64|152:104,1,67.5000007867814,4|0,1:0|0:0,0:0:0:0:
248,284,117145,1,0,0:0:0:0:
280,292,117220,1,0,0:0:0:0:
308,300,117295,2,0,L|396:292,1,67.5000007867814
424,112,117520,2,0,P|376:156|376:240,1,135.000001573563
256,192,117745,5,8,1:0:0:0:
256,192,117895,1,0,0:0:0:0:
196,264,118195,6,0,P|156:260|112:280,1,67.5000007867814,4|0,1:0|0:0,0:0:0:0:
44,332,118345,2,0,P|28:276|40:244,1,67.5000007867814
172,120,118495,2,0,P|157:176|131:198,1,67.5000007867814
4,144,118645,2,0,P|36:124|100:136,1,89.9999976158143,2|0,0:0|0:0,0:0:0:0:
284,272,118795,2,0,P|327:277|366:255,1,89.9999976158143,2|0,0:0|0:0,0:0:0:0:
432,76,118945,2,0,L|420:172,1,78.749998664856
460,304,119095,2,0,L|448:232,1,67.5000007867814
336,72,119245,6,0,L|344:148,1,56.2499985098839
368,328,119395,2,0,L|372:260,1,56.2499985098839,0|0,1:0|0:0,0:0:0:0:
252,135,119545,2,0,L|256:207,1,56.2499985098839
272,334,119695,2,0,L|280:254,1,56.2499985098839
166,176,119845,2,0,P|174:212|166:260,1,56.2499985098839
141,314,119995,1,0,0:0:0:0:
256,192,120145,5,8,1:0:0:0:
256,192,120295,1,0,0:0:0:0:
256,192,120595,6,0,P|296:168|328:172,1,56.2499985098839,4|0,1:0|0:0,0:0:0:0:
392,200,120745,2,0,L|380:264,1,56.2499985098839
412,344,120895,2,0,P|444:328|464:292,1,56.2499985098839
460,108,121045,2,0,L|472:232,1,112.499997019768
468,96,121270,6,0,L|400:104,1,56.2499985098839,2|0,0:0|0:0,0:0:0:0:
280,52,121420,2,0,L|336:56,1,56.2499985098839,2|0,0:0|0:0,0:0:0:0:
208,80,121570,2,0,B|192:40|216:0|216:0|188:12|176:32,1,112.499997019768,4|0,0:0|0:0,0:0:0:0:
120,56,121795,6,0,P|68:60|32:48,1,67.5000007867814,4|0,1:0|0:0,0:0:0:0:
88,212,121945,1,0,0:0:0:0:
232,156,122020,2,0,L|304:168,1,67.5000007867814
80,232,122245,2,0,B|100:168|100:168|136:248,1,135.000001573563
40,336,122545,5,2,0:0:0:0:
111,301,122620,1,0,0:0:0:0:
192,300,122695,1,2,0:0:0:0:
264,332,122770,2,0,P|308:344|335:343,1,56.2499985098839
494,261,122995,6,0,P|446:253|410:257,1,71.9999980926514,4|0,1:0|0:0,0:0:0:0:
240,195,123145,1,0,0:0:0:0:
323,246,123220,1,0,0:0:0:0:
400,184,123295,2,0,P|416:132|412:104,1,71.9999980926514
216,92,123445,2,0,P|260:128|348:132,1,143.999996185303
128,48,123670,6,0,L|140:128,1,71.9999980926514,2|0,0:0|0:0,0:0:0:0:
414,115,123820,2,0,L|402:35,1,71.9999980926514,2|0,0:0|0:0,0:0:0:0:
184,177,123970,1,0,0:0:0:0:
216,192,124045,1,0,0:0:0:0:
249,207,124120,1,0,0:0:0:0:
224,276,124195,6,0,B|192:284|192:284|136:280,1,71.9999980926514,4|0,1:0|0:0,0:0:0:0:
368,248,124345,2,0,B|408:260|408:260|456:256,1,80.9999953823091
208,92,124495,2,0,L|120:100,1,80.9999953823091
24,160,124645,6,0,L|128:176,1,89.9999976158143,2|0,0:0|0:0,0:0:0:0:
408,168,124945,2,0,P|348:164|276:236,1,157.499997329712,0|0,1:0|0:0,0:0:0:0:
328,344,125170,1,0,0:0:0:0:
404,84,125245,1,4,0:0:0:0:
404,84,127045,6,0,L|372:144,1,62.9999964084627
432,196,127345,2,0,P|444:232|440:272,1,62.9999964084627
400,324,127645,2,0,L|332:312,1,62.9999964084627
336,316,128395,5,0,0:0:0:0:
284,200,128545,1,0,0:0:0:0:
252,344,128695,2,0,L|176:360,1,62.9999964084627
124,332,128920,2,0,P|112:296|112:284,1,31.4999982042313
104,180,129145,6,0,P|80:216|28:228,1,94.499994612694
32,156,129445,1,0,0:0:0:0:
188,132,129595,1,0,0:0:0:0:
96,20,129745,2,0,L|116:108,1,80.9999953823091
200,136,129970,2,0,L|184:232,1,80.9999953823091
156,308,130495,6,0,L|204:324,1,40.4999976911546
208,328,130645,2,0,L|92:344,1,99.0000003986359
260,220,130945,1,0,0:0:0:0:
344,356,131095,1,0,0:0:0:0:
388,228,131245,2,0,L|408:144,1,67.5000007867814
464,268,131545,2,0,L|476:336,1,67.5000007867814
316,264,131845,1,0,0:0:0:0:
476,184,131995,1,0,0:0:0:0:
340,120,132145,2,0,P|296:112|260:116,1,67.5000007867814
216,156,132370,5,0,0:0:0:0:
228,312,132520,1,0,0:0:0:0:
228,312,132670,2,0,L|152:304,1,67.5000007867814
360,208,132970,2,0,L|436:196,1,67.5000007867814
140,84,133345,6,0,L|128:144,1,56.2499985098839,4|0,0:0|0:0,0:0:0:0:
72,260,133495,2,0,L|56:124,1,112.499997019768
168,0,133795,6,0,B|211:14|239:66|218:119|218:119|260:100|304:130,1,236.249995994568
356,184,134095,5,0,0:0:0:0:
348,256,134170,1,0,0:0:0:0:
36,228,134395,1,0,0:0:0:0:
436,124,134545,1,0,0:0:0:0:
296,376,134770,5,4,1:0:0:0:
252,192,134845,1,0,0:0:0:0:
252,192,136495,6,0,L|264:168,1,17.9999995231628
324,212,136645,2,0,L|372:208,1,35.9999990463257
384,280,136870,2,0,L|428:284,2,35.9999990463257
384,280,137770,6,0,P|344:296|324:296,1,53.9999969215394
256,268,138070,1,0,0:0:0:0:
256,268,138145,2,0,L|184:276,1,53.9999969215394
112,256,138445,1,0,0:0:0:0:
112,256,138520,1,0,0:0:0:0:
124,335,138745,6,0,L|108:235,1,80.9999953823091
184,120,139120,2,0,L|171:199,1,80.9999953823091
170,201,139645,6,0,L|123:192,1,26.9999984607697
44,161,139795,2,0,P|85:134|110:130,1,53.9999969215394
94,57,140020,2,0,L|158:48,1,53.9999969215394
223,56,140245,2,0,L|290:65,1,53.9999969215394
345,38,140470,6,0,P|345:89|328:115,1,67.5000007867814
271,168,140695,2,0,L|217:158,1,33.7500003933907
187,221,140845,2,0,L|106:232,1,67.5000007867814
328,296,141145,2,0,L|401:309,1,62.9999964084627
375,149,141445,5,0,0:0:0:0:
303,376,141595,1,0,0:0:0:0:
230,272,141745,2,0,B|196:278|196:278|157:296,1,62.9999964084627
85,356,142045,2,0,L|97:236,1,94.499994612694
103,188,142345,5,0,0:0:0:0:
301,153,142495,1,0,0:0:0:0:
57,97,142645,1,0,0:0:0:0:
191,186,142795,1,0,0:0:0:0:
291,42,142945,2,0,L|194:37,1,76.4999994325638
161,112,143170,2,0,P|206:106|248:123,1,76.4999994325638
318,239,143470,6,0,L|296:360,1,114.749999148846
179,217,143845,1,0,0:0:0:0:
183,230,143920,1,0,0:0:0:0:
388,196,144070,2,0,P|399:154|394:124,1,56.2499985098839
165,34,144295,5,0,0:0:0:0:
298,214,144445,1,0,0:0:0:0:
126,309,145795,6,0,L|148:314,1,22.4999994039536
216,317,145945,2,0,L|272:313,1,44.9999988079071
321,282,146195,2,0,P|359:288|382:299,2,44.9999988079071
275,223,146620,6,0,L|219:230,1,44.9999988079071
230,228,146845,2,0,B|176:213|176:213|95:238,1,135.000001573563
101,237,147595,6,0,P|88:189|89:174,1,44.9999988079071
124,131,147820,2,0,L|139:76,2,44.9999988079071
188,203,148270,1,0,0:0:0:0:
188,203,148345,2,0,P|228:207|251:202,1,44.9999988079071
287,158,148570,2,0,P|322:151|349:152,1,44.9999988079071
390,200,148895,1,0,0:0:0:0:
392,214,148995,1,0,0:0:0:0:
395,230,149095,2,0,L|388:264,1,29.9999992052714
322,317,149320,6,0,B|310:275|310:275|318:224,1,89.9999976158143,2|0,0:0|0:0,0:0:0:0:
362,165,149995,6,0,P|315:153|286:158,1,67.5000007867814
226,190,150295,1,0,0:0:0:0:
136,272,150445,1,0,0:0:0:0:
87,157,150595,2,0,P|70:205|73:244,1,67.5000007867814
213,298,150895,2,0,P|214:267|211:254,1,33.7500003933907
169,155,151120,6,0,P|162:115|172:81,1,67.5000007867814
285,47,151420,1,0,0:0:0:0:
110,32,151570,1,0,0:0:0:0:
332,121,151720,1,0,0:0:0:0:
233,202,151870,1,0,0:0:0:0:
233,202,152095,6,0,P|179:210|149:199,1,67.5000007867814
93,221,152320,2,0,P|112:258|161:278,1,80.9999953823091
226,277,152545,2,0,P|209:323|220:363,1,80.9999953823091
285,326,152770,1,0,0:0:0:0:
413,259,152920,6,0,L|329:265,1,80.9999953823091
341,179,153145,2,0,L|397:184,1,40.4999976911546
433,103,153295,2,0,B|377:109|377:109|319:105,1,99.0000003986359,0|0,1:0|0:0,0:0:0:0:
155,51,153595,1,2,0:0:0:0:
252,168,153745,6,0,L|237:278,1,99.0000003986359,0|0,0:0|1:0,0:0:0:0:
71,65,154045,2,0,L|86:218,1,135.000001573563,0|2,0:0|0:0,0:0:0:0:
39,270,154270,6,0,P|71:278|113:313,1,67.5000007867814
281,107,154420,2,0,L|248:176,1,67.5000007867814,0|0,0:0|1:0,0:0:0:0:
186,249,154570,6,0,B|173:295|173:295|186:356,1,89.9999976158143
201,251,154720,2,0,B|180:294|180:294|182:356,1,89.9999976158143,0|2,0:0|0:0,0:0:0:0:
288,319,154870,6,0,B|321:327|406:320|406:320|337:293,1,179.999995231629
105,227,155095,6,0,P|82:169|89:134,1,89.9999976158143,4|0,3:0|0:0,0:0:0:0:
247,42,155245,1,4,1:0:0:0:
429,117,155395,2,0,P|392:127|336:122,1,89.9999976158143,8|0,1:0|0:0,0:0:0:0:
111,42,155695,5,4,3:0:0:0:
111,42,155845,6,0,P|154:84|188:101,1,89.9999976158143,0|0,0:0|0:0,0:0:0:0:
381,205,155995,2,0,P|322:198|282:215,1,89.9999976158143,0|0,0:0|0:0,0:0:0:0:
211,346,156145,2,0,P|121:345|39:270,1,179.999995231629,0|0,0:0|0:0,0:0:0:0:
135,262,156370,2,0,P|225:261|307:186,1,179.999995231629,0|0,0:0|0:0,0:0:0:0:
93,183,156595,5,4,1:0:0:0:
93,183,157045,6,0,B|79:132|79:132|97:83,1,89.9999976158143,0|0,0:0|0:0,0:0:0:0:
91,97,157195,2,0,B|103:131|103:131|89:182,1,89.9999976158143,0|0,0:0|0:0,0:0:0:0:
89,182,157345,2,0,L|286:203,1,179.999995231629,0|4,0:0|3:0,0:0:0:0:
352,223,157570,2,0,B|305:276|305:276|190:264,1,179.999995231629,0|0,0:0|0:0,0:0:0:0:
22,241,157795,5,8,1:0:0:0:
22,241,158245,6,0,L|39:140,1,89.9999976158143,0|0,0:0|0:0,0:0:0:0:
133,124,158395,2,0,L|143:27,1,89.9999976158143,0|4,0:0|3:0,0:0:0:0:
126,26,158545,6,0,L|137:106,1,67.5000007867814
204,179,158695,2,0,L|233:252,1,67.5000007867814,0|0,0:0|0:0,0:0:0:0:
312,307,158845,2,0,L|366:358,1,67.5000007867814,0|0,0:0|0:0,0:0:0:0:
335,37,158995,5,4,1:0:0:0:
335,37,159445,6,0,P|286:46|241:44,1,67.5000007867814,0|0,0:0|0:0,0:0:0:0:
81,27,159595,1,0,0:0:0:0:
280,142,159745,5,0,0:0:0:0:
81,27,159820,1,0,0:0:0:0:
80,258,159895,1,4,3:0:0:0:
366,161,160120,6,0,P|285:141|265:143,1,89.9999976158143,0|8,0:0|1:0,0:0:0:0:
279,141,160645,1,0,0:0:0:0:
292,155,160720,6,0,L|265:262,1,99.0000003986359,0|0,0:0|0:0,0:0:0:0:
191,222,160945,6,0,L|186:305,1,56.2499985098839
106,332,161095,2,0,P|110:291|108:256,1,56.2499985098839,0|0,0:0|0:0,0:0:0:0:
83,48,161320,6,0,P|63:119|71:223,1,157.499997329712,4|0,1:0|0:0,0:0:0:0:
323,354,161545,2,0,P|343:283|335:179,1,157.499997329712,0|4,0:0|1:0,0:0:0:0:
162,17,161770,1,0,0:0:0:0:
156,10,161845,6,0,B|153:85|153:85|184:192,1,168.749995529652
246,369,162145,1,2,0:0:0:0:
236,95,162220,1,2,0:0:0:0:
158,323,162295,2,0,L|12:355,1,134.999996423721,2|0,0:0|0:0,0:0:0:0:
474,334,162595,5,8,1:0:0:0:
87,191,162745,1,0,0:0:0:0:
383,163,162895,6,0,P|364:164|325:170,1,44.9999988079071
276,196,163045,2,0,B|307:172|339:167|339:167|356:241,1,134.999996423721
343,56,163345,6,0,L|337:168,1,112.499997019768,4|0,0:0|0:0,0:0:0:0:
288,285,164095,6,0,L|237:276,1,44.9999988079071
51,235,164245,2,0,L|174:204,1,89.9999976158143
198,121,164470,2,0,P|153:105|101:109,2,89.9999976158143
253,214,165895,5,0,0:0:0:0:
253,214,165970,2,0,L|283:263,1,44.9999988079071
334,308,166195,1,0,0:0:0:0:
334,308,166270,2,0,L|396:317,2,44.9999988079071
255,335,166645,2,0,P|216:341|196:338,1,44.9999988079071
134,353,166870,6,0,L|129:293,1,44.9999988079071
71,263,167170,2,0,L|75:189,1,53.9999969215394
151,109,167470,1,0,0:0:0:0:
278,117,167620,2,0,P|237:133|214:132,1,53.9999969215394
84,63,167920,1,0,0:0:0:0:
200,210,168070,6,0,L|293:204,1,80.9999953823091
327,287,168370,6,0,L|251:282,1,71.9999980926514
192,324,168970,6,0,L|164:327,1,17.9999995231628
103,315,169120,2,0,L|113:272,1,35.9999990463257
47,219,169345,2,0,L|42:275,1,53.9999985694885
45,279,170770,5,0,0:0:0:0:
125,181,170920,1,0,0:0:0:0:
174,297,171070,2,0,L|225:306,1,35.9999990463257
278,278,171295,2,0,L|336:265,1,53.9999985694885
401,244,171595,1,0,0:0:0:0:
365,334,171745,1,0,0:0:0:0:
333,192,171895,1,0,0:0:0:0:
470,290,172045,1,0,0:0:0:0:
401,244,172195,2,0,L|411:200,1,35.9999990463257
386,134,172420,6,0,L|380:86,1,35.9999990463257
322,54,172645,1,0,0:0:0:0:
322,54,172720,1,0,0:0:0:0:
248,98,172945,6,0,L|199:104,1,40.4999976911546
138,157,173395,6,2,L|119:154,2,13.4999992303849,0|0|2,0:0|0:0|0:0,0:0:0:0:
381,158,193945,5,0,0:0:0:0:
381,158,194020,2,0,P|347:156|314:166,1,53.9999969215394
283,221,194245,2,0,L|197:231,1,80.9999953823091
18,180,194695,2,0,L|88:191,1,53.9999969215394
121,247,194995,5,0,0:0:0:0:
182,130,195145,2,0,P|184:87|181:73,1,53.9999969215394
182,298,195445,1,0,0:0:0:0:
101,115,195595,1,0,0:0:0:0:
333,89,195820,6,0,L|323:153,1,53.9999969215394
321,165,196120,2,0,L|312:72,1,76.4999994325638
449,73,196420,2,0,L|439:175,1,94.499994612694
429,250,196720,5,0,0:0:0:0:
251,204,196870,1,0,0:0:0:0:
103,259,197020,5,0,0:0:0:0:
156,320,197170,1,0,0:0:0:0:
154,101,197395,1,2,0:0:0:0:
148,57,198445,6,0,L|217:62,1,67.5000007867814
290,38,198820,6,0,L|296:129,1,67.5000007867814
337,166,199045,2,0,P|362:133|365:99,1,67.5000007867814
135,150,199420,1,0,0:0:0:0:
198,205,199570,1,0,0:0:0:0:
214,124,199720,5,0,0:0:0:0:
220,120,199870,1,0,0:0:0:0:
113,225,200020,2,0,B|78:230|78:230|40:223,1,67.5000007867814
69,88,200320,2,0,L|80:162,1,67.5000007867814
109,305,200545,1,0,0:0:0:0:
116,313,200620,2,0,P|154:322|188:320,1,67.5000007867814
252,286,200920,2,0,B|294:296|294:296|344:289,1,80.9999953823091
307,144,201145,2,0,L|298:231,1,80.9999953823091
298,224,201370,5,0,0:0:0:0:
219,187,201520,2,0,P|177:180|135:187,1,80.9999953823091
68,222,201745,2,0,L|101:114,1,99.0000003986359
181,304,202045,1,2,0:0:0:0:
181,304,203170,5,0,0:0:0:0:
190,315,203245,2,0,B|231:322|231:322|274:315,1,67.5000007867814
307,268,203470,2,0,P|328:312|322:343,1,67.5000007867814
234,248,203770,2,0,L|226:171,1,67.5000007867814
277,121,203995,5,0,0:0:0:0:
154,104,204145,1,0,0:0:0:0:
292,124,204295,1,0,0:0:0:0:
213,177,204445,1,0,0:0:0:0:
213,177,205045,5,0,0:0:0:0:
147,207,205195,2,0,P|105:208|72:200,1,67.5000007867814
43,141,205495,1,0,0:0:0:0:
40,134,205645,2,0,P|75:125|123:138,1,67.5000007867814
233,19,206020,6,0,L|240:102,1,67.5000007867814
301,162,206320,5,0,0:0:0:0:
190,220,206470,1,0,0:0:0:0:
201,230,206545,2,0,B|241:239|241:239|272:236,1,67.5000007867814
401,200,206845,2,0,P|406:240|391:287,1,80.9999953823091
331,318,207370,5,0,0:0:0:0:
238,339,207520,2,0,L|153:331,1,71.9999980926514
92,189,207820,1,0,0:0:0:0:
86,286,207970,1,0,0:0:0:0:
193,169,208120,2,0,L|264:160,1,71.9999980926514
400,120,208420,6,0,P|340:118|300:104,1,80.9999953823091
261,41,208645,1,0,0:0:0:0:
196,65,208720,2,0,P|151:51|76:70,1,114.749999148846
46,132,209020,2,0,L|19:201,1,50.9999996217092
118,266,209245,2,0,L|112:159,1,94.499994612694
168,113,209545,5,0,0:0:0:0:
35,253,209695,1,0,0:0:0:0:
35,253,209770,2,0,L|26:313,1,40.4999976911546
196,296,209920,2,0,P|196:237|181:210,1,80.9999953823091
118,266,210220,1,0,0:0:0:0:
258,348,210370,1,0,0:0:0:0:
330,169,210520,1,0,0:0:0:0:
362,257,210670,1,0,0:0:0:0:
416,186,210820,5,0,0:0:0:0:
273,237,210970,2,0,L|227:244,1,40.4999976911546
204,175,211120,2,0,L|103:167,1,80.9999953823091
78,104,211345,5,0,0:0:0:0:
126,254,211495,1,0,0:0:0:0:
200,84,211645,6,0,B|233:75|233:75|263:82|263:82|296:74,1,99.0000003986359
352,44,212995,5,2,0:0:0:0:
408,92,213145,6,0,L|404:128,1,35.9999990463257
344,184,214495,5,0,0:0:0:0:
276,224,214645,2,0,L|208:232,1,53.9999969215394
164,184,214870,1,0,0:0:0:0:
152,176,214945,2,0,L|92:192,1,53.9999969215394
40,272,215245,1,0,0:0:0:0:
80,120,215395,1,2,0:0:0:0:
32,56,215545,1,0,0:0:0:0:
168,40,215695,5,0,0:0:0:0:
0,128,215845,1,0,0:0:0:0:
152,176,215995,1,0,0:0:0:0:
164,184,216070,2,0,P|192:212|208:240,1,53.9999969215394
148,304,216370,1,0,0:0:0:0:
188,384,216520,1,0,0:0:0:0:
308,304,217045,5,0,0:0:0:0:
296,320,217120,2,0,L|236:324,1,53.9999969215394
128,276,217420,1,0,0:0:0:0:
208,252,217570,1,0,0:0:0:0:
128,360,217720,2,0,L|92:364,1,26.9999984607697,0|2,0:0|0:0,0:0:0:0:
0,296,217945,2,0,L|60:304,1,53.9999969215394
236,328,218245,5,0,0:0:0:0:
308,224,218395,1,0,0:0:0:0:
356,348,218545,2,0,L|416:356,1,53.9999969215394
424,360,218770,1,0,0:0:0:0:
404,240,218920,1,0,0:0:0:0:
428,156,219445,5,0,0:0:0:0:
360,168,219520,2,0,L|316:176,1,44.9999988079071
260,128,219745,2,0,L|200:120,1,44.9999988079071
156,80,220045,1,0,0:0:0:0:
188,200,220195,1,2,0:0:0:0:
236,44,220345,5,0,0:0:0:0:
88,108,220495,1,0,0:0:0:0:
112,244,220645,2,0,L|116:168,1,67.5000007867814
88,108,220870,5,0,0:0:0:0:
36,188,221020,1,0,0:0:0:0:
112,244,221170,1,0,0:0:0:0:
116,248,221320,1,0,0:0:0:0:
180,288,221845,5,0,0:0:0:0:
180,288,221920,2,0,P|224:295|250:288,1,67.5000007867814
299,244,222145,1,0,0:0:0:0:
404,314,222295,1,0,0:0:0:0:
470,235,222445,2,0,P|476:193|471:164,1,67.5000007867814,0|2,0:0|0:0,0:0:0:0:
411,126,222670,6,0,B|374:135|374:135|342:130,1,67.5000007867814
253,46,222970,2,0,B|209:38|209:38|169:43,1,76.4999994325638
2,205,223345,1,0,0:0:0:0:
102,225,223495,1,0,0:0:0:0:
112,245,223645,1,0,0:0:0:0:
120,261,224245,6,0,P|154:286|195:284,1,76.4999994325638
251,215,224545,2,0,P|280:259|282:300,1,76.4999994325638
235,367,224845,1,0,0:0:0:0:
168,189,224995,1,2,0:0:0:0:
322,153,225145,1,0,0:0:0:0:
325,158,225295,1,0,0:0:0:0:
251,92,225445,2,0,L|158:86,1,76.4999994325638
395,220,225745,2,0,P|442:213|480:205,2,85.4999954519273
253,191,226570,5,0,0:0:0:0:
246,200,226795,2,0,B|219:207|219:207|182:199,1,42.7499977259637
133,182,226945,2,0,L|147:286,1,85.4999954519273
102,353,227245,1,0,0:0:0:0:
56,272,227395,1,2,0:0:0:0:
187,336,227545,2,0,L|322:342,1,128.249993177891
383,308,227845,5,0,0:0:0:0:
248,222,227995,1,0,0:0:0:0:
407,173,228145,2,0,L|398:237,1,51.7499996161461
334,114,228295,1,0,0:0:0:0:
482,80,228445,2,0,P|425:82|386:66,1,80.9999953823091
282,13,228745,5,0,0:0:0:0:
103,83,228895,1,0,0:0:0:0:
253,200,229045,1,0,0:0:0:0:
197,6,229195,1,0,0:0:0:0:
44,169,229345,2,0,P|36:209|40:234,1,58.499995772362
223,339,229495,2,0,P|249:308|258:284,1,58.499995772362
192,9,229645,6,0,L|189:95,1,76.4999994325638
179,269,229795,1,2,0:0:0:0:
377,122,229945,2,0,P|333:102|292:106,1,76.4999994325638
241,142,230095,1,0,0:0:0:0:
433,211,230245,2,0,B|461:139|461:139|453:56,1,152.999998865128
98,67,230545,5,0,0:0:0:0:
385,20,230695,1,0,0:0:0:0:
21,188,230845,5,0,0:0:0:0:
242,235,230920,1,0,0:0:0:0:
300,261,233695,5,0,0:0:0:0:
369,323,233845,2,0,L|439:316,1,67.4999982118607
381,171,234220,1,0,0:0:0:0:
453,229,234370,1,0,0:0:0:0:
465,136,234520,1,0,0:0:0:0:
465,136,234595,1,0,0:0:0:0:
335,97,234820,2,0,P|310:122|301:165,2,67.4999982118607
251,57,235795,6,0,P|208:55|189:49,1,53.9999969215394
220,137,236095,2,0,P|254:140|279:151,1,53.9999969215394
209,224,236395,2,0,L|121:218,1,80.9999953823091
60,147,236695,1,0,0:0:0:0:
60,147,236770,1,0,0:0:0:0:
57,308,236920,2,0,L|154:296,1,80.9999953823091
241,308,237220,6,0,L|201:320,1,35.9999990463257
267,233,237370,2,0,P|303:261|315:294,1,71.9999980926514
201,298,237595,2,0,L|257:302,1,35.9999990463257
320,292,238120,5,0,0:0:0:0:
320,292,238195,2,0,L|406:297,1,71.9999980926514
457,198,238495,2,0,L|371:212,2,80.9999953823091
357,127,239020,2,0,L|304:125,1,40.4999976911546
423,81,239170,1,0,0:0:0:0:
250,57,239320,2,0,L|206:60,2,40.4999976911546
213,205,239695,6,0,P|220:258|201:303,1,80.9999953823091
146,243,239920,2,0,L|30:237,1,94.499994612694
109,140,240145,2,0,L|96:202,1,47.249997306347
54,68,240370,6,0,P|87:62|106:62,1,47.249997306347,2|0,0:0|0:0,0:0:0:0:
248,124,240520,1,2,0:0:0:0:
171,24,240595,2,0,P|197:35|240:35,1,47.249997306347
302,22,240745,6,0,L|317:88,1,58.499995772362
397,44,240895,2,0,L|412:110,1,58.499995772362
321,169,241045,2,0,B|285:214|221:216|182:172|182:172|209:209|195:265,1,215.999994277954
51,243,241345,2,0,P|98:225|127:224,1,71.9999980926514
248,124,241495,2,0,P|252:80|239:47,1,71.9999980926514
68,43,241645,6,0,B|80:76|80:76|80:129,1,71.9999980926514,4|0,1:0|0:0,0:0:0:0:
30,328,241795,2,0,L|262:348,1,215.999994277954,8|0,1:0|0:0,0:0:0:0:
55,320,242095,2,0,L|287:340,1,215.999994277954,4|0,3:0|0:0,0:0:0:0:
457,222,242470,1,2,0:0:0:0:
422,230,242545,1,0,0:0:0:0:
387,239,242620,2,0,P|333:236|299:219,1,71.9999980926514,4|0,3:0|0:0,0:0:0:0:
346,28,242770,2,0,P|365:77|367:108,1,71.9999980926514,4|0,3:0|0:0,0:0:0:0:
180,226,242920,2,0,P|202:152|214:138,1,71.9999980926514,4|0,3:0|0:0,0:0:0:0:
286,146,243070,6,0,P|257:92|120:112,1,215.999994277954,8|0,1:0|0:0,0:0:0:0:
80,235,243370,1,0,0:0:0:0:
35,171,243445,2,0,L|29:89,1,71.9999980926514
97,237,243595,2,0,L|81:316,1,71.9999980926514,2|0,0:0|0:0,0:0:0:0:
180,222,243745,2,0,L|175:153,1,58.499995772362,2|0,0:0|0:0,0:0:0:0:
249,269,243895,2,0,L|254:322,1,44.9999988079071,4|0,3:0|0:0,0:0:0:0:
309,197,244045,2,0,L|309:125,1,58.499995772362
395,211,244195,2,0,L|406:308,1,76.4999994325638,8|0,1:0|0:0,0:0:0:0:
425,126,244495,6,0,L|412:301,1,152.999998865128
430,271,244945,6,0,B|381:279|381:279|344:274,1,76.4999994325638
36,208,245095,1,0,0:0:0:0:
94,155,245170,2,0,P|161:137|232:153,1,139.499997368813,2|0,0:0|0:0,0:0:0:0:
425,126,245395,6,0,P|364:104|291:105,1,135.000001573563,4|0,1:0|0:0,0:0:0:0:
6,62,245695,2,0,P|122:35|207:43,1,202.500002360344,4|0,3:0|0:0,0:0:0:0:
293,106,245995,1,0,0:0:0:0:
226,152,246070,1,0,0:0:0:0:
361,51,246220,6,0,L|369:186,1,135.000001573563,4|0,3:0|0:0,0:0:0:0:
162,273,246445,2,0,L|158:205,1,67.5000007867814
293,106,246595,6,0,L|305:308,1,202.500002360344,8|0,1:0|0:0,0:0:0:0:
226,152,246895,2,0,L|234:287,1,135.000001573563,4|0,3:0|0:0,0:0:0:0:
178,348,247120,1,0,0:0:0:0:
71,187,247270,6,0,P|82:227|73:270,1,67.5000007867814
79,252,247420,2,0,P|49:217|52:167,1,78.749998664856
65,40,247570,2,0,P|80:106|40:192,1,157.499997329712,2|0,0:0|0:0,0:0:0:0:
81,328,247795,5,0,0:0:0:0:
67,332,247870,2,0,P|8:285|3:261,1,78.749998664856,2|0,0:0|0:0,0:0:0:0:
158,27,248095,6,0,L|173:113,1,78.749998664856,0|0,1:0|0:0,0:0:0:0:
265,89,248245,1,0,0:0:0:0:
271,97,248320,2,0,L|234:270,1,157.499997329712,2|0,0:0|0:0,0:0:0:0:
69,214,248545,6,0,P|97:205|153:211,1,78.749998664856
331,268,248695,2,0,B|377:281|377:281|429:278,1,78.749998664856,4|0,3:0|0:0,0:0:0:0:
67,186,248845,2,0,L|151:197,1,78.749998664856
389,207,248995,2,0,B|446:191|507:117|507:117|511:176|480:215,1,236.249995994568,8|0,1:0|0:0,0:0:0:0:
356,140,249295,6,0,P|411:108|456:45,1,116.999991544724,2|0,0:0|0:0,0:0:0:0:
331,17,249595,1,0,1:0:0:0:
124,96,249745,1,0,0:0:0:0:
279,170,249895,1,0,0:0:0:0:
186,25,250045,1,0,0:0:0:0:
173,185,250195,1,4,1:0:0:0:
105,245,250345,1,0,0:0:0:0:
171,289,250495,1,0,0:0:0:0:
110,333,250645,1,0,0:0:0:0:
162,379,250870,6,0,L|291:366,1,116.999991544724
294,288,251770,5,0,0:0:0:0:
294,288,251845,2,0,L|365:292,1,58.499995772362
416,238,252145,1,0,0:0:0:0:
441,342,252295,1,0,0:0:0:0:
342,204,252445,1,0,0:0:0:0:
448,162,252595,1,0,0:0:0:0:
352,110,253120,6,0,P|300:116|278:130,1,58.499995772362
223,183,253420,1,0,0:0:0:0:
152,118,253570,1,0,0:0:0:0:
128,241,253720,2,0,L|120:318,2,58.499995772362
95,182,254095,5,0,0:0:0:0:
40,288,254245,1,0,0:0:0:0:
195,351,254395,1,0,0:0:0:0:
268,311,254920,5,0,0:0:0:0:
278,304,254995,2,0,L|286:217,1,71.9999980926514
345,183,255220,2,0,P|358:218|349:268,1,71.9999980926514
207,156,255520,2,0,B|241:140|241:140|286:140,1,71.9999980926514
161,292,255820,2,0,L|142:181,1,99.0000003986359
74,111,256045,5,0,0:0:0:0:
67,134,256120,1,0,0:0:0:0:
61,159,256195,2,0,L|57:270,1,99.0000003986359
93,340,256495,1,0,0:0:0:0:
161,293,256645,1,0,0:0:0:0:
238,359,256795,1,0,0:0:0:0:
380,290,257320,6,0,L|304:296,1,67.5000007867814
243,203,257620,2,0,L|317:209,1,67.5000007867814
244,336,257920,2,0,P|235:284|247:253,1,67.5000007867814
243,203,258145,2,0,P|246:153|236:130,1,67.5000007867814
186,68,258445,5,0,0:0:0:0:
322,93,258595,2,0,L|397:97,2,67.5000007867814
156,146,259045,1,0,0:0:0:0:
251,16,259195,1,0,0:0:0:0:
337,13,259495,6,0,L|264:25,1,67.5000007867814
104,150,260545,6,0,L|110:191,1,24.750000099659
176,197,260770,2,0,L|166:254,1,49.500000199318
244,258,260995,2,0,B|254:353|254:353|275:325,1,123.750000498295
382,289,261820,6,0,P|338:285|316:290,1,49.500000199318
268,333,262120,1,0,0:0:0:0:
176,303,262270,1,0,0:0:0:0:
86,348,262420,2,0,P|50:351|31:339,1,49.500000199318
69,274,262645,5,0,0:0:0:0:
69,274,262720,1,0,0:0:0:0:
126,191,262870,1,0,0:0:0:0:
38,100,263020,2,0,L|43:163,1,49.500000199318
186,131,263320,2,0,L|191:60,1,58.499995772362
355,170,263620,2,0,L|367:85,1,76.4999994325638
404,328,263920,2,0,L|394:274,1,38.2499997162819
277,118,264295,5,0,0:0:0:0:
496,188,264445,2,0,P|430:214|406:214,1,76.4999994325638
264,242,264670,2,0,B|304:236|304:236|354:251,1,76.4999994325638
261,322,264895,2,0,P|206:301|188:255,1,89.9999976158143
164,204,265120,2,0,P|158:252|99:293,1,107.999993843079
108,82,265420,6,0,L|216:99,1,107.999993843079
385,40,265720,2,0,L|324:47,1,53.9999969215394
234,174,266020,6,0,L|251:301,1,107.999993843079
360,281,266320,2,0,L|352:358,1,53.9999969215394
178,321,266695,6,0,P|207:351|234:357,1,53.9999969215394,2|0,0:0|0:0,0:0:0:0:
369,279,266845,2,0,P|334:302|315:310,1,53.9999969215394
140,218,266995,2,0,P|181:231|199:235,1,53.9999969215394
398,175,267145,2,0,L|341:189,1,53.9999969215394
86,117,267295,2,0,L|211:132,1,107.999993843079,0|0,1:0|0:0,0:0:0:0:
272,79,267520,2,0,P|240:50|221:41,1,53.9999969215394
81,110,267670,6,0,L|85:168,1,53.9999969215394
270,139,267820,2,0,L|278:78,1,53.9999969215394
46,230,267970,2,0,L|105:245,1,53.9999969215394
370,298,268120,1,0,0:0:0:0:
370,298,268195,2,0,P|405:245|407:191,1,107.999993843079,0|0,0:0|0:0,0:0:0:0:
408,76,268420,6,0,P|356:67|269:89,1,135.000001573563,0|0,1:0|0:0,0:0:0:0:
28,321,268720,2,0,L|190:336,1,135.000001573563
318,231,269020,5,0,0:0:0:0:
252,259,269095,2,0,B|206:255|206:255|167:267|167:267|111:263,1,135.000001573563
47,160,269320,2,0,B|49:247|49:247|57:220|79:203,1,135.000001573563
136,164,269545,6,0,P|170:154|211:155,1,67.5000007867814,2|0,0:0|0:0,0:0:0:0:
274,162,269695,1,0,0:0:0:0:
345,186,269770,2,0,P|389:188|427:183,1,67.5000007867814
202,154,269920,6,0,P|186:214|202:287,1,135.000001573563
389,315,270220,1,0,0:0:0:0:
234,80,270370,1,0,0:0:0:0:
161,98,270445,2,0,B|151:98|122:125|122:125|140:143|203:155,1,135.000001573563
436,203,270670,6,0,P|492:205|515:202,1,67.5000007867814,4|0,1:0|0:0,0:0:0:0:
119,222,270820,2,0,P|91:229|73:234,1,44.9999988079071
389,315,270970,1,0,0:0:0:0:
118,222,271345,6,0,P|101:182|96:166,1,44.9999988079071
389,315,271495,2,0,P|411:348|421:378,1,67.5000007867814
229,76,271645,2,0,P|236:22|253:-3,1,78.749998664856
98,308,271795,2,0,L|21:323,1,78.749998664856
390,222,271945,2,0,L|460:233,1,56.2499985098839,2|0,0:0|0:0,0:0:0:0:
151,96,272095,2,0,L|97:103,1,44.9999988079071
270,314,272245,6,0,B|337:307|337:307|388:315|388:315|470:305,1,202.500002360344
107,104,272545,2,0,L|201:122,1,78.749998664856,0|0,1:0|0:0,0:0:0:0:
342,150,272695,2,0,L|250:170,1,89.9999976158143
41,143,272845,5,0,0:0:0:0:
107,105,272920,2,0,L|202:121,1,89.9999976158143
258,174,273070,2,0,B|344:155|344:155|398:162,1,135.000001573563,4|0,1:0|0:0,0:0:0:0:
35,271,273370,2,0,P|20:215|49:131,1,135.000001573563
469,53,273820,5,0,0:0:0:0:
397,99,273895,2,0,P|329:108|309:102,1,67.5000007867814
170,40,274045,2,0,P|221:45|255:62,1,67.5000007867814
331,108,274195,2,0,P|337:150|334:186,1,67.5000007867814
106,59,274345,2,0,P|159:40|179:39,1,67.5000007867814,2|0,0:0|0:0,0:0:0:0:
401,189,274495,2,0,L|330:175,1,67.5000007867814
31,181,274645,2,0,P|91:156|181:152,1,135.000001573563,0|0,1:0|0:0,0:0:0:0:
452,281,274870,2,0,P|363:261|291:267,1,135.000001573563
319,262,275320,6,0,P|285:272|271:281,1,44.9999988079071
144,239,275470,2,0,P|182:254|196:263,1,44.9999988079071
419,143,275620,2,0,P|357:151|279:179,1,135.000001573563,0|0,1:0|0:0,0:0:0:0:
79,44,275845,2,0,P|151:43|232:82,1,135.000001573563
290,178,276295,6,0,P|286:216|279:243,1,44.9999988079071
137,169,276445,2,0,P|130:130|133:109,1,56.2499985098839
385,118,276595,2,0,L|395:213,1,80.9999953823091
409,99,276745,2,0,L|404:187,1,80.9999953823091,2|0,0:0|0:0,0:0:0:0:
311,357,276895,6,0,P|303:309|302:289,1,67.5000007867814,2|0,0:0|0:0,0:0:0:0:
205,313,277045,1,0,0:0:0:0:
149,261,277120,2,0,B|106:253|54:264|40:272|40:272|66:296,1,134.999996423721
225,241,277420,2,0,B|209:202|181:187|145:183|145:183|127:147|150:104,1,179.999995231629,0|0,1:0|0:0,0:0:0:0:
194,49,277720,2,0,P|219:83|223:121,1,67.5000007867814
70,142,277870,1,0,0:0:0:0:
337,249,278095,6,0,P|359:180|351:108,1,135.000001573563
354,118,278320,2,0,P|322:186|337:318,1,179.999995231629,0|0,1:0|0:0,0:0:0:0:
359,368,278545,1,0,0:0:0:0:
146,110,278620,2,0,P|136:182|154:304,1,179.999995231629
480,335,278845,2,0,P|499:275|502:236,1,89.9999976158143,4|0,1:0|0:0,0:0:0:0:
108,53,279970,5,0,0:0:0:0:
66,113,280045,2,0,L|56:198,1,67.5000007867814
129,191,280270,2,0,L|133:269,1,67.5000007867814
85,317,280495,2,0,P|132:330|175:316,1,67.5000007867814
229,280,280795,1,0,0:0:0:0:
229,280,280870,2,0,B|272:291|272:291|316:283,1,67.5000007867814
481,215,281245,2,0,B|424:225|424:225|369:212,1,101.250001180172
296,71,281770,5,0,0:0:0:0:
296,71,281845,2,0,P|242:61|223:62,1,67.5000007867814
144,80,282145,2,0,P|108:88|71:86,2,67.5000007867814
236,55,282595,1,0,0:0:0:0:
176,148,282745,2,0,L|189:228,1,67.5000007867814
267,266,283045,1,0,0:0:0:0:
106,206,283195,2,0,L|129:275,1,67.5000007867814
176,327,283420,5,0,0:0:0:0:
37,134,283645,2,0,L|26:229,1,89.9999976158143
251,308,284170,5,0,0:0:0:0:
251,308,284245,2,0,L|344:311,1,71.9999980926514
376,207,284545,2,0,L|390:275,1,53.9999969215394
403,333,284695,1,0,0:0:0:0:
304,236,284845,2,0,P|297:194|321:150,1,71.9999980926514
372,129,285070,2,0,P|379:87|343:31,1,107.999997138977
211,138,285445,1,0,0:0:0:0:
206,120,285520,1,0,0:0:0:0:
305,96,285670,2,0,B|266:88|266:88|195:106,1,107.999997138977
114,192,286045,6,0,P|123:147|105:96,1,89.9999976158143
56,55,286270,1,0,0:0:0:0:
56,55,286345,1,0,0:0:0:0:
60,239,286495,1,0,0:0:0:0:
120,281,286570,2,0,L|113:189,1,89.9999976158143
179,45,286870,1,0,0:0:0:0:
215,204,287020,1,0,0:0:0:0:
344,22,287170,2,0,B|361:70|361:70|355:139,1,107.999993843079
329,287,287470,1,0,0:0:0:0:
319,280,287545,2,0,P|277:265|206:283,1,107.999993843079
54,343,287845,6,0,B|97:328|143:351|143:351|171:339|171:339|209:361|248:346,1,202.500002360344
43,78,288295,1,0,0:0:0:0:
164,114,288370,1,2,0:0:0:0:
151,188,289045,5,0,0:0:0:0:
218,217,289120,2,0,L|227:255,1,22.4999994039536
289,208,289270,2,0,L|320:245,2,44.9999988079071
282,116,289795,5,2,0:0:0:0:
285,126,290095,5,0,0:0:0:0:
358,166,290245,2,0,P|392:155|412:146,1,44.9999988079071
418,145,290470,2,0,P|416:182|431:247,1,87.749993658543
460,330,290845,1,0,0:0:0:0:
460,330,290920,1,0,0:0:0:0:
273,310,291070,2,0,L|213:315,1,58.499995772362
155,273,291295,1,0,0:0:0:0:
61,150,291445,1,0,0:0:0:0:
216,137,291595,1,0,0:0:0:0:
82,245,291745,6,0,L|4:257,1,71.9999980926514
57,323,291970,1,0,0:0:0:0:
66,145,292120,2,0,L|112:136,1,35.9999990463257,0|2,0:0|0:0,0:0:0:0:
216,227,292270,2,0,L|299:231,1,80.9999953823091
361,196,292495,2,0,P|328:164|289:160,1,80.9999953823091
176,294,292795,1,0,0:0:0:0:
409,271,292945,6,0,B|360:283|360:283|323:308|323:308|269:322,1,148.500000597954
183,284,293245,2,0,P|194:321|190:348,1,49.500000199318
122,317,293395,6,0,B|102:285|121:244|121:244|127:216|105:172,1,116.999991544724
60,154,293620,2,0,P|111:129|170:149,1,116.999991544724
269,237,293920,2,0,P|332:260|382:245,1,116.999991544724
363,112,294145,6,0,P|324:134|331:188,1,103.499999232292
416,181,294370,1,0,0:0:0:0:
296,38,294595,5,2,0:0:0:0:
214,98,294695,1,0,0:0:0:0:
121,17,294795,1,0,0:0:0:0:
12,155,294970,6,0,L|90:165,1,51.7499996161461
186,16,295120,2,0,L|108:6,1,51.7499996161461
140,314,295345,6,0,L|159:164,1,125.999992816925
247,143,295570,2,0,P|259:181|255:217,1,62.9999964084627
57,171,295720,2,0,P|72:134|98:109,1,62.9999964084627
307,80,295870,6,0,L|391:86,1,67.5000007867814,0|0,1:0|0:0,0:0:0:0:
467,287,296020,1,0,0:0:0:0:
226,51,296170,6,0,L|151:57,1,67.5000007867814
187,199,296320,2,0,L|112:205,1,67.5000007867814
155,348,296470,2,0,L|0:360,1,135.000001573563,0|0,1:0|0:0,0:0:0:0:
261,168,296770,6,0,P|265:217|252:248,1,67.5000007867814
23,117,296920,1,0,0:0:0:0:
89,107,296995,1,0,0:0:0:0:
156,97,297070,2,0,L|238:97,1,67.5000007867814,0|0,1:0|0:0,0:0:0:0:
402,184,297220,2,0,L|349:178,1,44.9999988079071
152,286,297370,2,0,L|207:281,1,33.7500003933907
410,288,297520,2,0,L|348:278,1,49.500000199318
237,98,297670,6,0,B|246:152|256:162|256:162|254:178|254:178|269:201|266:256,1,148.500000597954,0|0,1:0|0:0,0:0:0:0:
44,304,297970,6,0,P|74:321|109:332,1,49.500000199318
395,195,298120,2,0,P|353:207|326:208,1,58.499995772362
237,52,298270,6,0,B|218:108|244:165|244:165|215:196|215:196|239:253|212:333,1,269.999992847443,4|0,1:0|0:0,0:0:0:0:
305,73,298570,2,0,P|304:121|323:152,1,67.5000007867814
151,229,298720,2,0,P|152:277|133:308,1,67.5000007867814
393,351,298870,1,0,1:0:0:0:
393,351,299095,6,0,P|406:302|401:278,1,67.5000007867814
346,203,299245,2,0,L|431:191,1,67.5000007867814,4|0,3:0|0:0,0:0:0:0:
273,20,299395,2,0,P|260:77|299:147,1,135.000001573563,8|0,1:0|0:0,0:0:0:0:
476,212,299695,2,0,L|340:215,1,135.000001573563,0|0,1:0|0:0,0:0:0:0:
139,186,299995,6,0,L|217:174,1,67.5000007867814,2|0,0:0|0:0,0:0:0:0:
250,263,300145,2,0,L|201:257,1,44.9999988079071
122,346,300295,2,0,P|133:311|127:256,1,89.9999976158143
89,47,300520,1,0,0:0:0:0:
75,58,300595,6,0,B|54:131|54:131|78:191,1,135.000001573563,4|0,1:0|0:0,0:0:0:0:
76,186,300820,2,0,P|132:166|207:176,1,135.000001573563
287,202,301045,2,0,P|315:222|333:250,1,67.5000007867814
209,260,301194,2,0,P|199:293|177:318,1,67.5000007867814
159,110,301345,2,0,P|148:78|150:44,1,67.5000007867814
257,110,301495,2,0,P|284:89|317:81,1,67.5000007867814
129,203,301646,2,0,P|95:204|64:192,1,67.5000007867814,4|0,3:0|0:0,0:0:0:0:
5,291,301795,6,0,P|82:281|136:308,1,135.000001573563,2|0,1:2|0:0,0:0:0:0:
209,345,302020,1,0,0:0:0:0:
258,295,302095,2,0,P|300:307|397:267,1,135.000001573563,4|0,3:0|0:0,0:0:0:0:
424,203,302320,6,0,P|373:194|340:205,1,67.5000007867814
437,359,302470,2,0,P|470:319|477:285,1,67.5000007867814
486,147,302620,1,0,0:0:0:0:
68,86,302995,6,0,L|90:156,1,67.5000007867814,4|0,1:0|0:0,0:0:0:0:
96,169,303145,2,0,L|117:76,1,74.2499987411499
183,52,303295,5,0,0:0:0:0:
255,37,303370,1,0,0:0:0:0:
325,59,303445,1,0,0:0:0:0:
376,112,303520,1,0,0:0:0:0:
396,183,303595,2,0,P|397:217|396:241,1,33.7500003933907
344,341,303745,6,0,P|323:264|327:185,1,143.999996185303
431,52,303970,2,0,P|453:91|452:133,1,71.9999980926514,4|0,3:0|0:0,0:0:0:0:
467,268,304120,1,8,1:0:0:0:
449,271,304195,1,0,0:0:0:0:
431,275,304270,1,0,0:0:0:0:
414,279,304345,1,0,0:0:0:0:
345,339,304420,6,0,B|311:346|311:346|262:340,1,71.9999980926514,0|0,1:0|0:0,0:0:0:0:
169,235,304570,2,0,B|203:228|203:228|252:234,1,71.9999980926514
193,320,304720,6,0,L|130:338,1,56.2499985098839
330,182,304870,2,0,L|403:203,1,71.9999980926514
254,75,305020,2,0,L|178:96,1,58.499995772362
349,37,305170,5,0,0:0:0:0:
93,15,305320,1,0,0:0:0:0:
211,239,305470,6,0,P|208:268|194:303,1,58.499995772362
237,138,305620,2,0,P|213:120|186:88,1,58.499995772362,0|4,0:0|1:0,0:0:0:0:
311,211,305770,2,0,P|337:199|374:193,1,58.499995772362
133,253,305995,5,0,0:0:0:0:
94,248,306070,1,0,0:0:0:0:
55,243,306145,1,0,0:0:0:0:
16,239,306220,2,0,L|28:305,1,58.499995772362
188,195,306370,2,0,L|206:130,1,58.499995772362,0|4,0:0|3:0,0:0:0:0:
284,282,306520,1,0,0:0:0:0:
284,282,306595,1,8,1:0:0:0:
284,282,306670,2,0,L|270:361,1,58.499995772362
361,242,306820,2,0,L|351:187,1,44.9999988079071,0|0,0:0|1:0,0:0:0:0:
449,298,306970,2,0,L|439:364,1,51.7499996161461
483,196,307120,5,0,0:0:0:0:
360,98,307270,1,0,0:0:0:0:
219,169,307420,1,2,0:0:0:0:
219,169,307795,6,0,P|151:150|131:155,1,71.9999980926514
293,215,307945,2,0,P|361:234|381:229,1,71.9999980926514
151,150,308095,2,0,P|89:184|78:202,1,71.9999980926514
345,149,308245,2,0,P|313:84|245:52,1,143.999996185303
97,44,308470,2,0,P|129:43|171:17,1,71.9999980926514
219,169,308620,2,0,P|187:168|145:142,1,71.9999980926514
261,43,308845,5,4,3:0:0:0:
399,100,308995,2,0,L|451:171,1,80.9999953823091,8|0,1:0|0:0,0:0:0:0:
334,251,309145,2,0,L|281:179,1,80.9999953823091
479,88,309295,2,0,L|387:100,1,80.9999953823091,0|0,1:0|0:0,0:0:0:0:
287,186,309445,2,0,L|452:164,1,161.999990764618
494,229,309670,2,0,L|328:250,1,161.999990764618
198,329,310195,6,0,P|180:282|179:251,1,71.9999980926514,0|0,1:0|0:0,0:0:0:0:
289,84,310345,2,0,P|307:131|308:162,1,71.9999980926514
36,234,310495,6,0,L|116:222,1,80.9999953823091
388,140,310645,2,0,L|307:151,1,80.9999953823091
38,116,310795,2,0,L|105:141,1,71.9999980926514
356,253,310954,2,0,L|288:227,1,71.9999980926514
171,174,311095,6,0,L|245:201,1,58.499995772362
417,302,311245,2,0,P|431:269|430:248,1,40.4999976911546,4|0,3:0|0:0,0:0:0:0:
386,141,311395,6,0,P|427:181|478:196,1,83.2499974770546,8|0,1:0|0:0,0:0:0:0:
474,102,311545,5,0,0:0:0:0:
482,78,311620,1,0,0:0:0:0:
394,22,311695,5,0,1:0:0:0:
402,46,311770,1,0,0:0:0:0:
328,79,311845,2,0,P|241:58|95:90,1,222.74999622345
58,157,312145,2,0,P|56:223|70:247,1,74.2499987411499
334,320,312595,6,0,P|368:292|391:251,1,74.2499987411499,4|0,1:0|0:0,0:0:0:0:
326,61,312745,2,0,P|284:45|237:46,1,74.2499987411499
106,197,312895,2,0,P|113:240|137:280,1,74.2499987411499
386,266,313045,2,0,P|405:175|378:106,1,148.4999974823
226,116,313270,6,0,P|195:137|177:167,1,53.9999969215394,2|0,0:0|0:0,0:0:0:0:
205,255,313420,2,0,P|228:269|254:274,1,53.9999969215394
336,204,313570,2,0,P|336:177|327:151,1,53.9999969215394
176,35,313720,6,0,P|142:57|110:91,1,76.4999994325638,0|8,0:0|1:0,0:0:0:0:
160,339,313870,2,0,P|193:357|230:367,1,76.4999994325638
431,201,314021,2,0,P|430:163|420:126,1,76.4999994325638,0|0,0:0|1:0,0:0:0:0:
325,31,314170,2,0,P|247:17|176:34,1,152.999998865128
83,127,314395,1,0,0:0:0:0:
75,142,314470,6,0,P|110:155|157:142,1,76.4999994325638
389,60,314620,2,0,P|361:84|348:131,1,76.4999994325638
303,373,314770,2,0,P|296:336|262:302,1,76.4999994325638
162,229,314920,6,0,P|141:277|148:316,1,76.4999994325638
298,235,315070,2,0,P|292:182|266:152,1,76.4999994325638
134,83,315220,2,0,P|166:103|227:102,1,76.4999994325638,4|0,3:0|0:0,0:0:0:0:
428,112,315370,6,0,P|367:89|258:92,1,152.999998865128,4|0,3:0|0:0,0:0:0:0:
52,49,315670,2,0,P|116:7|203:36,2,152.999998865128
156,293,316120,6,0,L|190:210,1,76.4999994325638,0|8,0:0|1:0,0:0:0:0:
277,26,316270,1,0,0:0:0:0:
44,126,316420,2,0,B|35:177|35:177|51:210|51:210|36:292,1,152.999998865128
21,355,316645,1,0,0:0:0:0:
119,157,316795,1,0,0:0:0:0:
290,356,316945,1,0,0:0:0:0:
445,33,317095,1,0,0:0:0:0:
128,260,317320,5,2,0:0:0:0:
181,312,318970,2,0,P|226:329|278:321,1,89.9999976158143
331,255,319270,1,0,0:0:0:0:
336,239,319345,2,0,P|341:207|340:190,1,44.9999988079071
379,124,319570,2,0,P|338:114|304:120,1,71.9999980926514
261,182,319795,2,0,L|175:186,1,80.9999953823091
111,221,320395,6,0,P|104:179|114:148,1,62.9999964084627
159,103,320620,2,0,L|240:87,2,62.9999964084627
79,55,321070,1,0,0:0:0:0:
212,236,321295,1,0,0:0:0:0:
280,29,321445,6,0,B|305:28|305:28|320:34|320:34|352:33,1,62.9999964084627
422,65,321695,2,0,P|458:72|489:63,2,41.9999976056418
429,164,321970,2,0,P|394:187|345:192,1,76.4999994325638
245,41,322195,2,0,B|278:35|278:35|313:49|313:49|354:45,1,107.999993843079
325,128,322645,6,0,P|298:152|286:193,1,76.4999994325638
297,262,322870,2,0,B|258:270|258:270|208:260,1,76.4999994325638
173,207,323095,2,0,P|151:241|157:290,1,76.4999994325638
64,331,323320,5,0,0:0:0:0:
73,315,323395,2,0,P|78:262|55:213,1,76.4999994325638
33,175,323620,1,0,0:0:0:0:
160,68,323770,1,0,0:0:0:0:
173,207,323920,2,0,P|132:181|99:108,1,125.999992816925
218,16,324220,5,0,0:0:0:0:
218,16,324295,1,0,0:0:0:0:
247,191,324445,2,0,B|255:227|235:257|235:257|224:288|233:332,1,128.249993177891
306,343,325195,5,0,0:0:0:0:
306,343,325270,2,0,P|355:348|407:330,1,85.4999954519273
451,289,325495,2,0,P|403:261|345:274,1,103.499999232292
283,253,325720,2,0,P|307:209|344:195,1,85.4999954519273
492,187,326020,2,0,B|499:140|499:140|483:86,2,85.4999954519273
425,213,326395,1,0,0:0:0:0:
232,112,326545,6,0,L|341:125,1,99.0000003986359
346,125,326845,2,0,L|243:63,1,112.499997019768
151,17,327070,6,0,L|159:105,1,76.4999994325638
65,264,329695,5,0,0:0:0:0:
207,328,329845,2,0,L|301:315,1,76.4999994325638
352,278,330070,2,0,L|447:288,1,76.4999994325638
477,197,330370,1,0,0:0:0:0:
442,358,330520,1,0,0:0:0:0:
401,173,330670,2,0,B|411:134|411:134|405:88,1,76.4999994325638
343,53,330895,1,0,0:0:0:0:
328,44,330970,2,0,P|298:41|260:47,1,58.499995772362
171,126,331270,6,0,P|113:133|79:121,1,89.9999976158143
80,0,331570,1,0,0:0:0:0:
128,57,331645,1,0,0:0:0:0:
216,43,332245,6,0,P|251:52|280:52,1,44.9999988079071
333,46,332395,2,0,P|387:43|433:52,1,89.9999976158143
478,97,332620,2,0,P|416:100|377:124,1,89.9999976158143
344,167,332845,2,0,L|352:215,1,44.9999988079071
273,323,333070,2,0,L|285:228,1,89.9999976158143
211,78,333370,6,0,L|223:210,1,112.499997019768
171,242,333595,1,0,0:0:0:0:
95,188,333745,1,0,0:0:0:0:
72,291,333895,1,0,0:0:0:0:
124,81,334045,5,0,0:0:0:0:
12,136,334195,1,0,0:0:0:0:
79,203,334645,2,0,L|127:211,1,35.9999990463257
145,274,334795,2,0,B|180:265|180:265|201:271|201:271|256:259,1,94.499994612694
277,206,335020,1,0,0:0:0:0:
350,328,335170,6,0,P|364:279|365:257,1,47.249997306347
415,234,335320,2,0,P|410:173|424:127,1,107.999993843079
475,73,335545,5,0,0:0:0:0:
320,56,335695,1,0,0:0:0:0:
320,56,335770,1,0,0:0:0:0:
346,176,335920,1,0,0:0:0:0:
392,24,336070,1,0,0:0:0:0:
140,133,336220,5,0,0:0:0:0:
282,125,336370,1,0,0:0:0:0:
218,252,336520,1,0,0:0:0:0:
218,252,336595,1,0,0:0:0:0:
218,252,336670,5,0,3:0:0:0:
218,252,337045,6,0,P|194:256|181:258,1,22.4999994039536
129,234,337195,2,0,L|71:241,1,44.9999988079071
84,162,337420,2,0,L|26:154,1,44.9999988079071
14,89,337645,5,0,3:0:0:0:
232,41,337795,1,0,1:0:0:0:
299,285,338095,1,0,3:0:0:0:
195,286,338320,2,0,P|229:297|249:296,1,31.4999982042313
408,270,338470,2,0,P|376:292|368:348,1,94.499994612694
299,285,338770,2,0,P|283:243|257:223,1,62.9999964084627
202,198,339595,6,0,P|234:164|264:159,1,62.9999964084627
327,161,339895,1,0,0:0:0:0:
357,167,339970,1,0,0:0:0:0:
455,194,340195,2,0,P|467:152|464:100,1,80.9999953823091,2|0,1:2|0:0,0:0:0:0:
429,55,340420,1,0,0:0:0:0:
421,46,340495,2,0,B|370:35|370:35|321:42,1,80.9999953823091
256,88,340720,1,0,0:0:0:0:
240,100,340795,1,0,0:0:0:0:
128,176,340945,2,0,P|78:180|23:146,1,94.499994612694
329,114,341245,6,0,B|338:157|338:157|327:218,1,94.499994612694,0|0,0:0|3:0,0:0:0:0:
227,265,341920,6,0,P|264:262|318:296,1,94.499994612694
372,329,342145,2,0,B|389:298|379:269|379:269|366:242|366:215,1,94.499994612694
440,226,342370,1,0,0:0:0:0:
431,207,342445,1,0,0:0:0:0:
299,213,342595,2,0,P|325:179|390:169,1,94.499994612694,0|0,1:0|0:0,0:0:0:0:
481,291,342895,1,0,0:0:0:0:
473,308,342970,2,0,P|431:331|377:334,1,94.499994612694
166,296,343345,1,0,0:0:0:0:
148,285,343420,2,0,P|136:241|150:191,1,94.499994612694
203,142,343645,5,0,0:0:0:0:
64,229,343795,1,0,0:0:0:0:
239,301,343945,2,0,B|288:310|288:310|342:278,1,112.499997019768,0|0,0:0|3:0,0:0:0:0:
377,90,344245,1,0,0:0:0:0:
423,147,344320,1,0,0:0:0:0:
224,26,344470,2,0,B|264:14|304:16|304:16|340:48,1,112.499997019768
273,97,344695,2,0,P|235:125|216:195,1,112.499997019768
447,268,344995,6,0,P|415:234|339:201,1,112.499997019768,2|0,1:2|0:0,0:0:0:0:
291,237,345220,1,0,0:0:0:0:
64,122,345370,1,0,0:0:0:0:
152,324,345520,1,0,0:0:0:0:
382,42,345670,2,0,B|432:26|432:26|465:36|465:36|536:27,1,135.000001573563
102,243,346045,2,0,P|65:298|73:364,1,135.000001573563
81,372,346870,5,0,0:0:0:0:
213,269,347020,2,0,P|253:262|286:270,1,67.5000007867814
343,308,347245,2,0,P|387:312|415:301,1,67.5000007867814
462,181,347620,2,0,P|419:173|359:191,1,101.250001180172
364,187,347920,5,0,0:0:0:0:
291,90,348070,1,0,0:0:0:0:
274,81,348145,2,0,L|210:73,1,53.9999969215394
110,157,348445,2,0,L|208:143,1,80.9999953823091
265,165,349045,5,0,0:0:0:0:
265,165,349120,2,0,L|335:170,1,53.9999969215394
378,215,349345,2,0,L|409:218,1,26.9999984607697
501,134,349645,2,0,L|387:144,1,94.499994612694
309,80,349945,2,0,L|370:82,1,53.9999969215394
437,63,350245,1,0,0:0:0:0:
333,153,350395,1,0,0:0:0:0:
230,81,350545,2,0,L|175:74,1,53.9999969215394
171,85,350770,2,0,L|104:92,1,67.4999982118607
43,145,351520,5,0,0:0:0:0:
53,155,351670,2,0,P|93:171|110:170,1,44.9999988079071
108,170,351895,1,0,0:0:0:0:
178,204,352045,2,0,L|222:208,1,44.9999988079071
318,267,352345,2,0,L|219:282,1,89.9999976158143
223,295,352720,1,0,0:0:0:0:
217,308,352795,1,0,0:0:0:0:
134,276,352945,6,0,L|147:363,1,67.4999982118607
55,367,353245,2,0,L|63:297,1,67.4999982118607
65,287,353545,1,0,0:0:0:0:
81,201,353695,2,0,P|44:203|20:211,2,44.9999988079071
186,124,354145,2,0,L|246:128,1,44.9999988079071
332,171,354445,2,0,P|296:179|274:175,1,44.9999988079071
342,76,354745,6,0,L|436:86,1,89.9999976158143
474,142,355120,1,0,0:0:0:0:
483,152,355195,1,0,0:0:0:0:
421,200,355345,2,0,L|423:258,1,44.9999988079071
346,233,355645,2,0,L|301:298,1,67.4999982118607
208,289,356095,6,0,L|174:279,1,22.4999994039536
221,222,356245,2,0,L|171:204,1,44.9999988079071
238,154,356470,2,0,L|188:136,2,44.9999988079071
298,131,357970,5,0,0:0:0:0:
314,202,358120,2,0,L|307:261,1,44.9999988079071
246,289,358345,2,0,L|195:296,1,44.9999988079071
311,329,358570,2,0,L|363:336,1,44.9999988079071
196,223,358870,6,0,P|153:228|122:220,1,53.9999969215394
192,105,359170,2,0,P|235:100|266:108,1,53.9999969215394
324,238,359470,1,0,0:0:0:0:
261,333,359695,6,0,L|257:265,1,53.9999969215394
256,207,359920,1,0,0:0:0:0:
167,253,360070,2,0,P|124:268|85:265,1,80.9999953823091
339,239,360370,2,0,P|384:243|418:262,1,80.9999953823091
256,192,360970,6,0,L|253:157,1,26.9999984607697
184,148,361120,2,0,L|176:88,1,53.9999969215394
316,119,361345,2,0,L|323:57,2,53.9999969215394
258,191,362770,5,0,0:0:0:0:
263,113,362845,2,0,P|276:59|296:27,1,80.9999953823091
154,185,363070,6,0,P|100:172|68:152,1,80.9999953823091
358,199,363295,2,0,P|412:212|468:260,1,121.499993073464
319,353,363595,1,0,0:0:0:0:
257,313,363670,2,0,P|239:276|231:237,1,80.9999953823091
365,120,364045,2,0,L|278:131,1,80.9999953823091
151,114,364345,5,0,0:0:0:0:
96,47,364495,2,0,L|222:64,1,121.499993073464
290,50,364795,1,0,0:0:0:0:
211,164,364945,6,0,L|229:252,1,80.9999953823091
302,240,365170,2,0,L|289:338,1,87.749993658543
280,332,365470,1,0,0:0:0:0:
269,337,365545,1,2,0:0:0:0:
256,192,384595,12,0,402595,0:0:0:0:
