osu file format v14

[General]
AudioFilename: audio.mp3
AudioLeadIn: 0
PreviewTime: 19751
Countdown: 1
SampleSet: Soft
StackLeniency: 0.7
Mode: 0
LetterboxInBreaks: 0
WidescreenStoryboard: 0

[Editor]
DistanceSpacing: 0.1
BeatDivisor: 4
GridSize: 16
TimelineZoom: 2.2

[Metadata]
Title:New in This Light
TitleUnicode:New in This Light
Artist:Joyce Manor
ArtistUnicode:Joyce Manor
Creator:Pumice
Version:Hungover
Source:
Tags:
BeatmapID:1915141
BeatmapSetID:917008

[Difficulty]
HPDrainRate:5.8
CircleSize:4
OverallDifficulty:9.3
ApproachRate:9.7
SliderMultiplier:1.4
SliderTickRate:1

[Events]
//Background and Video events
0,0,"aaa.jpg",0,0
//Break Periods
//Storyboard Layer 0 (Background)
//Storyboard Layer 1 (Fail)
//Storyboard Layer 2 (Pass)
//Storyboard Layer 3 (Foreground)
//Storyboard Sound Samples

[TimingPoints]
510,304.568527918782,4,2,1,70,1,0
510,-66.6666666666667,4,2,1,70,0,0
2337,303.768527918782,4,2,1,70,1,0
2337,-66.6666666666667,4,2,1,70,0,0
2944,303.768527918782,4,2,1,70,1,0
2944,-66.6666666666667,4,2,1,70,0,0
5352,303.768527918782,4,2,1,70,1,0
5352,-66.6666666666667,4,2,1,70,0,0
10224,303.768527918782,4,2,1,70,1,0
10224,-71.4285714285714,4,2,1,70,0,0
11739,303.768527918782,4,2,1,70,1,0
11739,-71.4285714285714,4,2,1,70,0,0
12650,303.768527918782,4,2,1,70,1,0
12650,-71.4285714285714,4,2,1,70,0,0
15080,311.868527918782,4,2,1,70,1,0
15080,-71.4285714285714,4,2,1,70,0,0
16327,310.368527918782,4,2,1,70,1,0
16327,-71.4285714285714,4,2,1,70,0,0
17548,306.668527918782,4,2,1,70,1,0
17548,-71.4285714285714,4,2,1,70,0,0
19388,291.168527918781,4,2,1,70,1,0
19388,-71.4285714285714,4,2,1,70,0,0
19970,304.668527918781,4,2,1,70,1,0
19970,-57.1428571428571,4,2,1,70,0,0
20579,312.968527918781,4,2,1,70,1,0
20579,-57.1428571428571,4,2,1,70,0,0
22456,310.4,4,2,1,70,1,0
22456,-50,4,2,1,70,0,0
23076,268.4,4,2,1,70,1,0
23076,-50,4,2,1,70,0,0
23612,290,4,2,1,70,1,0
23902,298.700000000001,4,2,1,70,1,0
23902,-50,4,2,1,70,0,0
24798,303.800000000001,4,2,1,70,1,0
24798,-50,4,2,1,70,0,0
25405,280.500000000001,4,2,1,70,1,0
25405,-50,4,2,1,70,0,0
26246,279.600000000001,4,2,1,70,1,0
26805,286.200000000001,4,2,1,70,1,0
27091,286.200000000001,4,2,1,70,1,0
27091,-50,4,2,1,70,0,0
28235,283.100000000001,4,2,1,70,1,0
28518,-50,4,2,1,70,0,0
29084,-133.333333333333,4,2,1,70,0,0
29367,-50,4,2,1,70,0,1
30499,280.5,4,2,1,70,1,1
30779,-50,4,2,1,70,0,1
31060,257.5,4,2,1,70,1,1
31060,-50,4,2,1,70,0,1
31575,286.9,4,2,1,70,1,1
32148,264.1,4,2,1,70,1,1
32544,-50,4,2,1,70,0,1
32676,272.7,4,2,1,70,1,1
32948,-50,4,2,1,70,0,1
33494,296.9,4,2,1,70,1,1
33790,287.8,4,2,1,70,1,1
33790,-50,4,2,1,70,0,1
34365,265.3,4,2,1,70,1,1
34365,-50,4,2,1,70,0,1
35426,276.3,4,2,1,70,1,1
35426,-50,4,2,1,70,0,1
36531,280.3,4,2,1,70,1,1
36531,-50,4,2,1,70,0,1
37091,267.3,4,2,1,70,1,1
38160,-50,4,2,1,70,0,0
38694,275,4,2,1,70,1,0
38694,-55.5555555555556,4,2,1,70,0,0
40894,279.6,4,2,1,70,1,0
40894,-50,4,2,1,70,0,0
42431,-50,4,2,1,70,0,0
43130,277.9,4,2,1,70,1,0
43130,-50,4,2,1,70,0,0
46464,274.9,4,2,1,70,1,0
47013,-50,4,2,1,70,0,1
47563,262.9,4,2,1,70,1,1
47563,-50,4,2,1,70,0,1
48088,283.5,4,2,1,70,1,1
48502,-50,4,2,1,70,0,1
49194,286.5,4,2,1,70,1,1
49194,-50,4,2,1,70,0,1
49767,276.5,4,2,1,70,1,1
50181,-50,4,2,1,70,0,1
50320,266.5,4,2,1,70,1,1
51406,275.8,4,2,1,70,1,1
51406,-50,4,2,1,70,0,1
53612,274.9,4,2,1,70,1,1
53612,-50,4,2,1,70,0,1
54161,251,4,2,1,70,1,1
54161,-50,4,2,1,70,0,1
54663,275,4,2,1,70,1,1
55763,294.5,4,2,1,70,1,0
55763,-57.1428571428571,4,2,1,70,0,0
56352,315.5,4,2,1,70,1,0
56983,293.5,4,2,1,70,1,0
58157,304.5,4,2,1,70,1,0
58157,-66.6666666666667,4,2,1,70,0,0
59375,314.5,4,2,1,70,1,0
60318,-57.1428571428571,4,2,1,70,0,0
60475,-57.1428571428571,4,2,1,5,0,0
60633,304.3,4,2,1,70,1,0
60633,-57.1428571428571,4,2,1,70,0,0
62458,312.6,4,2,1,70,1,0
63083,-66.6666666666667,4,2,1,70,0,0
63708,311.8,4,2,1,70,1,0
64331,310.4,4,2,1,70,1,0
65519,306.4,4,2,1,70,1,0
65519,-66.6666666666667,4,2,1,70,0,0
66131,256.6,4,2,1,70,1,0
66131,-66.6666666666667,4,2,1,70,0,0
66644,308.700000000001,4,2,1,70,1,0
66952,-66.6666666666667,4,2,1,70,0,0
67842,310.700000000001,4,2,1,70,1,0
67842,-66.6666666666667,4,2,1,70,0,0
68463,259.700000000001,4,2,1,70,1,0
68463,-66.6666666666667,4,2,1,70,0,0
68982,311.789473684211,4,2,1,70,1,0
69293,-66.6666666666667,4,2,1,70,0,0
69605,276.18947368421,4,2,1,70,1,0
69881,292.18947368421,4,2,1,70,1,0
69881,-66.6666666666667,4,2,1,70,0,0
70173,303.88947368421,4,2,1,70,1,0
70173,-66.6666666666667,4,2,1,70,0,0
70780,268.88947368421,4,2,1,70,1,0
70780,-66.6666666666667,4,2,1,70,0,0
71317,301.78947368421,4,2,1,70,1,0
71618,-66.6666666666667,4,2,1,70,0,0
71920,294.78947368421,4,2,1,70,1,0
72214,276.78947368421,4,2,1,70,1,0
72214,-66.6666666666667,4,2,1,70,0,0
72490,303.489473684211,4,2,1,70,1,0
72490,-66.6666666666667,4,2,1,70,0,0
73096,239.389473684211,4,2,1,70,1,0
73096,-66.6666666666667,4,2,1,70,0,0
73335,299.4,4,2,1,70,1,0
73933,-66.6666666666667,4,2,1,70,0,0
74235,286.9,4,2,1,70,1,0
74521,-66.6666666666667,4,2,1,70,0,0
75095,-66.6666666666667,4,2,1,45,0,0

[HitObjects]
164,147,510,5,2,1:2:0:0:
199,338,662,1,0,0:0:0:0:
366,245,815,2,0,L|245:234,1,105.000004005432,10|0,0:0|0:0,0:0:0:0:
512,115,1119,2,0,L|407:124,1,105.000004005432,2|0,1:2|0:0,0:0:0:0:
301,13,1424,1,8,0:0:0:0:
233,136,1575,2,0,P|244:203|276:256,1,105.000004005432,2|0,0:0|1:2,0:0:0:0:
382,224,1880,5,0,0:0:0:0:
218,345,2032,2,0,L|75:332,1,105.000004005432,10|0,0:0|0:0,0:0:0:0:
87,164,2337,1,0,1:2:0:0:
34,265,2488,1,0,0:0:0:0:
224,253,2640,1,10,0:0:0:0:
42,62,2792,5,0,0:0:0:0:
42,62,2868,1,0,0:0:0:0:
42,62,2944,6,0,P|83:19|140:3,1,105.000004005432,6|0,1:2|0:0,0:0:0:0:
335,92,3247,2,0,L|218:81,1,105.000004005432,10|0,0:0|0:0,0:0:0:0:
119,262,3551,2,0,L|235:251,1,105.000004005432,2|0,1:2|0:0,0:0:0:0:
406,186,3855,1,8,0:0:0:0:
431,338,4007,1,2,0:0:0:0:
505,163,4159,6,0,P|471:109|422:89,1,105.000004005432,2|0,1:2|0:0,0:0:0:0:
230,82,4462,2,0,L|219:196,2,105.000004005432,10|0|0,0:0|0:0|1:2,0:0:0:0:
99,2,4918,1,0,0:0:0:0:
134,191,5070,1,10,0:0:0:0:
22,126,5222,1,0,0:0:0:0:
22,126,5298,1,0,0:0:0:0:
22,126,5352,6,0,L|31:240,1,105.000004005432,6|0,1:2|0:0,0:0:0:0:
195,349,5655,2,0,P|151:307|87:300,1,105.000004005432,10|0,0:0|0:0,0:0:0:0:
300,384,5959,2,0,L|418:373,1,105.000004005432,2|0,1:2|0:0,0:0:0:0:
296,237,6263,1,8,0:0:0:0:
109,297,6415,2,0,L|120:180,1,105.000004005432,2|0,0:0|1:2,0:0:0:0:
266,314,6718,1,0,0:0:0:0:
219,138,6870,2,0,P|272:112|333:116,1,105.000004005432,10|0,0:0|0:0,0:0:0:0:
216,248,7174,5,0,1:2:0:0:
347,301,7326,1,0,0:0:0:0:
424,156,7478,1,10,0:0:0:0:
485,361,7630,1,0,0:0:0:0:
485,361,7706,1,0,0:0:0:0:
485,361,7782,6,0,L|495:243,1,105.000004005432,6|0,1:2|0:0,0:0:0:0:
439,53,8085,2,8,P|436:118|417:167,1,105.000004005432,10|0,0:0|0:0,0:0:0:0:
277,331,8389,2,0,P|280:266|299:217,1,105.000004005432,2|0,1:2|0:0,0:0:0:0:
383,384,8693,1,8,0:0:0:0:
176,303,8845,1,2,0:0:0:0:
264,131,8997,6,0,P|294:215|284:258,1,105.000004005432,2|0,1:2|0:0,0:0:0:0:
126,113,9300,2,0,L|115:-7,2,105.000004005432,10|0|0,0:0|0:0|1:2,0:0:0:0:
57,251,9756,1,2,0:0:0:0:
292,228,9908,2,0,L|139:213,1,105.000004005432,10|0,0:0|0:0,0:0:0:0:
465,97,10224,6,0,L|324:108,1,97.9999970092774,6|0,1:2|0:0,0:0:0:0:
351,365,10527,2,0,P|406:335|427:267,1,97.9999970092774,10|0,0:0|0:0,0:0:0:0:
284,146,10831,1,0,1:2:0:0:
343,287,10983,1,0,1:2:0:0:
367,104,11135,2,0,L|376:1,2,97.9999970092774,8|2|0,0:0|0:0|1:2,0:0:0:0:
397,222,11590,5,0,0:0:0:0:
224,239,11739,2,0,P|194:274|190:346,2,97.9999970092774,8|0|0,0:0|1:2|1:2,0:0:0:0:
289,352,12194,1,2,1:2:0:0:
284,146,12346,2,0,L|157:134,1,97.9999970092774,10|0,0:0|0:0,0:0:0:0:
44,245,12650,6,0,L|55:371,1,97.9999970092774,6|0,1:2|0:0,0:0:0:0:
103,50,12953,2,0,L|91:176,1,97.9999970092774,10|0,0:0|0:0,0:0:0:0:
182,0,13256,1,0,1:2:0:0:
186,137,13409,1,0,1:2:0:0:
361,79,13561,2,0,L|372:205,1,97.9999970092774,8|0,0:0|0:0,0:0:0:0:
326,297,13865,5,0,1:2:0:0:
462,177,14015,1,0,1:2:0:0:
399,374,14167,1,8,0:0:0:0:
229,305,14319,1,0,1:2:0:0:
365,203,14472,1,0,1:2:0:0:
326,297,14624,1,0,1:2:0:0:
301,125,14776,2,0,P|248:102|189:109,1,97.9999970092774,8|0,0:0|0:0,0:0:0:0:
134,368,15080,6,0,L|125:264,1,97.9999970092774,6|0,1:2|0:0,0:0:0:0:
54,97,15391,1,8,0:0:0:0:
9,246,15547,1,0,1:2:0:0:
127,271,15703,2,0,L|135:167,1,97.9999970092774,2|0,1:2|0:0,0:0:0:0:
207,0,16015,1,8,0:0:0:0:
252,149,16171,1,0,0:0:0:0:
435,98,16328,5,2,1:2:0:0:
263,68,16482,1,2,1:2:0:0:
393,223,16637,1,8,0:0:0:0:
208,213,16792,2,0,P|250:251|272:298,1,97.9999970092774,2|0,1:2|0:0,0:0:0:0:
197,384,17102,1,0,1:2:0:0:
99,319,17258,2,0,L|-14:327,1,97.9999970092774,8|0,0:0|0:0,0:0:0:0:
208,213,17548,6,0,P|210:154|173:93,1,97.9999970092774,6|0,1:2|0:0,0:0:0:0:
27,0,17854,2,0,P|25:59|62:120,1,97.9999970092774,10|0,0:0|0:0,0:0:0:0:
128,44,18161,1,2,1:2:0:0:
100,182,18314,1,0,1:2:0:0:
288,141,18468,1,10,0:0:0:0:
221,0,18621,6,2,L|209:125,2,97.9999970092774,2|2|0,0:0|1:2|0:0,0:0:0:0:
384,180,19081,2,0,L|374:82,1,97.9999970092774,10|0,0:0|0:0,0:0:0:0:
190,276,19388,2,0,L|199:178,1,97.9999970092774,2|0,1:2|0:0,0:0:0:0:
400,353,19679,2,0,L|390:255,1,97.9999970092774,10|0,0:0|0:0,0:0:0:0:
270,367,19970,6,6,B|174:396|174:396|62:331,1,183.750001752377,2|0,0:0|0:0,2:0:0:0:
77,254,20275,1,8,1:2:0:0:
96,238,20350,1,8,0:0:0:0:
120,240,20427,1,8,0:0:0:0:
140,253,20503,1,8,0:0:0:0:
149,274,20579,1,10,1:2:0:0:
159,295,20657,1,8,0:0:0:0:
177,310,20735,1,8,0:0:0:0:
201,307,20813,1,8,0:0:0:0:
222,296,20891,1,8,1:2:0:0:
239,278,20970,1,8,0:0:0:0:
249,255,21048,1,8,0:0:0:0:
251,230,21126,1,8,0:0:0:0:
248,205,21204,5,10,1:2:0:0:
243,180,21283,1,8,0:0:0:0:
241,155,21361,1,8,0:0:0:0:
247,131,21439,1,8,0:0:0:0:
262,112,21517,1,8,1:2:0:0:
284,101,21596,1,8,0:0:0:0:
308,98,21674,1,8,0:0:0:0:
330,107,21752,1,8,0:0:0:0:
347,124,21830,5,10,1:2:0:0:
360,144,21909,1,8,0:0:0:0:
361,168,21987,1,8,0:0:0:0:
352,190,22065,1,8,0:0:0:0:
336,209,22143,5,10,1:2:0:0:
315,222,22222,1,8,0:0:0:0:
290,222,22300,1,8,0:0:0:0:
268,211,22378,1,8,0:0:0:0:
248,190,22456,6,0,P|194:138|66:231,1,210,6|0,1:2|0:0,0:0:0:0:
129,245,22766,2,0,L|143:383,1,140,8|0,0:0|0:0,0:0:0:0:
284,294,23076,2,0,P|319:280|347:234,1,70,2|0,1:2|0:0,0:0:0:0:
396,117,23210,2,0,P|361:131|333:177,1,70,0|0,0:0|0:0,0:0:0:0:
417,240,23344,1,8,0:0:0:0:
262,50,23478,6,0,L|246:203,1,140,4|2,1:2|0:0,0:0:0:0:
137,322,23757,1,0,1:2:0:0:
1,174,23902,2,0,P|63:118|153:127,1,140,8|8,0:0|0:0,0:0:0:0:
133,126,24126,1,8,0:0:0:0:
136,146,24200,1,8,0:0:0:0:
268,10,24350,1,8,0:0:0:0:
265,30,24424,1,8,0:0:0:0:
262,50,24499,1,8,0:0:0:0:
381,99,24648,1,8,0:0:0:0:
384,119,24723,1,8,0:0:0:0:
387,139,24798,6,0,B|425:11|425:11|484:126,1,210,6|0,1:2|0:0,0:0:0:0:
471,167,25101,2,0,L|483:322,1,140,10|0,0:0|0:0,0:0:0:0:
325,380,25405,1,2,1:2:0:0:
390,229,25545,1,0,0:0:0:0:
512,381,25685,1,10,0:0:0:0:
298,285,25825,6,0,L|154:296,2,140,6|0|0,1:2|0:0|0:0,0:0:0:0:
415,372,26246,5,8,0:0:0:0:
380,106,26385,1,0,1:2:0:0:
158,296,26525,5,8,0:0:0:0:
193,30,26665,1,0,1:2:0:0:
12,184,26805,5,10,0:0:0:0:
9,200,26876,1,8,0:0:0:0:
6,216,26948,1,10,0:0:0:0:
3,232,27019,1,8,0:0:0:0:
0,248,27091,6,0,P|66:208|152:226,1,140,2|2,1:2|0:0,0:0:0:0:
194,376,27377,1,8,0:0:0:0:
326,255,27520,2,0,B|344:201|344:201|314:111,2,140,2|0|0,0:0|0:0|0:0,0:0:0:0:
189,124,27949,1,8,0:0:0:0:
231,276,28092,6,0,P|291:342|373:348,1,140,4|2,1:2|0:0,0:0:0:0:
448,211,28376,1,0,1:2:0:0:
336,0,28518,2,2,L|322:156,1,140,10|2,0:0|1:2,0:0:0:0:
136,378,28801,2,0,L|123:238,1,140,10|0,0:0|0:0,0:0:0:0:
323,139,29084,6,0,L|318:191,1,52.5000020027161
95,142,29367,5,10,0:0:0:0:
427,306,29508,1,0,1:2:0:0:
128,288,29650,5,10,0:0:0:0:
460,124,29792,1,0,1:2:0:0:
95,142,29933,5,10,0:0:0:0:
427,306,30075,1,0,1:2:0:0:
276,9,30216,5,10,0:0:0:0:
281,384,30358,2,0,P|282:296|268:237,1,140,6|0,1:2|0:0,0:0:0:0:
125,62,30639,1,2,0:0:0:0:
0,301,30779,2,0,L|157:287,1,140,10|0,0:0|0:0,0:0:0:0:
395,165,31060,2,0,L|237:151,1,140
139,288,31317,1,8,0:0:0:0:
348,306,31446,1,8,0:0:0:0:
255,152,31575,5,6,1:2:0:0:
252,268,31718,1,2,1:2:0:0:
160,66,31861,1,10,0:0:0:0:
163,182,32005,1,2,0:0:0:0:
54,6,32148,1,2,1:2:0:0:
51,122,32280,1,2,0:0:0:0:
252,10,32412,1,10,0:0:0:0:
346,219,32544,6,0,P|415:209|474:143,1,140,4|2,1:2|0:0,0:0:0:0:
394,55,32812,1,0,1:2:0:0:
381,358,32948,5,10,0:0:0:0:
238,93,33085,1,0,1:2:0:0:
175,248,33221,5,10,0:0:0:0:
464,162,33357,1,0,1:2:0:0:
259,384,33494,5,10,0:0:0:0:
262,368,33568,1,8,0:0:0:0:
265,352,33642,1,10,0:0:0:0:
268,336,33716,1,8,0:0:0:0:
271,320,33790,6,0,P|211:367|132:363,1,140,6|0,1:2|0:0,0:0:0:0:
80,105,34077,2,0,L|91:248,1,140,10|0,0:0|0:0,0:0:0:0:
303,139,34365,2,0,L|314:0,1,140,2|0,1:2|0:0,0:0:0:0:
506,96,34630,1,10,0:0:0:0:
404,345,34762,6,0,B|301:340|301:340|258:312,2,140,6|0|0,1:2|0:0|1:2,0:0:0:0:
309,64,35160,5,10,0:0:0:0:
270,319,35293,1,2,1:2:0:0:
79,31,35426,5,8,0:0:0:0:
111,277,35564,1,0,1:2:0:0:
175,115,35702,1,10,0:0:0:0:
34,331,35840,1,10,0:0:0:0:
195,293,35978,6,6,B|268:322|268:322|428:288,1,210,6|0,1:2|0:0,1:2:0:0:
456,245,36254,2,0,P|451:165|408:103,1,140,10|0,0:0|0:0,0:0:0:0:
287,89,36531,2,0,L|294:165,1,70,0|0,0:0|0:0,0:0:0:0:
277,223,36671,2,0,L|269:153,1,70,0|0,0:0|0:0,0:0:0:0:
220,2,36811,1,10,0:0:0:0:
102,205,36951,6,0,P|145:278|231:286,1,140,4|2,1:2|0:0,0:0:0:0:
277,223,37224,1,2,1:2:0:0:
387,359,37358,1,8,0:0:0:0:
46,318,37491,1,2,1:2:0:0:
443,245,37625,1,8,0:0:0:0:
102,205,37759,1,2,1:2:0:0:
297,69,37892,1,10,0:0:0:0:
277,223,38026,1,8,0:0:0:0:
180,0,38160,6,0,L|192:143,1,140,6|0,1:2|0:0,0:0:0:0:
345,384,38427,2,8,L|358:245,1,140,0|0,0:0|0:0,0:0:0:0:
463,143,38694,2,0,P|388:93|286:129,1,188.999994232178,2|0,1:2|0:0,0:0:0:0:
305,86,38969,2,0,P|393:61|470:111,1,188.999994232178,10|0,0:0|0:0,0:0:0:0:
502,229,39244,6,0,L|358:216,1,125.999996154785,0|0,1:2|0:0,0:0:0:0:
0,367,39519,2,0,L|139:354,1,125.999996154785,8|0,0:0|0:0,0:0:0:0:
364,384,39794,2,0,P|311:312|202:310,1,188.999994232178,2|0,1:2|0:0,0:0:0:0:
235,276,40069,2,0,P|326:282|381:356,1,188.999994232178,10|0,0:0|0:0,0:0:0:0:
464,379,40344,6,0,B|484:344|484:344|455:233,1,125.999996154785,6|0,1:2|0:0,0:0:0:0:
255,27,40619,2,0,B|235:62|235:62|264:173,1,125.999996154785,10|0,0:0|0:0,0:0:0:0:
512,150,40894,2,0,B|355:182|355:182|304:240,1,210,2|0,1:2|0:0,0:0:0:0:
278,282,41173,2,0,L|130:269,1,140,8|0,0:0|0:0,0:0:0:0:
25,151,41453,1,2,1:2:0:0:
53,374,41593,1,2,1:2:0:0:
233,164,41732,1,8,0:0:0:0:
138,269,41872,1,2,0:0:0:0:
120,51,42012,5,0,1:2:0:0:
255,351,42152,1,10,0:0:0:0:
335,0,42292,5,2,1:2:0:0:
200,300,42431,6,0,L|237:151,2,140,8|6|0,0:0|1:2|0:0,0:0:0:0:
338,379,42851,2,0,B|450:364|450:364|477:315,1,140,8|0,0:0|0:0,0:0:0:0:
501,136,43130,2,0,P|426:114|321:215,1,210,2|0,1:2|0:0,0:0:0:0:
319,155,43407,2,0,P|392:85|492:103,1,210,10|0,0:0|0:0,0:0:0:0:
444,243,43685,6,0,B|341:268|341:268|238:229,1,140,0|0,1:2|0:0,0:0:0:0:
0,57,43963,2,0,B|103:32|103:32|206:71,1,140,8|0,0:0|0:0,0:0:0:0:
264,0,44241,2,0,P|303:104|204:161,1,210,2|0,1:2|0:0,0:0:0:0:
270,170,44519,2,0,P|337:98|295:9,1,210,10|0,0:0|0:0,0:0:0:0:
134,44,44797,6,0,L|146:190,1,140,6|0,1:2|0:0,0:0:0:0:
323,383,45075,2,0,L|335:243,1,140,10|0,0:0|0:0,0:0:0:0:
506,46,45353,1,2,1:2:0:0:
421,246,45492,1,2,1:2:0:0:
362,74,45631,2,0,P|293:119|266:192,1,140,8|0,0:0|0:0,0:0:0:0:
323,383,45909,5,2,1:2:0:0:
151,240,46047,1,2,0:0:0:0:
334,243,46186,1,8,0:0:0:0:
199,357,46325,2,0,P|109:358|61:325,1,140,2|0,0:0|0:0,0:0:0:0:
142,50,46601,1,10,0:0:0:0:
0,296,46738,1,2,1:2:0:0:
189,138,46876,1,8,0:0:0:0:
273,308,47013,6,0,L|420:320,1,140,6|0,1:2|0:0,0:0:0:0:
512,115,47288,2,0,L|365:127,1,140,10|0,0:0|0:0,0:0:0:0:
152,213,47563,2,0,L|12:201,1,140,2|0,0:2|0:0,0:0:0:0:
142,50,47825,1,10,0:0:0:0:
273,308,47957,6,2,P|362:261|383:215,1,140,6|2,1:2|0:0,0:0:0:0:
289,113,48229,1,2,0:0:0:0:
170,311,48371,1,10,0:0:0:0:
244,211,48513,2,0,B|291:201|291:201|378:228,1,140,2|0,0:0|1:2,0:0:0:0:
418,336,48796,1,0,0:0:0:0:
512,136,48938,1,10,0:0:0:0:
244,211,49080,1,10,0:0:0:0:
378,228,49194,6,2,L|391:83,1,140,6|2,1:2|0:0,0:0:0:0:
487,0,49480,1,10,0:0:0:0:
512,136,49623,2,0,L|498:275,1,140,2|0,0:0|0:0,0:0:0:0:
405,365,49905,1,0,1:2:0:0:
173,141,50043,1,10,0:0:0:0:
512,136,50181,6,0,L|373:122,1,140,6|2,1:2|0:0,0:0:0:0:
447,247,50453,1,0,1:2:0:0:
302,376,50586,5,10,0:0:0:0:
372,121,50719,1,0,1:2:0:0:
180,285,50853,5,10,0:0:0:0:
110,30,50986,1,0,1:2:0:0:
48,224,51119,1,8,0:0:0:0:
45,247,51186,1,8,0:0:0:0:
42,270,51252,1,8,0:0:0:0:
39,293,51319,1,8,0:0:0:0:
35,315,51406,6,2,P|93:278|186:271,1,140,6|2,1:2|0:0,0:0:0:0:
323,384,51681,2,0,L|339:216,1,140,10|0,0:0|0:0,0:0:0:0:
450,30,51957,2,0,L|463:169,1,140,2|0,1:2|0:0,0:0:0:0:
441,351,52233,1,10,0:0:0:0:
285,99,52371,6,0,B|182:79|182:79|133:105,1,140,6|2,1:2|0:0,0:0:0:0:
185,277,52647,1,0,1:2:0:0:
59,56,52785,5,10,0:0:0:0:
425,33,52922,1,0,1:2:0:0:
59,284,53060,5,10,0:0:0:0:
425,307,53198,1,0,1:2:0:0:
245,35,53336,5,10,0:0:0:0:
302,348,53474,1,10,0:0:0:0:
512,181,53612,6,0,P|450:119|331:128,1,210,6|0,1:2|0:0,0:0:0:0:
339,204,53886,2,0,B|286:220|286:220|188:190,1,140,8|0,0:0|0:0,0:0:0:0:
30,31,54161,2,0,L|45:194,1,140,2|0,0:0|1:2,0:0:0:0:
159,353,54412,1,8,0:0:0:0:
141,120,54537,6,0,P|203:74|293:69,1,140,4|2,1:2|0:0,0:0:0:0:
339,204,54800,1,0,1:2:0:0:
189,248,54938,5,10,0:0:0:0:
345,0,55075,1,2,1:2:0:0:
474,332,55213,5,8,0:0:0:0:
337,72,55350,1,2,1:2:0:0:
112,177,55488,5,10,0:0:0:0:
489,184,55625,1,8,0:0:0:0:
299,319,55763,6,0,P|232:370|106:354,1,183.750001752377,6|0,1:2|0:0,0:0:0:0:
81,313,56057,5,8,1:2:0:0:
91,281,56131,1,8,0:0:0:0:
116,258,56204,1,8,0:0:0:0:
148,251,56278,1,8,0:0:0:0:
179,260,56352,5,10,1:2:0:0:
193,217,56430,1,8,0:0:0:0:
207,174,56509,1,8,0:0:0:0:
221,131,56588,1,8,0:0:0:0:
235,88,56667,5,10,1:2:0:0:
249,131,56746,1,8,0:0:0:0:
263,174,56825,1,8,0:0:0:0:
277,217,56904,1,8,0:0:0:0:
291,260,56983,5,8,1:2:0:0:
323,253,57056,1,8,0:0:0:0:
348,230,57129,1,8,0:0:0:0:
358,198,57203,1,8,0:0:0:0:
350,165,57276,1,8,1:2:0:0:
359,132,57349,1,8,0:0:0:0:
383,107,57423,1,8,0:0:0:0:
416,97,57496,1,8,0:0:0:0:
449,104,57570,5,10,1:2:0:0:
404,93,57643,1,8,0:0:0:0:
359,82,57716,1,8,0:0:0:0:
314,71,57790,1,8,0:0:0:0:
269,60,57863,5,10,1:2:0:0:
315,57,57936,1,8,0:0:0:0:
361,54,58010,1,8,0:0:0:0:
407,52,58083,1,8,0:0:0:0:
454,50,58157,6,8,L|461:110,3,52.5000020027161,8|8|8|8,1:2|0:0|0:0|0:0,0:0:0:0:
358,198,58461,2,8,L|351:258,3,52.5000020027161,8|8|8|8,1:2|0:0|0:0|0:0,0:0:0:0:
250,132,58765,5,8,1:2:0:0:
217,121,58842,1,8,0:0:0:0:
184,129,58918,1,8,0:0:0:0:
159,151,58994,1,8,0:0:0:0:
151,184,59070,1,8,1:2:0:0:
160,216,59146,1,8,0:0:0:0:
150,247,59222,1,8,0:0:0:0:
127,271,59298,1,8,0:0:0:0:
94,278,59375,5,8,1:2:0:0:
127,289,59453,1,8,0:0:0:0:
156,308,59532,1,8,0:0:0:0:
179,333,59610,1,8,0:0:0:0:
194,363,59689,1,8,1:2:0:0:
221,381,59768,1,8,0:0:0:0:
253,383,59846,1,8,0:0:0:0:
281,368,59925,1,8,0:0:0:0:
297,341,60004,1,8,1:2:0:0:
305,310,60082,1,8,0:0:0:0:
304,277,60161,1,8,0:0:0:0:
294,245,60239,1,8,0:0:0:0:
276,216,60318,2,0,P|323:214|321:111,1,122.500001168251,0|8,1:2|0:0,0:0:0:0:
335,116,60554,1,8,0:0:0:0:
301,86,60633,6,6,L|102:67,1,183.750001752377,6|0,0:0|0:0,1:2:0:0:
20,76,60937,5,8,1:2:0:0:
23,110,61013,1,8,0:0:0:0:
44,136,61089,1,8,0:0:0:0:
75,149,61165,1,8,0:0:0:0:
108,143,61241,5,10,1:2:0:0:
100,188,61317,1,8,0:0:0:0:
91,232,61393,1,8,0:0:0:0:
83,277,61469,1,8,0:0:0:0:
75,322,61545,5,10,1:2:0:0:
117,306,61621,1,8,0:0:0:0:
160,290,61698,1,8,0:0:0:0:
203,276,61774,1,8,0:0:0:0:
246,261,61850,5,8,1:2:0:0:
225,289,61926,1,8,0:0:0:0:
220,323,62002,1,8,0:0:0:0:
232,354,62078,1,8,0:0:0:0:
257,374,62154,1,8,1:2:0:0:
288,378,62230,1,8,0:0:0:0:
316,365,62306,1,8,0:0:0:0:
333,339,62382,1,8,0:0:0:0:
331,303,62458,5,10,1:2:0:0:
376,311,62536,1,8,0:0:0:0:
420,320,62614,1,8,0:0:0:0:
465,328,62692,1,8,0:0:0:0:
510,336,62770,5,10,1:2:0:0:
476,307,62848,1,8,0:0:0:0:
441,277,62926,1,8,0:0:0:0:
407,247,63005,1,8,0:0:0:0:
372,218,63083,6,8,L|450:209,3,52.5000020027161,8|8|8|8,1:2|0:0|0:0|0:0,0:0:0:0:
235,140,63395,2,8,L|287:146,3,52.5000020027161,8|8|8|8,1:2|0:0|0:0|0:0,0:0:0:0:
136,80,63708,5,8,1:2:0:0:
135,45,63785,1,8,0:0:0:0:
116,16,63863,1,8,0:0:0:0:
87,0,63941,1,8,0:0:0:0:
53,4,64019,1,8,1:2:0:0:
26,24,64097,1,8,0:0:0:0:
12,53,64175,1,8,0:0:0:0:
15,85,64253,1,8,0:0:0:0:
33,111,64331,5,8,1:2:0:0:
71,77,64408,1,8,0:0:0:0:
116,53,64486,1,8,0:0:0:0:
165,41,64563,1,8,0:0:0:0:
215,42,64641,1,8,1:2:0:0:
263,55,64719,1,8,0:0:0:0:
305,79,64796,1,8,0:0:0:0:
339,113,64874,1,8,0:0:0:0:
363,154,64951,1,8,1:2:0:0:
404,177,65029,1,8,0:0:0:0:
451,176,65107,1,8,0:0:0:0:
491,151,65184,1,8,0:0:0:0:
509,106,65262,5,8,1:2:0:0:
437,305,65519,6,6,P|378:318|297:243,1,157.500006008148,6|0,0:0|0:0,1:2:0:0:
243,201,65825,2,0,L|106:211,1,105.000004005432,10|0,0:0|0:0,0:0:0:0:
5,47,66131,2,2,L|141:57,1,105.000004005432,0|0,0:0|0:0,0:0:0:0:
192,113,66387,1,10,0:0:0:0:
161,342,66515,1,2,1:2:0:0:
161,342,66798,5,0,1:2:0:0:
243,201,66952,2,0,B|280:188|280:188|352:214,1,105.000004005432,10|0,0:0|0:0,0:0:0:0:
494,293,67261,1,0,1:2:0:0:
351,384,67415,1,0,1:2:0:0:
433,210,67570,2,0,L|441:98,1,105.000004005432,8|0,0:0|0:0,0:0:0:0:
244,0,67842,6,4,B|172:-7|172:-7|146:7|146:7|75:1,1,157.500006008148,6|0,0:0|0:0,1:2:0:0:
25,48,68152,2,0,P|12:113|20:168,1,105.000004005432,10|0,0:0|0:0,0:0:0:0:
151,267,68463,2,0,L|256:277,1,105.000004005432,2|0,0:0|0:0,0:0:0:0:
60,349,68722,1,8,0:0:0:0:
232,189,68852,1,0,1:2:0:0:
232,189,69137,5,0,1:2:0:0:
313,384,69293,2,0,L|429:373,1,105.000004005432,8|0,0:0|0:0,0:0:0:0:
410,229,69605,1,0,1:2:0:0:
256,277,69743,1,0,1:2:0:0:
469,299,69881,2,0,P|504:246|512:181,1,105.000004005432,10|0,0:0|0:0,0:0:0:0:
383,25,70173,6,0,B|345:57|345:57|360:186,1,157.500006008148,6|0,1:2|0:0,0:0:0:0:
410,229,70476,2,0,P|345:242|287:203,1,105.000004005432,10|0,0:0|0:0,0:0:0:0:
157,85,70780,2,0,L|144:203,1,105.000004005432,2|0,0:0|0:0,0:0:0:0:
165,353,71048,1,10,0:0:0:0:
11,208,71183,1,2,1:2:0:0:
11,208,71467,5,0,1:2:0:0:
226,265,71618,2,0,B|309:255|309:255|344:229,1,105.000004005432,8|0,0:0|0:0,0:0:0:0:
290,48,71920,1,0,1:2:0:0:
469,160,72067,1,0,1:2:0:0:
256,160,72214,2,0,L|128:149,1,105.000004005432,8|0,0:0|0:0,0:0:0:0:
11,208,72490,6,0,B|27:334|27:334|64:357,1,157.500006008148,6|0,1:2|0:0,0:0:0:0:
113,305,72793,2,0,P|171:284|257:297,1,105.000004005432,10|0,0:0|0:0,0:0:0:0:
391,384,73096,2,0,L|402:238,1,105.000004005432,2|0,0:0|0:0,0:0:0:0:
338,85,73335,1,8,0:0:0:0:
505,212,73484,1,2,1:2:0:0:
505,212,73784,5,0,1:2:0:0:
313,297,73933,2,0,B|279:306|279:306|204:280,1,105.000004005432,10|0,0:0|0:0,0:0:0:0:
153,98,74235,1,0,1:2:0:0:
96,272,74378,1,0,1:2:0:0:
317,193,74521,2,0,P|386:226|417:296,1,157.500006008148,10|0,0:0|0:0,0:0:0:0:
466,377,74808,6,0,B|507:320|507:320|477:148,1,210.000008010865,6|0,1:2|0:0,0:0:0:0:
